<?xml version="1.0" standalone="no"?>
<!DOCTYPE svg PUBLIC "-//W3C//DTD SVG 1.1//EN" "http://www.w3.org/Graphics/SVG/1.1/DTD/svg11.dtd" >
<svg>
<metadata>
Created by FontForge 20120731 at Thu Jul 20 15:18:09 2023
 By www
Copyright (c) 2009 Typodermic Fonts. This font is not freely distributable. Visit typodermic.com for more information.
</metadata>
<defs>
<font id="MaquiW00-Book" horiz-adv-x="397" >
  <font-face 
    font-family="MaquiW00-Book"
    font-weight="400"
    font-stretch="normal"
    units-per-em="1000"
    panose-1="2 11 5 6 3 6 2 2 0 4"
    ascent="800"
    descent="-200"
    x-height="492"
    cap-height="664"
    bbox="-177 -246 959 908"
    underline-thickness="50"
    underline-position="-125"
    unicode-range="U+0017-F8FF"
  />
<missing-glyph horiz-adv-x="678" 
d="M151 -241q-114 0 -114 99v799q0 100 114 100h374q116 0 116 -100v-799q0 -99 -116 -99h-374zM321 24l-187 50l-45 -167l188 -49zM336 130q4 16 13 25t20.5 15t25 9.5t26.5 7.5q29 9 50 21.5t37.5 34t29.5 54.5t27 83q8 29 12.5 55t4.5 49q0 49 -26 83t-64.5 55
t-83.5 30.5t-84 9.5q-54 0 -94 -28t-59 -97l-21 -77l175 -48l20 72q3 11 15 11t22.5 -6t10.5 -17l-24 -87q-4 -15 -12.5 -23.5t-21 -14t-27.5 -9.5t-33 -10q-48 -17 -70.5 -52t-35.5 -86l-12 -46l171 -44z" />
    <glyph glyph-name="copyright" unicode="&#x28;C&#x29;" horiz-adv-x="497" 
d="M462 145q0 -47 -17.5 -78t-46.5 -49.5t-68.5 -26.5t-82.5 -8q-45 0 -84 8t-67.5 26.5t-45 49.5t-16.5 78v373q0 46 16.5 77.5t45 50t67.5 26.5t84 8q43 0 82.5 -8t68.5 -26.5t46.5 -50t17.5 -77.5v-373zM423 518q0 35 -14 58.5t-38 38t-56 20.5t-68 6q-37 0 -69 -6
t-55 -20.5t-36.5 -38t-13.5 -58.5v-373q0 -36 13.5 -59.5t36.5 -37.5t55 -20t69 -6q36 0 68 6t56 20t38 37.5t14 59.5v373zM292 311h34v-58q0 -43 -20 -58.5t-54 -15.5t-58 15.5t-24 58.5v168q0 42 24 57.5t58 15.5t54 -15.5t20 -57.5v-60h-34v56q0 22 -10 31t-30 9
q-19 0 -31.5 -9t-12.5 -31v-162q0 -23 12.5 -31.5t31.5 -8.5q18 0 29 8.5t11 31.5v56z" />
    <glyph glyph-name="registered" unicode="&#x28;R&#x29;" horiz-adv-x="497" 
d="M462 145q0 -47 -17.5 -78t-46.5 -49.5t-68.5 -26.5t-82.5 -8q-45 0 -84 8t-67.5 26.5t-45 49.5t-16.5 78v373q0 46 16.5 77.5t45 50t67.5 26.5t84 8q43 0 82.5 -8t68.5 -26.5t46.5 -50t17.5 -77.5v-373zM423 518q0 35 -14 58.5t-38 37.5t-56 20t-68 6q-37 0 -69 -6
t-55 -20t-36.5 -37.5t-13.5 -58.5v-373q0 -36 13.5 -59.5t36.5 -37.5t55 -20t69 -6q36 0 68 6t56 20t38 37.5t14 59.5v373zM260 353q12 0 19 5.5t11 13.5t5 17t1 16q0 22 -7.5 35.5t-21.5 13.5h-57v-101h50zM295 187v97q0 9 -6 23t-30 14h-49v-134h-37v300h106
q16 0 26.5 -6.5t16.5 -16.5t8 -23t2 -26q0 -11 -1.5 -23t-5.5 -22.5t-12 -19t-21 -11.5q26 -5 33 -23.5t7 -37.5v-91h-37z" />
    <glyph glyph-name="uni2117" unicode="&#x28;P&#x29;" horiz-adv-x="497" 
d="M462 145q0 -47 -17.5 -78t-46.5 -49.5t-68.5 -26.5t-82.5 -8q-45 0 -84 8t-67.5 26.5t-45 49.5t-16.5 78v373q0 46 16.5 77.5t45 50t67.5 26.5t84 8q43 0 82.5 -8t68.5 -26.5t46.5 -50t17.5 -77.5v-373zM423 518q0 35 -14 58.5t-38 38t-56 20.5t-68 6q-37 0 -69 -6
t-55 -20.5t-36.5 -38t-13.5 -58.5v-373q0 -36 13.5 -59.5t36.5 -37.5t55 -20t69 -6q36 0 68 6t56 20t38 37.5t14 59.5v373zM173 187v300h96q41 0 54 -22t13 -73t-13 -73.5t-54 -22.5h-58v-109h-38zM263 326q22 0 29 16.5t7 48.5q0 35 -7 49t-29 14h-52v-128h52z" />
    <glyph glyph-name=".notdef" horiz-adv-x="678" 
d="M151 -241q-114 0 -114 99v799q0 100 114 100h374q116 0 116 -100v-799q0 -99 -116 -99h-374zM321 24l-187 50l-45 -167l188 -49zM336 130q4 16 13 25t20.5 15t25 9.5t26.5 7.5q29 9 50 21.5t37.5 34t29.5 54.5t27 83q8 29 12.5 55t4.5 49q0 49 -26 83t-64.5 55
t-83.5 30.5t-84 9.5q-54 0 -94 -28t-59 -97l-21 -77l175 -48l20 72q3 11 15 11t22.5 -6t10.5 -17l-24 -87q-4 -15 -12.5 -23.5t-21 -14t-27.5 -9.5t-33 -10q-48 -17 -70.5 -52t-35.5 -86l-12 -46l171 -44z" />
    <glyph glyph-name=".null" horiz-adv-x="0" 
 />
    <glyph glyph-name="nonmarkingreturn" horiz-adv-x="333" 
 />
    <glyph glyph-name="glyph397" horiz-adv-x="0" 
 />
    <glyph glyph-name="glyph397" horiz-adv-x="0" 
 />
    <glyph glyph-name="uni0017" horiz-adv-x="187" 
 />
    <glyph glyph-name="space" unicode=" " horiz-adv-x="187" 
 />
    <glyph glyph-name="exclam" unicode="!" horiz-adv-x="188" 
d="M74 198q-6 61 -10.5 113.5t-7 101.5t-4 97t-1.5 99q0 17 1 30t3 25h78q3 -12 4 -25t1 -30q0 -51 -1.5 -99t-4 -97t-7 -101.5t-10.5 -113.5h-41zM59 0v146h71v-146h-71z" />
    <glyph glyph-name="quotedbl" unicode="&#x22;" horiz-adv-x="284" 
d="M44 414v250h52v-250h-52zM186 414v250h52v-250h-52z" />
    <glyph glyph-name="numbersign" unicode="#" horiz-adv-x="495" 
d="M246 0l36 208h-115l-35 -208h-50l36 208h-95l5 49h98l26 151h-104l6 49h107l36 207h49l-37 -207h116l37 207h50l-36 -207h96l-7 -49h-98l-26 -151h105l-5 -49h-108l-36 -208h-51zM317 408h-115l-27 -151h116z" />
    <glyph glyph-name="dollar" unicode="$" horiz-adv-x="413" 
d="M180 0v74q-28 1 -54 7.5t-46.5 20.5t-33 36.5t-12.5 57.5v56h64v-40q0 -48 28 -64t77 -16q26 0 46 3.5t33.5 14t20 29t6.5 47.5t-10.5 43.5t-31.5 25.5q-35 17 -75.5 26t-75.5 23.5t-58.5 41t-23.5 78.5q0 37 12.5 61.5t32.5 39t46.5 21t54.5 8.5v70h54v-69
q26 -2 50.5 -7t44 -17t31 -33t11.5 -54v-46h-62v40q0 37 -26.5 48t-72.5 11q-51 0 -79.5 -12.5t-28.5 -57.5q0 -32 20 -49t47 -25q35 -11 71.5 -20.5t68.5 -24.5q40 -18 54.5 -47.5t14.5 -72.5q0 -41 -10 -69t-28.5 -46t-45 -27t-60.5 -12v-74h-54z" />
    <glyph glyph-name="percent" unicode="%" horiz-adv-x="526" 
d="M34 602q0 23 7.5 38.5t20 25t29 13.5t34.5 4q19 0 35.5 -4t29 -13.5t20 -25t7.5 -38.5v-187q0 -23 -7.5 -38.5t-20 -25t-29 -13.5t-35.5 -4q-18 0 -34.5 4t-29 13.5t-20 25t-7.5 38.5v187zM171 602q0 26 -10.5 34.5t-35.5 8.5q-24 0 -35 -8.5t-11 -34.5v-187
q0 -25 11 -33t35 -8q25 0 35.5 8t10.5 33v187zM38 -20l394 704h50l-395 -704h-49zM308 249q0 23 7.5 38.5t20 25t29 13.5t34.5 4q19 0 35.5 -4t29 -13.5t20 -25t7.5 -38.5v-187q0 -23 -7.5 -38.5t-20 -25t-29 -13.5t-35.5 -4q-18 0 -34.5 4t-29 13.5t-20 25t-7.5 38.5v187z
M445 249q0 26 -10.5 34.5t-35.5 8.5q-24 0 -35 -8.5t-11 -34.5v-187q0 -25 11 -33t35 -8q25 0 35.5 8t10.5 33v187z" />
    <glyph glyph-name="ampersand" unicode="&#x26;" horiz-adv-x="488" 
d="M409 0l-64 69q-30 -50 -69.5 -68t-96.5 -18q-28 0 -54.5 8.5t-47 27t-33 47.5t-12.5 70v28q0 54 18 93.5t69 65.5q-18 21 -31 38.5t-21 34.5t-12 35.5t-4 41.5v46q0 45 8 76t26 49.5t47 27t72 8.5t71.5 -8.5t45 -27.5t23 -51t6.5 -78v-27q0 -30 -4.5 -55t-19 -47.5
t-41.5 -42.5t-71 -39l118 -129l73 145h70l-99 -195l113 -125h-80zM289 519q0 27 -2.5 46t-11 31.5t-25 18t-44.5 5.5q-29 0 -46.5 -5.5t-28 -17t-14 -30t-3.5 -45.5v-47q0 -20 3 -35.5t10 -29.5t19 -28.5t29 -33.5q37 16 59.5 30t34.5 27.5t16 28t4 32.5v53zM158 279
q-33 -17 -46 -40.5t-13 -65.5v-34q0 -53 25.5 -74t65.5 -21q36 0 63 16.5t50 58.5z" />
    <glyph glyph-name="quotesingle" unicode="'" horiz-adv-x="142" 
d="M44 414v250h52v-250h-52z" />
    <glyph glyph-name="parenleft" unicode="(" horiz-adv-x="290" 
d="M249 -143q-88 94 -133 208.5t-45 235.5q0 115 42 224t136 203h55q-84 -102 -121.5 -209t-37.5 -219q0 -117 39.5 -228.5t120.5 -214.5h-56z" />
    <glyph glyph-name="parenright" unicode=")" horiz-adv-x="290" 
d="M-15 -143q81 103 120.5 214.5t39.5 228.5q0 112 -37.5 219t-121.5 209h55q94 -94 136 -203t42 -224q0 -121 -45 -235.5t-133 -208.5h-56z" />
    <glyph glyph-name="asterisk" unicode="*" horiz-adv-x="416" 
d="M296 332l-89 122l-87 -122l-35 23l90 124l-142 45l13 38l139 -46v153h43v-153l140 47l14 -39l-142 -45l91 -124z" />
    <glyph glyph-name="plus" unicode="+" horiz-adv-x="548" 
d="M246 117v201h-200v53h200v200h54v-200h200v-53h-200v-201h-54z" />
    <glyph glyph-name="comma" unicode="," horiz-adv-x="270" 
d="M107 151h73l-9 -151q-2 -24 -8.5 -47.5t-17 -42t-25 -30t-31.5 -12.5z" />
    <glyph glyph-name="hyphen" unicode="-" horiz-adv-x="328" 
d="M45 284v52h238v-52h-238z" />
    <glyph glyph-name="period" unicode="." horiz-adv-x="205" 
d="M66 0v151h73v-151h-73z" />
    <glyph glyph-name="slash" unicode="/" horiz-adv-x="286" 
d="M0 0l228 664h58l-230 -664h-56z" />
    <glyph glyph-name="zero" unicode="0" horiz-adv-x="431" 
d="M34 518q0 46 14.5 77.5t39 50t57.5 26.5t70 8t69.5 -8t57.5 -26.5t39.5 -50t14.5 -77.5v-373q0 -47 -14.5 -78t-39.5 -49.5t-57.5 -26.5t-69.5 -8t-70 8t-57.5 26.5t-39 49.5t-14.5 78v373zM325 518q0 61 -28 81.5t-82 20.5t-82 -20.5t-28 -81.5v-373q0 -59 28 -80
t82 -21q53 0 81.5 21t28.5 80v373z" />
    <glyph glyph-name="one" unicode="1" horiz-adv-x="266" 
d="M157 0v507q0 28 -8.5 47.5t-23 31t-34.5 16.5t-43 5q-12 0 -22 -3v66q5 1 10.5 1.5t13.5 0.5q37 0 69.5 -7.5t56.5 -26.5t38 -50t14 -77v-511h-71z" />
    <glyph glyph-name="two" unicode="2" horiz-adv-x="413" 
d="M38 0v174q0 44 6 74.5t23.5 52.5t49 39t81.5 34q36 12 58 22.5t34 23.5t15.5 30.5t3.5 44.5q0 33 -3 57t-13 39t-30 22t-54 7q-57 0 -80.5 -16.5t-23.5 -58.5v-59h-61v61q0 40 13 65.5t34.5 40.5t51 21t62.5 6q48 0 80.5 -9.5t52.5 -30t28.5 -53t8.5 -78.5
q0 -42 -6 -71.5t-22 -51t-45.5 -37.5t-75.5 -31q-41 -13 -64.5 -24t-35 -26t-14.5 -37.5t-3 -59.5v-110h262v-61h-333z" />
    <glyph glyph-name="three" unicode="3" horiz-adv-x="405" 
d="M373 145q0 -45 -12.5 -76t-35.5 -50t-56 -27.5t-74 -8.5q-40 0 -71 8t-52 26.5t-32 49.5t-11 78v60h64v-54q0 -63 25.5 -85t76.5 -22q53 0 80 21t27 80v65q0 58 -20.5 79t-68.5 21h-62v57h63q45 0 65 25t20 79v45q0 62 -25.5 83t-78.5 21q-26 0 -45 -4.5t-32 -17
t-19 -33.5t-6 -54v-51h-64v58q0 46 11 77.5t32 50t52 26.5t71 8q41 0 73 -8t54.5 -26.5t34 -50t11.5 -77.5v-47q0 -51 -21.5 -87t-69.5 -46q49 -8 72.5 -42t23.5 -85v-66z" />
    <glyph glyph-name="four" unicode="4" horiz-adv-x="396" 
d="M285 0v136h-261v68l216 460h69l-217 -466h195v169h64v-367h-66z" />
    <glyph glyph-name="five" unicode="5" horiz-adv-x="418" 
d="M380 145q0 -47 -12.5 -78t-35.5 -49.5t-55.5 -26.5t-71.5 -8t-70 8t-52.5 26.5t-33.5 49.5t-12 78v60h63v-54q0 -32 7.5 -53t21 -33t33 -16.5t42.5 -4.5q57 0 81 22.5t24 84.5v82q0 54 -22 77.5t-73 23.5q-24 0 -40.5 -2t-28.5 -6t-21 -11t-18 -17h-59l20 366h294v-60
h-228l-16 -247q40 36 114 36q82 0 115.5 -40t33.5 -118v-90z" />
    <glyph glyph-name="six" unicode="6" horiz-adv-x="430" 
d="M397 139q0 -45 -14 -75t-38 -48t-56 -25.5t-69 -7.5t-70.5 7.5t-59 25.5t-41 48t-15.5 75v378q0 47 13.5 78.5t37.5 50t57.5 26.5t73.5 8t71.5 -8t54 -26.5t34.5 -50t12 -78.5v-39h-68v39q0 61 -26 82t-78 21q-27 0 -47.5 -4.5t-34.5 -16t-21.5 -31.5t-7.5 -51v-164
q13 31 45.5 49t86.5 18q31 0 60 -6.5t51.5 -24t35.5 -48.5t13 -80v-122zM326 250q0 63 -28 87.5t-82 24.5q-45 0 -72.5 -19t-38.5 -67v-137q0 -55 28 -75t82 -20q24 0 44.5 4.5t35.5 15.5t23 29.5t8 45.5v111z" />
    <glyph glyph-name="seven" unicode="7" horiz-adv-x="374" 
d="M119 0q1 88 14 175.5t35 167t50.5 146.5t60.5 112h-258v63h326v-55q-34 -50 -62.5 -118t-49.5 -147.5t-33.5 -167t-13.5 -176.5h-69z" />
    <glyph glyph-name="eight" unicode="8" horiz-adv-x="427" 
d="M394 145q0 -45 -13 -76t-36.5 -50t-57 -27.5t-74.5 -8.5t-74.5 8.5t-57 27.5t-36.5 50t-13 76v66q0 51 24 85t72 42q-48 10 -69.5 46t-21.5 87v47q0 46 12 77.5t35 50t55.5 26.5t73.5 8t73.5 -8t55.5 -26.5t35 -50t12 -77.5v-40q0 -25 -5 -48.5t-15.5 -42t-28 -31.5
t-42.5 -18q49 -8 72.5 -42t23.5 -85v-66zM323 210q0 31 -6 50.5t-19 30.5t-34 15t-51 4t-51 -4t-34 -15t-19 -30.5t-6 -50.5v-65q0 -59 28.5 -80t81.5 -21t81.5 21t28.5 80v65zM320 516q0 62 -27 83t-80 21t-80 -21t-27 -83v-45q0 -60 25 -82t82 -22q58 0 82.5 22t24.5 82
v45z" />
    <glyph glyph-name="nine" unicode="9" horiz-adv-x="427" 
d="M322 318q-13 -30 -45.5 -48.5t-86.5 -18.5q-32 0 -60.5 6.5t-51 24.5t-35.5 49t-13 80v113q0 45 14 75t38 48t56 25.5t68 7.5q37 0 71 -7.5t59.5 -25.5t40.5 -48t15 -75v-379q0 -47 -13 -78.5t-37 -50t-57.5 -26t-73.5 -7.5t-71.5 7.5t-54 26.5t-34.5 50t-12 78v49h68
v-49q0 -59 25.5 -80t78.5 -21t82 21t29 80v173zM322 524q0 56 -28 76t-82 20q-49 0 -80 -20t-31 -76v-103q0 -63 28 -87t82 -24q43 0 71.5 19t39.5 67v128z" />
    <glyph glyph-name="colon" unicode=":" horiz-adv-x="254" 
d="M90 0v151h73v-151h-73zM90 339v150h73v-150h-73z" />
    <glyph glyph-name="semicolon" unicode=";" horiz-adv-x="270" 
d="M107 339v150h73v-150h-73zM107 151h73l-9 -151q-2 -24 -8.5 -47.5t-17 -42t-25 -30t-31.5 -12.5z" />
    <glyph glyph-name="less" unicode="&#x3c;" horiz-adv-x="548" 
d="M46 316v53l454 221v-60l-394 -187l394 -188v-59z" />
    <glyph glyph-name="equal" unicode="=" horiz-adv-x="548" 
d="M46 415v54h454v-54h-454zM46 216v54h454v-54h-454z" />
    <glyph glyph-name="greater" unicode="&#x3e;" horiz-adv-x="548" 
d="M46 96v59l394 188l-394 187v60l454 -221v-53z" />
    <glyph glyph-name="question" unicode="?" horiz-adv-x="377" 
d="M134 0v146h72v-146h-72zM137 209v31q0 21 3 37.5t11.5 31t24 28.5t41.5 31q23 15 37.5 27.5t22.5 26t11 29.5t3 38q0 39 -4 64.5t-15 40t-31 20.5t-51 6q-27 0 -47 -4t-32.5 -15.5t-18.5 -31t-6 -49.5v-54h-64v54q0 46 9.5 77t29.5 49.5t52 26t77 7.5q49 0 81.5 -9
t52 -30t27 -55t7.5 -83q0 -39 -4 -64.5t-13.5 -43.5t-25 -31.5t-38.5 -28.5q-24 -16 -39 -28.5t-23.5 -24t-11 -23t-2.5 -23.5v-27h-64z" />
    <glyph glyph-name="at" unicode="@" horiz-adv-x="518" 
d="M174 -102q-29 0 -54 6t-44.5 20.5t-30.5 38.5t-11 60v461q0 36 11 60t30.5 38.5t44.5 20.5t54 6h169q28 0 53.5 -6t45 -20.5t30.5 -38.5t11 -60v-374q-21 -8 -54.5 -15.5t-88.5 -7.5q-30 0 -55 6.5t-43 21.5t-28.5 40.5t-10.5 63.5v76q0 42 10 67.5t27.5 40t40.5 19.5
t49 5q38 0 60 -8t38 -19v78q0 43 -25 59.5t-60 16.5h-169q-35 0 -59.5 -16.5t-24.5 -59.5v-450q0 -44 24.5 -60t59.5 -16h308v-54h-308zM428 346q-14 11 -34.5 17t-52.5 6q-18 0 -33 -3t-26 -12t-17 -24.5t-6 -40.5v-65q0 -47 23 -64t59 -17q32 0 52.5 4t34.5 9v190z" />
    <glyph glyph-name="A" unicode="A" horiz-adv-x="431" 
d="M324 0v250h-220v-250h-70v426q0 55 15 95t40 69.5t57.5 50.5t68.5 39q34 -18 66.5 -39t58 -50.5t41 -69.5t15.5 -95v-426h-72zM324 434q0 38 -9 65t-24.5 46.5t-35.5 33.5t-41 26q-21 -12 -41 -26t-35.5 -33.5t-24.5 -46.5t-9 -65v-125h220v125z" />
    <glyph glyph-name="B" unicode="B" horiz-adv-x="430" 
d="M41 0v664h220q40 0 65 -14t38.5 -36.5t18.5 -51t5 -57.5q0 -30 -4 -57.5t-14 -49.5t-27 -37.5t-44 -22.5q28 -6 47.5 -22t31.5 -39.5t17.5 -52t5.5 -59.5q0 -30 -6.5 -59.5t-22 -53t-42.5 -38t-68 -14.5h-221zM239 61q28 0 45.5 9.5t27.5 26t14 38.5t4 47q0 27 -4 50
t-14.5 40.5t-29 27.5t-47.5 10h-126v-249h130zM235 367q27 0 43.5 9.5t26.5 26t13.5 38.5t3.5 46t-3 45.5t-12 37t-25 25t-43 9.5h-130v-237h126z" />
    <glyph glyph-name="C" unicode="C" horiz-adv-x="410" 
d="M313 277h64v-132q0 -47 -12 -78t-33.5 -49.5t-52 -26.5t-66.5 -8q-37 0 -69.5 8t-57 26.5t-38.5 49.5t-14 78v373q0 46 14 77.5t38.5 50t57 26.5t69.5 8q36 0 66.5 -8t52 -26.5t33.5 -50t12 -77.5v-139h-64v139q0 57 -23 79.5t-77 22.5t-81 -22.5t-27 -79.5v-373
q0 -54 27 -77.5t81 -23.5t77 23.5t23 77.5v132z" />
    <glyph glyph-name="D" unicode="D" horiz-adv-x="438" 
d="M41 0v664h181q37 0 69.5 -9t57.5 -31.5t39.5 -60t14.5 -94.5v-280q0 -52 -14.5 -88t-39.5 -58.5t-57.5 -32.5t-69.5 -10h-181zM332 469q0 40 -8 66.5t-22 41.5t-34.5 21t-45.5 6h-111v-543h111q51 0 80.5 28t29.5 100v280z" />
    <glyph glyph-name="E" unicode="E" horiz-adv-x="328" 
d="M41 0v664h254v-60h-184v-226h171v-61h-171v-256h190v-61h-260z" />
    <glyph glyph-name="F" unicode="F" horiz-adv-x="337" 
d="M41 0v664h271v-60h-201v-232h196v-60h-196v-312h-70z" />
    <glyph glyph-name="G" unicode="G" horiz-adv-x="424" 
d="M319 340h67v-328q-25 -10 -65 -19.5t-109 -9.5q-37 0 -69.5 7.5t-56.5 26.5t-38 49.5t-14 77.5v374q0 46 14 77.5t38.5 50t57 26.5t69.5 8q36 0 66.5 -8t52 -26.5t33.5 -50t12 -77.5v-92h-64v92q0 57 -23 79.5t-77 22.5t-81 -22.5t-27 -79.5v-374q0 -29 8.5 -48t23 -30.5
t34.5 -16.5t43 -5q42 0 65 5.5t40 11.5v279z" />
    <glyph glyph-name="H" unicode="H" horiz-adv-x="445" 
d="M332 0v306h-221v-306h-70v664h70v-298h221v298h71v-664h-71z" />
    <glyph glyph-name="I" unicode="I" horiz-adv-x="152" 
d="M41 0v664h70v-664h-70z" />
    <glyph glyph-name="J" unicode="J" horiz-adv-x="266" 
d="M26 44q10 -3 22 -3q49 0 79 21.5t30 77.5v524h71v-525q0 -47 -14 -77.5t-38 -49.5t-56.5 -26.5t-69.5 -7.5q-14 0 -24 3v63z" />
    <glyph glyph-name="K" unicode="K" horiz-adv-x="443" 
d="M349 0l-239 339v-339h-69v664h69v-295l229 295h80l-247 -303l259 -361h-82z" />
    <glyph glyph-name="L" unicode="L" horiz-adv-x="322" 
d="M41 0v664h70v-603h188v-61h-258z" />
    <glyph glyph-name="M" unicode="M" horiz-adv-x="668" 
d="M559 0v516q0 51 -27.5 77.5t-75.5 26.5q-29 0 -51 -7.5t-36 -19.5v-593h-67v589q-15 17 -44.5 24t-54.5 7q-29 0 -52.5 -5t-39.5 -12v-603h-70v651q24 9 65 19t93 10q37 0 76.5 -10t58.5 -30q18 16 50 28t78 12q36 0 66.5 -10t53 -30t35 -51t12.5 -74v-515h-70z" />
    <glyph glyph-name="N" unicode="N" horiz-adv-x="441" 
d="M332 0v520q0 57 -31 78.5t-77 21.5q-42 0 -68.5 -5t-44.5 -12v-603h-70v651q26 9 70 19t114 10q36 0 68.5 -7.5t57 -26.5t38.5 -50t14 -77v-519h-71z" />
    <glyph glyph-name="O" unicode="O" horiz-adv-x="431" 
d="M34 518q0 46 14.5 77.5t39 50t57.5 26.5t70 8t69.5 -8t57.5 -26.5t39.5 -50t14.5 -77.5v-373q0 -47 -14.5 -78t-39.5 -49.5t-57.5 -26.5t-69.5 -8t-70 8t-57.5 26.5t-39 49.5t-14.5 78v373zM325 518q0 61 -28 81.5t-82 20.5t-82 -20.5t-28 -81.5v-373q0 -59 28 -80
t82 -21q53 0 81.5 21t28.5 80v373z" />
    <glyph glyph-name="P" unicode="P" horiz-adv-x="420" 
d="M41 0v664h206q46 0 75.5 -12t46 -37.5t23 -65.5t6.5 -96t-6.5 -96t-23 -65.5t-46 -37.5t-75.5 -12h-136v-242h-70zM234 298q30 0 48.5 9.5t29 29t14.5 48t4 67.5q0 41 -4 70t-14.5 47t-29 26.5t-48.5 8.5h-123v-306h123z" />
    <glyph glyph-name="Q" unicode="Q" horiz-adv-x="431" 
d="M265 -102l-33 105h-17q-37 0 -70 8t-57.5 26.5t-39 49.5t-14.5 78v353q0 46 14.5 77.5t39 50t57.5 26.5t70 8t69.5 -8t57.5 -26.5t39.5 -50t14.5 -77.5v-353q0 -66 -27.5 -101t-70.5 -49l38 -117h-71zM325 518q0 61 -28 81.5t-82 20.5t-82 -20.5t-28 -81.5v-353
q0 -59 28 -80t82 -21q53 0 81.5 21t28.5 80v353z" />
    <glyph glyph-name="R" unicode="R" horiz-adv-x="428" 
d="M323 0v215q0 38 -16 63.5t-62 25.5h-136v-304h-68v664h221q40 0 65.5 -14t40 -36.5t19.5 -51t5 -57.5q0 -30 -4.5 -58t-14.5 -50.5t-26.5 -38.5t-40.5 -22q50 -10 68 -45.5t18 -88.5v-202h-69zM246 361q23 0 38.5 10t24.5 27.5t12.5 40t3.5 47.5q0 24 -3.5 45.5
t-12.5 37.5t-26 25.5t-44 9.5h-130v-243h137z" />
    <glyph glyph-name="S" unicode="S" 
d="M305 466v51q0 61 -24.5 82t-72.5 21q-32 0 -52.5 -5.5t-33.5 -19t-18 -35t-5 -53.5q0 -30 5.5 -50t19 -33.5t37.5 -24t61 -20.5q48 -14 77.5 -31.5t46 -42t22 -58t5.5 -79.5q0 -41 -7.5 -74.5t-27 -58.5t-54 -38.5t-89.5 -13.5q-80 0 -123.5 37.5t-43.5 126.5v89h64v-87
q0 -61 25.5 -83t79.5 -22q31 0 51.5 6.5t32.5 21.5t16.5 38.5t4.5 57.5q0 41 -4.5 66.5t-18 42t-38.5 28t-65 23.5q-39 12 -67 27t-46 36t-26.5 49.5t-8.5 66.5q0 37 8 69t28.5 55t55.5 36t88 13q34 0 63 -7t50 -24.5t33 -46t12 -71.5v-65h-61z" />
    <glyph glyph-name="T" unicode="T" horiz-adv-x="357" 
d="M143 0v604h-130v60h330v-60h-130v-604h-70z" />
    <glyph glyph-name="U" unicode="U" horiz-adv-x="441" 
d="M329 664h71v-652q-26 -9 -70.5 -19t-113.5 -10q-37 0 -69.5 7.5t-56.5 26.5t-38 49.5t-14 77.5v520h70v-520q0 -29 8.5 -48t23 -30.5t34.5 -16.5t43 -5q42 0 68.5 5.5t43.5 11.5v603z" />
    <glyph glyph-name="V" unicode="V" horiz-adv-x="431" 
d="M326 664h70v-426q0 -55 -15 -95t-40 -69.5t-57.5 -50.5t-68.5 -39q-34 18 -66.5 39t-58 50.5t-41 69t-15.5 95.5v426h72v-433q0 -38 9.5 -64.5t24.5 -46.5t35 -34t41 -26q21 12 41 26.5t35.5 34t24.5 46.5t9 64v433z" />
    <glyph glyph-name="W" unicode="W" horiz-adv-x="648" 
d="M543 664h69v-427q0 -56 -13.5 -95.5t-36 -68.5t-52 -50t-60.5 -39q-43 26 -77.5 60.5t-49.5 85.5q-12 -50 -48 -85t-79 -61q-31 18 -60 39t-51.5 50.5t-36.5 69t-14 94.5v427h72v-427q0 -36 7.5 -64t20 -49t29 -36.5t34.5 -27.5q19 12 36 27t29.5 36t20 48.5t7.5 65.5
v427h67v-427q0 -37 7.5 -64.5t20.5 -48.5t30 -36.5t36 -27.5q20 12 37 27.5t29 36.5t19 49t7 64v427z" />
    <glyph glyph-name="X" unicode="X" horiz-adv-x="433" 
d="M348 0q-33 72 -66 143t-67 143l-130 -286h-74l160 342q-38 81 -77 161t-77 161h75l125 -275l125 275h71l-154 -323l162 -341h-73z" />
    <glyph glyph-name="Y" unicode="Y" horiz-adv-x="417" 
d="M174 0v234q-29 17 -56 38t-47 49t-32 64.5t-12 84.5v194h72v-201q0 -38 9.5 -65t24.5 -47t35 -34.5t41 -26.5q21 12 41 26.5t35.5 35t24.5 47.5t9 64v201h70v-194q0 -48 -11.5 -84.5t-31.5 -64.5t-46 -49t-55 -38v-234h-71z" />
    <glyph glyph-name="Z" unicode="Z" horiz-adv-x="388" 
d="M25 0v68l253 536h-243v60h320v-51l-251 -552h251v-61h-330z" />
    <glyph glyph-name="bracketleft" unicode="[" horiz-adv-x="313" 
d="M92 -130v849h209v-59h-144v-732h144v-58h-209z" />
    <glyph glyph-name="backslash" unicode="\" horiz-adv-x="286" 
d="M230 0l-230 664h58l228 -664h-56z" />
    <glyph glyph-name="bracketright" unicode="]" horiz-adv-x="307" 
d="M12 -130v58h144v732h-144v59h208v-849h-208z" />
    <glyph glyph-name="asciicircum" unicode="^" horiz-adv-x="333" 
d="M247 473l-81 139l-83 -139h-55l119 191h37l119 -191h-56z" />
    <glyph glyph-name="underscore" unicode="_" horiz-adv-x="347" 
d="M-1 -113v35h350v-35h-350z" />
    <glyph glyph-name="grave" unicode="`" horiz-adv-x="304" 
d="M40 652v58l222 -137v-39z" />
    <glyph glyph-name="a" unicode="a" horiz-adv-x="403" 
d="M365 11q-23 -12 -58.5 -20t-100.5 -8q-41 0 -74.5 7.5t-57 24.5t-36.5 45t-13 69v35q0 40 13 65t34.5 39.5t50 20t59.5 5.5q40 0 70 -10.5t47 -21.5v85q0 48 -28 72t-76 24q-45 0 -78 -7t-67 -21v65q25 11 60 18t89 7q35 0 65.5 -7.5t53 -25.5t35 -48t12.5 -75v-338z
M299 217q-19 13 -46 22t-57 9q-48 0 -75 -18t-27 -70v-26q0 -49 27.5 -69.5t81.5 -20.5q39 0 60.5 4.5t35.5 12.5v156z" />
    <glyph glyph-name="b" unicode="b" horiz-adv-x="396" 
d="M364 139q0 -45 -12.5 -75t-35 -48t-52.5 -25.5t-65 -7.5q-36 0 -67 7.5t-53 25.5t-34.5 48t-12.5 75v533h65v-199q18 12 46.5 22t73.5 10q30 0 56.5 -6.5t46.5 -24t32 -47.5t12 -78v-210zM299 346q0 57 -26.5 77t-68.5 20q-39 0 -65 -9.5t-42 -20.5v-275q0 -54 28 -74
t73 -20t73 20t28 74v208z" />
    <glyph glyph-name="c" unicode="c" horiz-adv-x="389" 
d="M359 139q0 -45 -12 -75t-34 -48t-51.5 -25.5t-64.5 -7.5q-36 0 -66.5 7.5t-52.5 25.5t-34 48t-12 75v210q0 45 12 75t34 48t52.5 25.5t66.5 7.5q35 0 64.5 -7.5t51.5 -25.5t34 -48t12 -75v-63h-63v63q0 27 -7.5 45.5t-20.5 29t-31.5 15t-39.5 4.5q-45 0 -72.5 -20
t-27.5 -74v-200q0 -61 26 -83t74 -22q45 0 72 20t27 75v67h63v-67z" />
    <glyph glyph-name="d" unicode="d" horiz-adv-x="406" 
d="M32 349q0 48 12 78t32 47.5t46.5 24t56.5 6.5q45 0 73.5 -10t46.5 -22v199h65v-661q-25 -9 -64 -18.5t-105 -9.5q-35 0 -65 7.5t-51.5 25.5t-34 48t-12.5 75v210zM299 413q-16 11 -41.5 20.5t-65.5 9.5q-42 0 -68.5 -20t-26.5 -77v-205q0 -55 27 -76t72 -21q39 0 63 5.5
t40 11.5v352z" />
    <glyph glyph-name="e" unicode="e" 
d="M359 8q-24 -10 -65.5 -17.5t-95.5 -7.5q-35 0 -65.5 7.5t-53 25.5t-35 48t-12.5 75v210q0 45 12.5 75t34.5 48t52.5 25.5t66.5 7.5q34 0 64.5 -7.5t53 -25.5t35.5 -48t13 -75v-135h-267v-69q0 -30 8 -48.5t23 -29.5t35.5 -15t45.5 -4q49 0 84 7t66 18v-65zM299 349
q0 49 -26 71.5t-75 22.5q-51 0 -76 -22.5t-25 -71.5v-77h202v77z" />
    <glyph glyph-name="f" unicode="f" horiz-adv-x="264" 
d="M73 0v443h-53v49h53v49q0 40 12 67t32 43t46 22.5t55 6.5q14 0 22 -3v-60q-5 2 -9 2.5t-12 0.5q-35 0 -57.5 -18.5t-22.5 -66.5v-43h95v-49h-95v-443h-66z" />
    <glyph glyph-name="g" unicode="g" horiz-adv-x="399" 
d="M299 27q-18 -12 -46.5 -21.5t-73.5 -9.5q-30 0 -56.5 6.5t-46.5 24t-32 47.5t-12 78v197q0 45 13 75t35 48t52 25.5t65 7.5q37 0 67.5 -7.5t52.5 -25.5t34.5 -48t12.5 -75v-444q0 -43 -12.5 -72t-35 -46.5t-52.5 -25t-66 -7.5q-33 0 -61.5 7.5t-49.5 25t-32.5 46.5
t-11.5 72v39h61v-39q0 -50 26.5 -70t67.5 -20q44 0 72.5 20t28.5 70v122zM299 349q0 54 -28 74t-73 20q-43 0 -72 -20t-29 -74v-195q0 -57 26.5 -76.5t68.5 -19.5q40 0 65.5 9.5t41.5 20.5v261z" />
    <glyph glyph-name="h" unicode="h" horiz-adv-x="410" 
d="M308 0v346q0 57 -26.5 77t-68.5 20q-39 0 -65.5 -9.5t-41.5 -20.5v-413h-65v672h65v-199q18 12 46 22t73 10q30 0 57 -6.5t47 -24t32 -47.5t12 -78v-349h-65z" />
    <glyph glyph-name="i" unicode="i" horiz-adv-x="156" 
d="M45 0v492h66v-492h-66zM44 551v121h68v-121h-68z" />
    <glyph glyph-name="j" unicode="j" horiz-adv-x="216" 
d="M4 -170q9 -3 21 -3q35 0 58 18.5t23 66.5v580h64v-586q0 -41 -11.5 -67.5t-31 -42.5t-46 -22.5t-55.5 -6.5q-13 0 -22 3v60zM104 551v121h68v-121h-68z" />
    <glyph glyph-name="k" unicode="k" horiz-adv-x="416" 
d="M322 0l-216 253v-253h-65v672h65v-395l202 215h84l-220 -223l233 -269h-83z" />
    <glyph glyph-name="l" unicode="l" horiz-adv-x="147" 
d="M41 0v672h65v-672h-65z" />
    <glyph glyph-name="m" unicode="m" horiz-adv-x="589" 
d="M486 0v366q0 38 -23 57.5t-61 19.5q-24 0 -44 -5.5t-31 -14.5v-423h-62v419q-11 12 -35.5 18t-46.5 6q-24 0 -43.5 -4t-33.5 -9v-430h-65v480q21 8 55.5 16.5t82.5 8.5q15 0 31.5 -2t32 -5.5t28 -8.5t19.5 -12q16 12 44.5 20t68.5 8q66 0 107.5 -32.5t41.5 -104.5v-368
h-66z" />
    <glyph glyph-name="n" unicode="n" horiz-adv-x="410" 
d="M308 0v346q0 28 -7.5 46.5t-20.5 29.5t-31 16t-40 5q-39 0 -63 -5t-40 -12v-426h-65v477q25 9 63.5 18.5t104.5 9.5q35 0 65 -7.5t52 -25.5t34.5 -48t12.5 -75v-349h-65z" />
    <glyph glyph-name="o" unicode="o" 
d="M364 139q0 -45 -13 -75t-35.5 -48t-53 -25.5t-64.5 -7.5q-36 0 -66.5 7.5t-52.5 25.5t-34.5 48t-12.5 75v210q0 45 12.5 75t34.5 48t52.5 25.5t66.5 7.5q34 0 64.5 -7.5t53 -25.5t35.5 -48t13 -75v-210zM299 349q0 54 -28 74t-73 20t-73 -20t-28 -74v-210q0 -55 28 -75
t73 -20q44 0 72.5 20t28.5 75v210z" />
    <glyph glyph-name="p" unicode="p" horiz-adv-x="399" 
d="M32 -233v710q25 9 64 18.5t105 9.5q35 0 65 -7.5t51.5 -25.5t34 -48t12.5 -75v-210q0 -48 -12 -78.5t-32 -47.5t-46.5 -23.5t-56.5 -6.5q-45 0 -73.5 9.5t-46.5 21.5v-247h-65zM299 346q0 55 -27 76t-72 21q-38 0 -62.5 -5t-40.5 -12v-351q16 -12 42 -21.5t65 -9.5
q42 0 68.5 20t26.5 77v205z" />
    <glyph glyph-name="q" unicode="q" horiz-adv-x="415" 
d="M299 -233v247q-18 -12 -46.5 -21.5t-73.5 -9.5q-30 0 -56.5 6.5t-46.5 23.5t-32 47.5t-12 78.5v210q0 45 13 75t35 48t52 25.5t65 7.5q37 0 67.5 -7.5t52.5 -25.5t34.5 -48t12.5 -75v-582h-65zM299 349q0 54 -28 74t-73 20q-43 0 -72 -20t-29 -74v-208q0 -57 26.5 -77
t68.5 -20q40 0 65.5 9.5t41.5 21.5v274z" />
    <glyph glyph-name="r" unicode="r" horiz-adv-x="381" 
d="M41 0v477q23 9 60.5 18.5t97.5 9.5q33 0 62 -6.5t50.5 -22t33.5 -41.5t12 -65v-63h-58v53q0 47 -27.5 65t-69.5 18q-35 0 -58 -5t-38 -12v-426h-65z" />
    <glyph glyph-name="s" unicode="s" horiz-adv-x="394" 
d="M299 347v40q0 19 -8 31t-21.5 18t-32 8t-40.5 2q-23 0 -42.5 -2t-33.5 -9t-21.5 -21t-7.5 -37q0 -33 21.5 -50.5t54 -28.5t69 -19.5t66.5 -23.5q38 -19 51.5 -48.5t13.5 -69.5q0 -45 -12.5 -75t-35.5 -47.5t-55.5 -24.5t-71.5 -7q-30 0 -60.5 4.5t-54.5 18t-39 37
t-15 62.5v56h63v-40q0 -25 8 -40.5t22 -24.5t33.5 -12t42.5 -3q28 0 47.5 4t32.5 15t19 29.5t6 47.5q0 34 -20.5 52.5t-50.5 29t-66 19t-66 23t-50.5 40.5t-20.5 72q0 42 14.5 68t38.5 40t55.5 19t64.5 5q29 0 58.5 -4t53 -16t38 -34t14.5 -58v-46h-62z" />
    <glyph glyph-name="t" unicode="t" horiz-adv-x="234" 
d="M82 0v443h-62v49h62v112h66v-112h65v-49h-65v-443h-66z" />
    <glyph glyph-name="u" unicode="u" horiz-adv-x="412" 
d="M303 492h65v-481q-23 -9 -63 -18.5t-106 -9.5q-35 0 -64.5 7.5t-51 25.5t-34 48t-12.5 75v353h65v-351q0 -55 27.5 -76t70.5 -21q38 0 63 5.5t40 11.5v431z" />
    <glyph glyph-name="v" unicode="v" horiz-adv-x="398" 
d="M300 492h65v-267q0 -55 -13.5 -94.5t-36.5 -69t-53 -50.5t-64 -39q-32 18 -62 39t-53 50.5t-37 69t-14 94.5v267h65v-273q0 -40 8.5 -69t22.5 -49.5t32 -34t38 -23.5q21 10 39.5 24t32.5 34t22 49t8 69v273z" />
    <glyph glyph-name="w" unicode="w" horiz-adv-x="581" 
d="M484 492h65v-283q0 -51 -12 -88.5t-32 -65t-46 -47.5t-54 -36q-43 21 -73 52.5t-42 73.5q-12 -42 -42 -74t-72 -52q-28 16 -54 36t-46 47.5t-32 65t-12 88.5v283h65v-294q0 -64 23 -98.5t57 -56.5q15 10 30 22.5t26 30.5t18 42.5t7 59.5v294h65v-278q0 -40 6 -67.5
t17 -46.5t26 -32.5t32 -24.5q15 10 29.5 23t25.5 31.5t18 43t7 57.5v294z" />
    <glyph glyph-name="x" unicode="x" horiz-adv-x="386" 
d="M302 0l-111 212l-113 -212h-67l136 253l-131 239h72l107 -206l105 206h68l-130 -239l137 -253h-73z" />
    <glyph glyph-name="y" unicode="y" horiz-adv-x="402" 
d="M301 27q-18 -12 -46.5 -21.5t-73.5 -9.5q-30 0 -56.5 6.5t-46.5 24t-32 47.5t-12 78v340h65v-338q0 -57 26.5 -76.5t68.5 -19.5q39 0 65 9.5t42 20.5v404h65v-587q0 -43 -12.5 -72t-35 -46.5t-53 -25t-65.5 -7.5q-33 0 -61.5 7.5t-49.5 25t-32.5 46.5t-11.5 72v39h61v-39
q0 -50 26.5 -70t67.5 -20q45 0 73 19.5t28 70.5v122z" />
    <glyph glyph-name="z" unicode="z" horiz-adv-x="365" 
d="M24 0v56l232 382h-217v54h295v-47l-232 -390h239v-55h-317z" />
    <glyph glyph-name="braceleft" unicode="{" horiz-adv-x="322" 
d="M271 -131q-52 0 -83 9.5t-47.5 29t-21.5 49t-5 70.5q0 9 1 29t1.5 42t1.5 41.5t1 26.5q0 58 -17 81t-62 23v50q45 0 62 23.5t17 81.5q0 7 -1 26t-1.5 40.5t-1.5 41.5t-1 29q0 40 5 70t21.5 49.5t47.5 29t83 9.5h28v-48h-21q-34 0 -54 -6t-30.5 -18.5t-14 -32.5t-3.5 -47
q0 -37 2.5 -83t2.5 -84q0 -46 -23 -73.5t-60 -32.5q37 -5 60 -33t23 -73q0 -38 -2.5 -84t-2.5 -85q0 -27 3.5 -47t14 -32.5t30.5 -18.5t54 -6h21v-47h-28z" />
    <glyph glyph-name="bar" unicode="|" horiz-adv-x="223" 
d="M82 -125v861h58v-861h-58z" />
    <glyph glyph-name="braceright" unicode="}" horiz-adv-x="324" 
d="M23 -131v47h20q34 0 54 6t31 18.5t14.5 32.5t3.5 47q0 39 -2.5 85t-2.5 84q0 45 22.5 73t59.5 33q-37 5 -59.5 32.5t-22.5 73.5q0 38 2.5 84t2.5 83q0 27 -3.5 47t-14.5 32.5t-31 18.5t-54 6h-20v48h28q52 0 83 -9.5t47.5 -29t21.5 -49.5t5 -70q0 -9 -1 -29t-1.5 -41.5
t-1.5 -40.5t-1 -26q0 -58 16.5 -81.5t61.5 -23.5v-50q-45 0 -61.5 -23t-16.5 -81q0 -7 1 -26.5t1.5 -41.5t1.5 -42t1 -29q0 -41 -5 -70.5t-21.5 -49t-47.5 -29t-83 -9.5h-28z" />
    <glyph glyph-name="asciitilde" unicode="~" horiz-adv-x="576" 
d="M528 321q-29 -35 -63 -51t-79 -16q-29 0 -55 10t-51 22.5t-50.5 22.5t-53.5 10q-42 0 -72 -19t-58 -56v60q21 26 51.5 46.5t75.5 20.5q34 0 62 -10t53.5 -21.5t50 -21.5t50.5 -10q42 0 75 16t64 56v-59z" />
    <glyph glyph-name="uni00A0" unicode="&#xa0;" horiz-adv-x="187" 
 />
    <glyph glyph-name="exclamdown" unicode="&#xa1;" horiz-adv-x="188" 
d="M115.005 466.012q5.99902 -60.9961 10.499 -113.493q4.5 -52.4961 7 -101.493q2.49902 -48.9971 3.99902 -96.9941t1.5 -98.9941q0 -16.999 -1 -29.998t-3 -24.998h-77.9951q-3 11.999 -3.99902 24.998q-1 12.999 -1 29.998q0 50.9971 1.5 98.9941
q1.49902 47.9971 3.99902 96.9941t7 101.493q4.5 52.4971 10.499 113.493h40.998zM130.004 664v-145.991h-70.9961v145.991h70.9961z" />
    <glyph glyph-name="cent" unicode="&#xa2;" horiz-adv-x="396" 
d="M172 0v74q-62 5 -100 40t-38 116v210q0 40 10 68.5t28 47t43.5 27.5t56.5 11v70h53v-70q30 -2 55 -11t43 -27.5t28 -47t10 -68.5v-63h-63v63q0 54 -27 74t-72 20t-72.5 -20t-27.5 -74v-210q0 -55 27.5 -75t72.5 -20t72 20t27 75v67h63v-67q0 -41 -10 -69t-28 -46.5
t-43 -28t-55 -12.5v-74h-53z" />
    <glyph glyph-name="sterling" unicode="&#xa3;" horiz-adv-x="425" 
d="M398 19q-23 -36 -71 -36q-17 0 -32.5 5.5t-31.5 12.5t-34.5 14t-40.5 10q-32 -42 -92 -42q-33 0 -62 17v55q25 -12 51 -12q48 0 66.5 28t18.5 73q0 44 -15.5 75t-35.5 60h-82v42h60q-26 34 -41 73.5t-15 96.5q0 46 8 81.5t27.5 59.5t51.5 36t80 12q34 0 64.5 -6.5t54 -23
t37 -45t13.5 -72.5v-67h-64v53q0 57 -29 79t-74 22q-30 0 -49.5 -6.5t-31.5 -22t-16.5 -40t-4.5 -60.5q0 -32 4.5 -57t12 -45t18 -36.5t21.5 -31.5h190v-42h-171q21 -30 34 -64t13 -70q0 -40 -18 -77q22 -3 39 -8t31 -10t26.5 -8.5t26.5 -3.5q19 0 34 7.5t29 25.5v-52z" />
    <glyph glyph-name="currency" unicode="&#xa4;" horiz-adv-x="528" 
d="M384 190q-53 -42 -121 -42q-69 0 -120 42l-64 -66l-39 38l67 64q-20 25 -31.5 55.5t-11.5 65.5q0 68 42 121l-65 63l39 38l61 -65q26 20 56.5 31.5t65.5 11.5t65.5 -11.5t56.5 -31.5l62 65l38 -38l-65 -63q20 -26 31.5 -56t11.5 -65t-11.5 -65.5t-31.5 -55.5l66 -64
l-38 -38zM427 347q0 34 -13 64t-35 52t-52 35t-64 13t-63.5 -13t-51.5 -35t-35 -52t-13 -64t13 -63.5t35 -51.5t51.5 -35t63.5 -13t64 13t52 35t35 51.5t13 63.5z" />
    <glyph glyph-name="yen" unicode="&#xa5;" horiz-adv-x="431" 
d="M252 88v-88h-71v88h-147v45h147v87h-147v45h147v42q-29 17 -56 38t-47 49t-32 64.5t-12 84.5v121h72v-128q0 -38 9.5 -65t24.5 -47t35 -34.5t41 -26.5q21 12 41 26.5t35.5 34.5t24.5 47t9 65v128h70v-121q0 -48 -11.5 -84.5t-31.5 -64.5t-46 -49t-55 -38v-42h144v-45
h-144v-87h144v-45h-144z" />
    <glyph glyph-name="brokenbar" unicode="&#xa6;" horiz-adv-x="360" 
d="M150 -125v372h58v-372h-58zM150 397v339h58v-339h-58z" />
    <glyph glyph-name="section" unicode="&#xa7;" horiz-adv-x="424" 
d="M105 14q0 -39 26 -51.5t74 -12.5q24 0 44 2.5t34.5 11t22.5 24t8 42.5q0 32 -17.5 50t-49.5 28q-36 11 -73 21t-66.5 27t-48 44t-18.5 73q0 57 21.5 94.5t72.5 53.5q-18 8 -34.5 18t-28.5 24t-19 33.5t-7 48.5q0 43 15.5 69.5t40.5 41t56.5 19.5t63.5 5q28 0 56.5 -4
t51.5 -16t37.5 -34.5t14.5 -59.5v-48h-62v41q0 39 -26.5 50.5t-71.5 11.5q-23 0 -42.5 -2.5t-33.5 -10t-22 -22.5t-8 -39q0 -17 5 -29.5t16.5 -22.5t31 -18t48.5 -16q32 -9 62.5 -19t54.5 -27t38.5 -43.5t14.5 -68.5q0 -54 -20 -93t-68 -56q17 -8 32 -17.5t26.5 -24t18 -34
t6.5 -46.5q0 -43 -14.5 -70.5t-38.5 -43t-56 -21.5t-67 -6q-29 0 -58 4t-52.5 17t-38 35.5t-14.5 60.5v50h62v-44zM319 287q0 56 -32.5 78t-90.5 22q-38 0 -63 -28.5t-25 -74.5q0 -48 29 -73.5t98 -25.5q36 0 60 27t24 75z" />
    <glyph glyph-name="dieresis" unicode="&#xa8;" 
d="M69 554v133h71v-133h-71zM256 554v133h72v-133h-72z" />
    <glyph glyph-name="ordfeminine" unicode="&#xaa;" horiz-adv-x="252" 
d="M218 299q-15 -8 -35.5 -13t-55.5 -5q-47 0 -75 18.5t-28 65.5v19q0 22 7.5 37t20 23.5t28.5 12t34 3.5q17 0 31.5 -4.5t25.5 -9.5v36q0 23 -13.5 34.5t-36.5 11.5t-42.5 -5t-40.5 -13v46q15 8 35.5 12.5t49.5 4.5q20 0 37.5 -4.5t30 -15t20 -27.5t7.5 -43v-184zM171 409
q-9 6 -22.5 10t-26.5 4q-23 0 -36 -8t-13 -33v-14q0 -23 13.5 -33t39.5 -10q17 0 27.5 2t17.5 5v77z" />
    <glyph glyph-name="guillemotleft" unicode="&#xab;" horiz-adv-x="420" 
d="M22 317l134 174l33 -37l-108 -137l108 -137l-33 -35zM232 317l134 174l33 -37l-108 -137l108 -137l-33 -35z" />
    <glyph glyph-name="logicalnot" unicode="&#xac;" horiz-adv-x="607" 
d="M490 0v425h-441v67h507v-492h-66z" />
    <glyph glyph-name="macron" unicode="&#xaf;" horiz-adv-x="408" 
d="M49 606v49h309v-49h-309z" />
    <glyph glyph-name="degree" unicode="&#xb0;" horiz-adv-x="396" 
d="M196 355q-38 0 -64.5 12.5t-43.5 34t-25 50.5t-8 62t8 62t25 50.5t43.5 33.5t64.5 12t65.5 -12t45 -33.5t25.5 -50.5t8 -62t-8 -62t-25.5 -50.5t-45 -34t-65.5 -12.5zM196 390q28 0 48 10t32.5 26.5t18.5 39t6 48.5q0 52 -24.5 87.5t-80.5 35.5t-79.5 -35.5t-23.5 -87.5
q0 -26 5.5 -48.5t18 -39t32 -26.5t47.5 -10z" />
    <glyph glyph-name="plusminus" unicode="&#xb1;" horiz-adv-x="548" 
d="M246 117v201h-200v53h200v200h54v-200h200v-53h-200v-201h-54zM47 29v53h454v-53h-454z" />
    <glyph glyph-name="uni00B2" unicode="&#xb2;" horiz-adv-x="238" 
d="M33 343v84q0 24 3 40.5t11.5 28t23.5 20t39 16.5q17 6 27.5 9.5t16 9.5t7 16t1.5 28q0 32 -7.5 41t-34.5 9q-28 0 -36 -7t-8 -24v-30h-39v31q0 40 23.5 54t57.5 14q51 0 68.5 -20.5t17.5 -66.5q0 -22 -3 -37.5t-10.5 -26.5t-22 -19t-36.5 -15q-18 -6 -28.5 -11t-16 -12
t-7 -17t-1.5 -25v-51h123v-39h-169z" />
    <glyph glyph-name="uni00B3" unicode="&#xb3;" horiz-adv-x="234" 
d="M203 415q0 -45 -23.5 -63t-65.5 -18t-63.5 16.5t-21.5 64.5v30h41v-26q0 -28 10 -36.5t34 -8.5q23 0 33.5 8t10.5 33v36q0 26 -9 34.5t-31 8.5h-27v36h27q21 0 30 10t9 35v26q0 27 -10 35.5t-33 8.5q-24 0 -34 -9t-10 -39v-24h-41v29q0 48 21.5 64.5t63.5 16.5t64.5 -17
t22.5 -64v-27q0 -21 -10 -39.5t-34 -23.5q24 -5 35 -21.5t11 -39.5v-36z" />
    <glyph glyph-name="acute" unicode="&#xb4;" horiz-adv-x="304" 
d="M40 534v39l222 137v-58z" />
    <glyph glyph-name="mu" unicode="&#xb5;" horiz-adv-x="414" 
d="M41 -233v725h65v-347q0 -21 7 -39t19.5 -32t30.5 -22t41 -8q38 0 63 5.5t40 11.5v431h65v-481q-23 -9 -58.5 -18.5t-77.5 -9.5q-60 0 -89.5 12t-40.5 32v-260h-65z" />
    <glyph glyph-name="mu" unicode="&#x3bc;" horiz-adv-x="414" 
d="M41 -233v725h65v-347q0 -21 7 -39t19.5 -32t30.5 -22t41 -8q38 0 63 5.5t40 11.5v431h65v-481q-23 -9 -58.5 -18.5t-77.5 -9.5q-60 0 -89.5 12t-40.5 32v-260h-65z" />
    <glyph glyph-name="paragraph" unicode="&#xb6;" horiz-adv-x="502" 
d="M371 -100v715h-124v-715h-51v491h-44q-101 0 -101 139q0 63 28 98.5t82 35.5h302v-49h-41v-715h-51z" />
    <glyph glyph-name="periodcentered" unicode="&#xb7;" horiz-adv-x="205" 
d="M66 250v151h73v-151h-73z" />
    <glyph glyph-name="cedilla" unicode="&#xb8;" horiz-adv-x="198" 
d="M74 -34h65l-6 -62q-2 -27 -7.5 -52.5t-14.5 -46t-22 -33.5t-30 -15z" />
    <glyph glyph-name="uni00B9" unicode="&#xb9;" horiz-adv-x="164" 
d="M84 343v253q0 23 -12.5 32t-32.5 9q-9 0 -11 -1v42q2 0 5 0.5t7 0.5q37 0 63.5 -17.5t26.5 -63.5v-255h-46z" />
    <glyph glyph-name="ordmasculine" unicode="&#xba;" horiz-adv-x="248" 
d="M217 370q0 -51 -27.5 -70t-66.5 -19q-42 0 -68.5 19t-26.5 70v113q0 52 27 71t68 19q39 0 66.5 -19.5t27.5 -70.5v-113zM171 483q0 26 -13.5 35.5t-34.5 9.5q-22 0 -35.5 -9.5t-13.5 -35.5v-113q0 -26 13.5 -35.5t35.5 -9.5q21 0 34.5 9.5t13.5 35.5v113z" />
    <glyph glyph-name="guillemotright" unicode="&#xbb;" horiz-adv-x="420" 
d="M21 180l108 137l-108 137l33 37l134 -174l-134 -172zM231 180l108 137l-108 137l33 37l134 -174l-134 -172z" />
    <glyph glyph-name="onequarter" unicode="&#xbc;" horiz-adv-x="516" 
d="M124 343v253q0 23 -12.5 32t-32.5 9q-9 0 -11 -1v42q2 0 5 0.5t7 0.5q37 0 63.5 -17.5t26.5 -63.5v-255h-46zM27 -20l394 704h50l-395 -704h-49zM436 -10v66h-128v43l103 223h43l-101 -227h84v78h42v-183h-43z" />
    <glyph glyph-name="onehalf" unicode="&#xbd;" horiz-adv-x="540" 
d="M124 343v253q0 23 -12.5 32t-32.5 9q-9 0 -11 -1v42q2 0 5 0.5t7 0.5q37 0 63.5 -17.5t26.5 -63.5v-255h-46zM27 -20l394 704h50l-395 -704h-49zM334 -10v84q0 24 3 40.5t11.5 28t23.5 20t39 16.5q17 6 27.5 9.5t16 9.5t7 16t1.5 28q0 32 -7.5 41t-34.5 9q-28 0 -36 -7
t-8 -24v-30h-39v31q0 40 23.5 54t57.5 14q51 0 68.5 -20.5t17.5 -66.5q0 -22 -3 -37.5t-10.5 -26.5t-22 -19t-36.5 -15q-18 -6 -28.5 -11t-16 -12t-7 -17t-1.5 -25v-51h123v-39h-169z" />
    <glyph glyph-name="threequarters" unicode="&#xbe;" horiz-adv-x="516" 
d="M213 415q0 -45 -23.5 -63t-65.5 -18t-63.5 16.5t-21.5 64.5v30h41v-26q0 -28 10 -36.5t34 -8.5q23 0 33.5 8t10.5 33v36q0 26 -9 34.5t-31 8.5h-27v36h27q21 0 30 10t9 35v26q0 27 -10 35.5t-33 8.5q-24 0 -34 -9t-10 -39v-24h-41v29q0 48 21.5 64.5t63.5 16.5t64.5 -17
t22.5 -64v-27q0 -21 -10 -39.5t-34 -23.5q24 -5 35 -21.5t11 -39.5v-36zM27 -20l394 704h50l-395 -704h-49zM416 -10v66h-128v43l103 223h43l-101 -227h84v78h42v-183h-43z" />
    <glyph glyph-name="questiondown" unicode="&#xbf;" horiz-adv-x="377" 
d="M244.008 664v-145.991h-71.9951v145.991h71.9951zM241.009 455.013v-30.998q0 -20.999 -3 -37.498t-11.5 -30.998q-8.49902 -14.499 -23.998 -28.498t-41.4971 -30.998q-22.999 -14.999 -37.498 -27.498t-22.499 -25.999q-7.99902 -13.499 -10.999 -29.498t-3 -37.9971
q0 -38.998 4 -64.4961q4 -25.499 14.999 -39.998t30.998 -20.499q19.999 -5.99902 50.9971 -5.99902q26.998 0 46.9971 3.99902q19.999 4 32.498 15.5q12.499 11.499 18.499 30.998q5.99902 19.498 5.99902 49.4961v53.9971h63.9961v-53.9971q0 -45.9971 -9.49902 -76.9951
t-29.498 -49.4971q-19.999 -18.498 -51.9971 -25.998t-76.9951 -7.5q-48.9971 0 -81.4951 9q-32.498 8.99902 -51.9971 29.998t-26.998 54.9971q-7.5 33.9971 -7.5 82.9941q0 38.998 4 64.4961q4 25.499 13.499 43.498q9.5 17.999 24.999 31.498t38.4971 28.498
q23.999 15.999 38.998 28.498t23.498 23.999q8.5 11.499 11 22.998q2.5 11.5 2.5 23.499v26.998h63.9961z" />
    <glyph glyph-name="Agrave" unicode="&#xc0;" horiz-adv-x="431" 
d="M324 0v250h-220v-250h-70v426q0 55 15 95t40 69.5t57.5 50.5t68.5 39q34 -18 66.5 -39t58 -50.5t41 -69.5t15.5 -95v-426h-72zM324 434q0 38 -9 65t-24.5 46.5t-35.5 33.5t-41 26q-21 -12 -41 -26t-35.5 -33.5t-24.5 -46.5t-9 -65v-125h220v125zM84 824v58l222 -137v-39z
" />
    <glyph glyph-name="Aacute" unicode="&#xc1;" horiz-adv-x="431" 
d="M324 0v250h-220v-250h-70v426q0 55 15 95t40 69.5t57.5 50.5t68.5 39q34 -18 66.5 -39t58 -50.5t41 -69.5t15.5 -95v-426h-72zM324 434q0 38 -9 65t-24.5 46.5t-35.5 33.5t-41 26q-21 -12 -41 -26t-35.5 -33.5t-24.5 -46.5t-9 -65v-125h220v125zM124 706v39l222 137v-58z
" />
    <glyph glyph-name="Acircumflex" unicode="&#xc2;" horiz-adv-x="431" 
d="M324 0v250h-220v-250h-70v426q0 55 15 95t40 69.5t57.5 50.5t68.5 39q34 -18 66.5 -39t58 -50.5t41 -69.5t15.5 -95v-426h-72zM324 434q0 38 -9 65t-24.5 46.5t-35.5 33.5t-41 26q-21 -12 -41 -26t-35.5 -33.5t-24.5 -46.5t-9 -65v-125h220v125zM217 869l-147 -146
l-25 27l142 158h58l143 -158l-25 -27z" />
    <glyph glyph-name="Atilde" unicode="&#xc3;" horiz-adv-x="431" 
d="M324 0v250h-220v-250h-70v426q0 55 15 95t40 69.5t57.5 50.5t68.5 39q34 -18 66.5 -39t58 -50.5t41 -69.5t15.5 -95v-426h-72zM324 434q0 38 -9 65t-24.5 46.5t-35.5 33.5t-41 26q-21 -12 -41 -26t-35.5 -33.5t-24.5 -46.5t-9 -65v-125h220v125zM61 778v49h309v-49h-309z
" />
    <glyph glyph-name="Adieresis" unicode="&#xc4;" horiz-adv-x="431" 
d="M324 0v250h-220v-250h-70v426q0 55 15 95t40 69.5t57.5 50.5t68.5 39q34 -18 66.5 -39t58 -50.5t41 -69.5t15.5 -95v-426h-72zM324 434q0 38 -9 65t-24.5 46.5t-35.5 33.5t-41 26q-21 -12 -41 -26t-35.5 -33.5t-24.5 -46.5t-9 -65v-125h220v125zM86 726v133h71v-133h-71z
M273 726v133h72v-133h-72z" />
    <glyph glyph-name="Aring" unicode="&#xc5;" horiz-adv-x="431" 
d="M324 0v250h-220v-250h-70v426q0 55 15 95t40 69.5t57.5 50.5t68.5 39q34 -18 66.5 -39t58 -50.5t41 -69.5t15.5 -95v-426h-72zM324 434q0 38 -9 65t-24.5 46.5t-35.5 33.5t-41 26q-21 -12 -41 -26t-35.5 -33.5t-24.5 -46.5t-9 -65v-125h220v125zM314 792q0 -48 -22.5 -72
t-76.5 -24q-98 0 -98 96q0 46 23.5 71t74.5 25q54 0 76.5 -25t22.5 -71zM284 792q0 34 -16.5 51t-52.5 17q-67 0 -67 -68t67 -68q36 0 52.5 17t16.5 51z" />
    <glyph glyph-name="AE" unicode="&#xc6;" horiz-adv-x="522" 
d="M254 0v250h-150v-250h-70v426q0 58 15 102.5t42 74.5t63.5 45.5t80.5 15.5h253v-60h-166v-226h154v-61h-154v-256h172v-61h-240zM254 604h-19q-58 0 -94.5 -48t-36.5 -130v-117h150v295z" />
    <glyph glyph-name="Ccedilla" unicode="&#xc7;" horiz-adv-x="410" 
d="M313 277h64v-132q0 -47 -12 -78t-33.5 -49.5t-52 -26.5t-66.5 -8q-37 0 -69.5 8t-57 26.5t-38.5 49.5t-14 78v373q0 46 14 77.5t38.5 50t57 26.5t69.5 8q36 0 66.5 -8t52 -26.5t33.5 -50t12 -77.5v-139h-64v139q0 57 -23 79.5t-77 22.5t-81 -22.5t-27 -79.5v-373
q0 -54 27 -77.5t81 -23.5t77 23.5t23 77.5v132zM180 -34h65l-6 -62q-2 -27 -7.5 -52.5t-14.5 -46t-22 -33.5t-30 -15z" />
    <glyph glyph-name="Egrave" unicode="&#xc8;" horiz-adv-x="328" 
d="M41 0v664h254v-60h-184v-226h171v-61h-171v-256h190v-61h-260zM39 824v58l222 -137v-39z" />
    <glyph glyph-name="Eacute" unicode="&#xc9;" horiz-adv-x="328" 
d="M41 0v664h254v-60h-184v-226h171v-61h-171v-256h190v-61h-260zM78 706v39l222 137v-58z" />
    <glyph glyph-name="Ecircumflex" unicode="&#xca;" horiz-adv-x="328" 
d="M41 0v664h254v-60h-184v-226h171v-61h-171v-256h190v-61h-260zM171 869l-147 -146l-25 27l142 158h58l143 -158l-25 -27z" />
    <glyph glyph-name="Edieresis" unicode="&#xcb;" horiz-adv-x="328" 
d="M41 0v664h254v-60h-184v-226h171v-61h-171v-256h190v-61h-260zM41 726v133h71v-133h-71zM228 726v133h72v-133h-72z" />
    <glyph glyph-name="Igrave" unicode="&#xcc;" horiz-adv-x="152" 
d="M41 0v664h70v-664h-70zM-54 824v58l222 -137v-39z" />
    <glyph glyph-name="Iacute" unicode="&#xcd;" horiz-adv-x="152" 
d="M41 0v664h70v-664h-70zM-14 706v39l222 137v-58z" />
    <glyph glyph-name="Icircumflex" unicode="&#xce;" horiz-adv-x="152" 
d="M41 0v664h70v-664h-70zM78 869l-147 -146l-25 27l142 158h58l143 -158l-25 -27z" />
    <glyph glyph-name="Idieresis" unicode="&#xcf;" horiz-adv-x="152" 
d="M41 0v664h70v-664h-70zM-52 726v133h71v-133h-71zM135 726v133h72v-133h-72z" />
    <glyph glyph-name="Eth" unicode="&#xd0;" horiz-adv-x="438" 
d="M43 0v317h-25v61h25v286h181q37 0 69.5 -9t57.5 -31.5t39.5 -60t14.5 -94.5v-280q0 -52 -14.5 -88t-39.5 -58.5t-57.5 -32.5t-69.5 -10h-181zM334 469q0 40 -8 66.5t-22.5 41.5t-34.5 21t-45 6h-111v-226h124v-61h-124v-256h111q51 0 80.5 28t29.5 100v280z" />
    <glyph glyph-name="Ntilde" unicode="&#xd1;" horiz-adv-x="441" 
d="M332 0v520q0 57 -31 78.5t-77 21.5q-42 0 -68.5 -5t-44.5 -12v-603h-70v651q26 9 70 19t114 10q36 0 68.5 -7.5t57 -26.5t38.5 -50t14 -77v-519h-71zM66 778v49h309v-49h-309z" />
    <glyph glyph-name="Ograve" unicode="&#xd2;" horiz-adv-x="431" 
d="M34 518q0 46 14.5 77.5t39 50t57.5 26.5t70 8t69.5 -8t57.5 -26.5t39.5 -50t14.5 -77.5v-373q0 -47 -14.5 -78t-39.5 -49.5t-57.5 -26.5t-69.5 -8t-70 8t-57.5 26.5t-39 49.5t-14.5 78v373zM325 518q0 61 -28 81.5t-82 20.5t-82 -20.5t-28 -81.5v-373q0 -59 28 -80
t82 -21q53 0 81.5 21t28.5 80v373zM84 824v58l222 -137v-39z" />
    <glyph glyph-name="Oacute" unicode="&#xd3;" horiz-adv-x="431" 
d="M34 518q0 46 14.5 77.5t39 50t57.5 26.5t70 8t69.5 -8t57.5 -26.5t39.5 -50t14.5 -77.5v-373q0 -47 -14.5 -78t-39.5 -49.5t-57.5 -26.5t-69.5 -8t-70 8t-57.5 26.5t-39 49.5t-14.5 78v373zM325 518q0 61 -28 81.5t-82 20.5t-82 -20.5t-28 -81.5v-373q0 -59 28 -80
t82 -21q53 0 81.5 21t28.5 80v373zM124 706v39l222 137v-58z" />
    <glyph glyph-name="Ocircumflex" unicode="&#xd4;" horiz-adv-x="431" 
d="M34 518q0 46 14.5 77.5t39 50t57.5 26.5t70 8t69.5 -8t57.5 -26.5t39.5 -50t14.5 -77.5v-373q0 -47 -14.5 -78t-39.5 -49.5t-57.5 -26.5t-69.5 -8t-70 8t-57.5 26.5t-39 49.5t-14.5 78v373zM325 518q0 61 -28 81.5t-82 20.5t-82 -20.5t-28 -81.5v-373q0 -59 28 -80
t82 -21q53 0 81.5 21t28.5 80v373zM217 869l-147 -146l-25 27l142 158h58l143 -158l-25 -27z" />
    <glyph glyph-name="Otilde" unicode="&#xd5;" horiz-adv-x="431" 
d="M34 518q0 46 14.5 77.5t39 50t57.5 26.5t70 8t69.5 -8t57.5 -26.5t39.5 -50t14.5 -77.5v-373q0 -47 -14.5 -78t-39.5 -49.5t-57.5 -26.5t-69.5 -8t-70 8t-57.5 26.5t-39 49.5t-14.5 78v373zM325 518q0 61 -28 81.5t-82 20.5t-82 -20.5t-28 -81.5v-373q0 -59 28 -80
t82 -21q53 0 81.5 21t28.5 80v373zM61 778v49h309v-49h-309z" />
    <glyph glyph-name="Odieresis" unicode="&#xd6;" horiz-adv-x="431" 
d="M34 518q0 46 14.5 77.5t39 50t57.5 26.5t70 8t69.5 -8t57.5 -26.5t39.5 -50t14.5 -77.5v-373q0 -47 -14.5 -78t-39.5 -49.5t-57.5 -26.5t-69.5 -8t-70 8t-57.5 26.5t-39 49.5t-14.5 78v373zM325 518q0 61 -28 81.5t-82 20.5t-82 -20.5t-28 -81.5v-373q0 -59 28 -80
t82 -21q53 0 81.5 21t28.5 80v373zM86 726v133h71v-133h-71zM273 726v133h72v-133h-72z" />
    <glyph glyph-name="multiply" unicode="&#xd7;" horiz-adv-x="548" 
d="M414 164l-142 141l-141 -141l-38 39l142 141l-142 141l38 38l141 -141l142 142l39 -38l-142 -142q35 -36 70.5 -71t71.5 -71z" />
    <glyph glyph-name="Oslash" unicode="&#xd8;" horiz-adv-x="431" 
d="M34 518q0 46 14.5 77.5t39 50t57.5 26.5t70 8q33 0 63 -6.5t54 -21.5l30 70l34 -14l-35 -80q35 -38 35 -110v-373q0 -47 -14.5 -78t-39.5 -49.5t-57.5 -26.5t-69.5 -8q-35 0 -66.5 7t-55.5 23l-27 -62l-32 15l31 73q-15 19 -23 45t-8 61v373zM325 518q0 7 -0.5 13
t-1.5 11l-202 -464q13 -20 36.5 -27t57.5 -7q53 0 81.5 21t28.5 80v373zM105 131l200 460q-14 17 -36.5 23t-53.5 6q-54 0 -82 -20.5t-28 -81.5v-373v-14z" />
    <glyph glyph-name="Ugrave" unicode="&#xd9;" horiz-adv-x="441" 
d="M329 664h71v-652q-26 -9 -70.5 -19t-113.5 -10q-37 0 -69.5 7.5t-56.5 26.5t-38 49.5t-14 77.5v520h70v-520q0 -29 8.5 -48t23 -30.5t34.5 -16.5t43 -5q42 0 68.5 5.5t43.5 11.5v603zM89 824v58l222 -137v-39z" />
    <glyph glyph-name="Uacute" unicode="&#xda;" horiz-adv-x="441" 
d="M329 664h71v-652q-26 -9 -70.5 -19t-113.5 -10q-37 0 -69.5 7.5t-56.5 26.5t-38 49.5t-14 77.5v520h70v-520q0 -29 8.5 -48t23 -30.5t34.5 -16.5t43 -5q42 0 68.5 5.5t43.5 11.5v603zM129 706v39l222 137v-58z" />
    <glyph glyph-name="Ucircumflex" unicode="&#xdb;" horiz-adv-x="441" 
d="M329 664h71v-652q-26 -9 -70.5 -19t-113.5 -10q-37 0 -69.5 7.5t-56.5 26.5t-38 49.5t-14 77.5v520h70v-520q0 -29 8.5 -48t23 -30.5t34.5 -16.5t43 -5q42 0 68.5 5.5t43.5 11.5v603zM222 869l-147 -146l-25 27l142 158h58l143 -158l-25 -27z" />
    <glyph glyph-name="Udieresis" unicode="&#xdc;" horiz-adv-x="441" 
d="M329 664h71v-652q-26 -9 -70.5 -19t-113.5 -10q-37 0 -69.5 7.5t-56.5 26.5t-38 49.5t-14 77.5v520h70v-520q0 -29 8.5 -48t23 -30.5t34.5 -16.5t43 -5q42 0 68.5 5.5t43.5 11.5v603zM91 726v133h71v-133h-71zM278 726v133h72v-133h-72z" />
    <glyph glyph-name="Yacute" unicode="&#xdd;" horiz-adv-x="417" 
d="M174 0v234q-29 17 -56 38t-47 49t-32 64.5t-12 84.5v194h72v-201q0 -38 9.5 -65t24.5 -47t35 -34.5t41 -26.5q21 12 41 26.5t35.5 35t24.5 47.5t9 64v201h70v-194q0 -48 -11.5 -84.5t-31.5 -64.5t-46 -49t-55 -38v-234h-71zM117 706v39l222 137v-58z" />
    <glyph glyph-name="Thorn" unicode="&#xde;" horiz-adv-x="418" 
d="M41 0v664h70v-113h142q44 0 72.5 -14.5t44.5 -41.5t22 -66.5t6 -88.5q0 -50 -6 -89.5t-22 -66.5t-44.5 -41t-72.5 -14h-142v-129h-70zM253 185q22 0 37 7.5t24 25.5t12.5 47.5t3.5 74.5q0 44 -3.5 73.5t-12.5 47t-24 25t-37 7.5h-142v-308h142z" />
    <glyph glyph-name="germandbls" unicode="&#xdf;" horiz-adv-x="528" 
d="M503 136q0 -79 -31 -116t-109 -37t-112 27.5t-34 93.5v57h56v-42q0 -42 19.5 -58.5t67.5 -16.5q45 0 64.5 19.5t19.5 70.5v34q0 27 -3.5 44.5t-11.5 29t-21.5 19.5t-32.5 17q-23 10 -38 21.5t-24.5 26.5t-13.5 36t-4 51v111q0 53 -21 74.5t-75 21.5q-31 0 -50 -5.5
t-29 -17t-13.5 -30t-3.5 -43.5v-524h-65v524q0 45 12 75t33 48t50.5 25.5t65.5 7.5q34 0 63.5 -7.5t51 -25.5t34 -48t12.5 -75v-94q0 -30 3.5 -49t12 -31t21.5 -20t32 -16q45 -20 59.5 -53t14.5 -84v-41z" />
    <glyph glyph-name="agrave" unicode="&#xe0;" horiz-adv-x="403" 
d="M365 11q-23 -12 -58.5 -20t-100.5 -8q-41 0 -74.5 7.5t-57 24.5t-36.5 45t-13 69v35q0 40 13 65t34.5 39.5t50 20t59.5 5.5q40 0 70 -10.5t47 -21.5v85q0 48 -28 72t-76 24q-45 0 -78 -7t-67 -21v65q25 11 60 18t89 7q35 0 65.5 -7.5t53 -25.5t35 -48t12.5 -75v-338z
M299 217q-19 13 -46 22t-57 9q-48 0 -75 -18t-27 -70v-26q0 -49 27.5 -69.5t81.5 -20.5q39 0 60.5 4.5t35.5 12.5v156zM70 652v58l222 -137v-39z" />
    <glyph glyph-name="aacute" unicode="&#xe1;" horiz-adv-x="403" 
d="M365 11q-23 -12 -58.5 -20t-100.5 -8q-41 0 -74.5 7.5t-57 24.5t-36.5 45t-13 69v35q0 40 13 65t34.5 39.5t50 20t59.5 5.5q40 0 70 -10.5t47 -21.5v85q0 48 -28 72t-76 24q-45 0 -78 -7t-67 -21v65q25 11 60 18t89 7q35 0 65.5 -7.5t53 -25.5t35 -48t12.5 -75v-338z
M299 217q-19 13 -46 22t-57 9q-48 0 -75 -18t-27 -70v-26q0 -49 27.5 -69.5t81.5 -20.5q39 0 60.5 4.5t35.5 12.5v156zM110 534v39l222 137v-58z" />
    <glyph glyph-name="acircumflex" unicode="&#xe2;" horiz-adv-x="403" 
d="M365 11q-23 -12 -58.5 -20t-100.5 -8q-41 0 -74.5 7.5t-57 24.5t-36.5 45t-13 69v35q0 40 13 65t34.5 39.5t50 20t59.5 5.5q40 0 70 -10.5t47 -21.5v85q0 48 -28 72t-76 24q-45 0 -78 -7t-67 -21v65q25 11 60 18t89 7q35 0 65.5 -7.5t53 -25.5t35 -48t12.5 -75v-338z
M299 217q-19 13 -46 22t-57 9q-48 0 -75 -18t-27 -70v-26q0 -49 27.5 -69.5t81.5 -20.5q39 0 60.5 4.5t35.5 12.5v156zM203 697l-147 -146l-25 27l142 158h58l143 -158l-25 -27z" />
    <glyph glyph-name="atilde" unicode="&#xe3;" horiz-adv-x="403" 
d="M365 11q-23 -12 -58.5 -20t-100.5 -8q-41 0 -74.5 7.5t-57 24.5t-36.5 45t-13 69v35q0 40 13 65t34.5 39.5t50 20t59.5 5.5q40 0 70 -10.5t47 -21.5v85q0 48 -28 72t-76 24q-45 0 -78 -7t-67 -21v65q25 11 60 18t89 7q35 0 65.5 -7.5t53 -25.5t35 -48t12.5 -75v-338z
M299 217q-19 13 -46 22t-57 9q-48 0 -75 -18t-27 -70v-26q0 -49 27.5 -69.5t81.5 -20.5q39 0 60.5 4.5t35.5 12.5v156zM48 606v49h309v-49h-309z" />
    <glyph glyph-name="adieresis" unicode="&#xe4;" horiz-adv-x="403" 
d="M365 11q-23 -12 -58.5 -20t-100.5 -8q-41 0 -74.5 7.5t-57 24.5t-36.5 45t-13 69v35q0 40 13 65t34.5 39.5t50 20t59.5 5.5q40 0 70 -10.5t47 -21.5v85q0 48 -28 72t-76 24q-45 0 -78 -7t-67 -21v65q25 11 60 18t89 7q35 0 65.5 -7.5t53 -25.5t35 -48t12.5 -75v-338z
M299 217q-19 13 -46 22t-57 9q-48 0 -75 -18t-27 -70v-26q0 -49 27.5 -69.5t81.5 -20.5q39 0 60.5 4.5t35.5 12.5v156zM72 554v133h71v-133h-71zM259 554v133h72v-133h-72z" />
    <glyph glyph-name="aring" unicode="&#xe5;" horiz-adv-x="403" 
d="M365 11q-23 -12 -58.5 -20t-100.5 -8q-41 0 -74.5 7.5t-57 24.5t-36.5 45t-13 69v35q0 40 13 65t34.5 39.5t50 20t59.5 5.5q40 0 70 -10.5t47 -21.5v85q0 48 -28 72t-76 24q-45 0 -78 -7t-67 -21v65q25 11 60 18t89 7q35 0 65.5 -7.5t53 -25.5t35 -48t12.5 -75v-338z
M299 217q-19 13 -46 22t-57 9q-48 0 -75 -18t-27 -70v-26q0 -49 27.5 -69.5t81.5 -20.5q39 0 60.5 4.5t35.5 12.5v156zM300 620q0 -48 -22.5 -72t-76.5 -24q-98 0 -98 96q0 46 23.5 71t74.5 25q54 0 76.5 -25t22.5 -71zM270 620q0 34 -16.5 51t-52.5 17q-67 0 -67 -68
t67 -68q36 0 52.5 17t16.5 51z" />
    <glyph glyph-name="ae" unicode="&#xe6;" horiz-adv-x="664" 
d="M627 8q-25 -10 -66 -17.5t-95 -7.5q-32 0 -60 6t-49 20q-23 -12 -57 -19t-94 -7q-41 0 -74.5 7.5t-57 24.5t-36.5 45t-13 69v35q0 40 13 65t34.5 39.5t50 20t59.5 5.5q40 0 70 -10.5t47 -21.5v88q0 45 -28 69t-76 24q-45 0 -78 -7t-67 -21v65q25 11 60 18t89 7
q42 0 76 -11.5t57 -38.5q22 27 55.5 38.5t78.5 11.5q34 0 64.5 -7.5t53 -25.5t35.5 -48t13 -75v-135h-267v-72q0 -29 8 -47t23 -28.5t35.5 -14.5t44.5 -4q49 0 84.5 7t66.5 18v-65zM299 217q-19 13 -46 22t-57 9q-48 0 -75 -18t-27 -70v-26q0 -49 27.5 -69.5t81.5 -20.5
q39 0 60.5 4.5t35.5 12.5v156zM567 349q0 49 -26 71.5t-75 22.5q-51 0 -76 -22.5t-25 -71.5v-77h202v77z" />
    <glyph glyph-name="ccedilla" unicode="&#xe7;" horiz-adv-x="389" 
d="M359 139q0 -45 -12 -75t-34 -48t-51.5 -25.5t-64.5 -7.5q-36 0 -66.5 7.5t-52.5 25.5t-34 48t-12 75v210q0 45 12 75t34 48t52.5 25.5t66.5 7.5q35 0 64.5 -7.5t51.5 -25.5t34 -48t12 -75v-63h-63v63q0 27 -7.5 45.5t-20.5 29t-31.5 15t-39.5 4.5q-45 0 -72.5 -20
t-27.5 -74v-200q0 -61 26 -83t74 -22q45 0 72 20t27 75v67h63v-67zM169 -34h65l-6 -62q-2 -27 -7.5 -52.5t-14.5 -46t-22 -33.5t-30 -15z" />
    <glyph glyph-name="egrave" unicode="&#xe8;" 
d="M359 8q-24 -10 -65.5 -17.5t-95.5 -7.5q-35 0 -65.5 7.5t-53 25.5t-35 48t-12.5 75v210q0 45 12.5 75t34.5 48t52.5 25.5t66.5 7.5q34 0 64.5 -7.5t53 -25.5t35.5 -48t13 -75v-135h-267v-69q0 -30 8 -48.5t23 -29.5t35.5 -15t45.5 -4q49 0 84 7t66 18v-65zM299 349
q0 49 -26 71.5t-75 22.5q-51 0 -76 -22.5t-25 -71.5v-77h202v77zM67 652v58l222 -137v-39z" />
    <glyph glyph-name="eacute" unicode="&#xe9;" 
d="M359 8q-24 -10 -65.5 -17.5t-95.5 -7.5q-35 0 -65.5 7.5t-53 25.5t-35 48t-12.5 75v210q0 45 12.5 75t34.5 48t52.5 25.5t66.5 7.5q34 0 64.5 -7.5t53 -25.5t35.5 -48t13 -75v-135h-267v-69q0 -30 8 -48.5t23 -29.5t35.5 -15t45.5 -4q49 0 84 7t66 18v-65zM299 349
q0 49 -26 71.5t-75 22.5q-51 0 -76 -22.5t-25 -71.5v-77h202v77zM107 534v39l222 137v-58z" />
    <glyph glyph-name="ecircumflex" unicode="&#xea;" 
d="M359 8q-24 -10 -65.5 -17.5t-95.5 -7.5q-35 0 -65.5 7.5t-53 25.5t-35 48t-12.5 75v210q0 45 12.5 75t34.5 48t52.5 25.5t66.5 7.5q34 0 64.5 -7.5t53 -25.5t35.5 -48t13 -75v-135h-267v-69q0 -30 8 -48.5t23 -29.5t35.5 -15t45.5 -4q49 0 84 7t66 18v-65zM299 349
q0 49 -26 71.5t-75 22.5q-51 0 -76 -22.5t-25 -71.5v-77h202v77zM200 697l-147 -146l-25 27l142 158h58l143 -158l-25 -27z" />
    <glyph glyph-name="edieresis" unicode="&#xeb;" 
d="M359 8q-24 -10 -65.5 -17.5t-95.5 -7.5q-35 0 -65.5 7.5t-53 25.5t-35 48t-12.5 75v210q0 45 12.5 75t34.5 48t52.5 25.5t66.5 7.5q34 0 64.5 -7.5t53 -25.5t35.5 -48t13 -75v-135h-267v-69q0 -30 8 -48.5t23 -29.5t35.5 -15t45.5 -4q49 0 84 7t66 18v-65zM299 349
q0 49 -26 71.5t-75 22.5q-51 0 -76 -22.5t-25 -71.5v-77h202v77zM69 554v133h71v-133h-71zM256 554v133h72v-133h-72z" />
    <glyph glyph-name="igrave" unicode="&#xec;" horiz-adv-x="156" 
d="M45 0v492h66v-492h-66zM-52 652v58l222 -137v-39z" />
    <glyph glyph-name="iacute" unicode="&#xed;" horiz-adv-x="156" 
d="M45 0v492h66v-492h-66zM-12 534v39l222 137v-58z" />
    <glyph glyph-name="icircumflex" unicode="&#xee;" horiz-adv-x="156" 
d="M45 0v492h66v-492h-66zM80 697l-147 -146l-25 27l142 158h58l143 -158l-25 -27z" />
    <glyph glyph-name="idieresis" unicode="&#xef;" horiz-adv-x="156" 
d="M45 0v492h66v-492h-66zM-50 554v133h71v-133h-71zM137 554v133h72v-133h-72z" />
    <glyph glyph-name="eth" unicode="&#xf0;" horiz-adv-x="408" 
d="M372 139q0 -45 -12.5 -75t-34.5 -48t-53 -25.5t-67 -7.5q-35 0 -66 7.5t-54.5 25.5t-37 48t-13.5 75v160q0 49 13 79.5t34.5 47.5t48.5 23t56 6q44 0 68.5 -13.5t47.5 -39.5v11q0 34 -13 70t-34 68l-155 -43l-12 41l140 38q-27 29 -62 51t-77 34h73q43 -5 74 -21t60 -44
l63 17l13 -40l-49 -14q25 -37 37 -82.5t12 -96.5v-252zM306 334q-21 28 -44.5 41t-62.5 13q-20 0 -38 -4t-31.5 -14.5t-21 -29t-7.5 -48.5v-120q0 -70 26 -97t78 -27q45 0 73 21t28 76v189z" />
    <glyph glyph-name="ntilde" unicode="&#xf1;" horiz-adv-x="410" 
d="M308 0v346q0 28 -7.5 46.5t-20.5 29.5t-31 16t-40 5q-39 0 -63 -5t-40 -12v-426h-65v477q25 9 63.5 18.5t104.5 9.5q35 0 65 -7.5t52 -25.5t34.5 -48t12.5 -75v-349h-65zM50 606v49h309v-49h-309z" />
    <glyph glyph-name="ograve" unicode="&#xf2;" 
d="M364 139q0 -45 -13 -75t-35.5 -48t-53 -25.5t-64.5 -7.5q-36 0 -66.5 7.5t-52.5 25.5t-34.5 48t-12.5 75v210q0 45 12.5 75t34.5 48t52.5 25.5t66.5 7.5q34 0 64.5 -7.5t53 -25.5t35.5 -48t13 -75v-210zM299 349q0 54 -28 74t-73 20t-73 -20t-28 -74v-210q0 -55 28 -75
t73 -20q44 0 72.5 20t28.5 75v210zM67 652v58l222 -137v-39z" />
    <glyph glyph-name="oacute" unicode="&#xf3;" 
d="M364 139q0 -45 -13 -75t-35.5 -48t-53 -25.5t-64.5 -7.5q-36 0 -66.5 7.5t-52.5 25.5t-34.5 48t-12.5 75v210q0 45 12.5 75t34.5 48t52.5 25.5t66.5 7.5q34 0 64.5 -7.5t53 -25.5t35.5 -48t13 -75v-210zM299 349q0 54 -28 74t-73 20t-73 -20t-28 -74v-210q0 -55 28 -75
t73 -20q44 0 72.5 20t28.5 75v210zM107 534v39l222 137v-58z" />
    <glyph glyph-name="ocircumflex" unicode="&#xf4;" 
d="M364 139q0 -45 -13 -75t-35.5 -48t-53 -25.5t-64.5 -7.5q-36 0 -66.5 7.5t-52.5 25.5t-34.5 48t-12.5 75v210q0 45 12.5 75t34.5 48t52.5 25.5t66.5 7.5q34 0 64.5 -7.5t53 -25.5t35.5 -48t13 -75v-210zM299 349q0 54 -28 74t-73 20t-73 -20t-28 -74v-210q0 -55 28 -75
t73 -20q44 0 72.5 20t28.5 75v210zM200 697l-147 -146l-25 27l142 158h58l143 -158l-25 -27z" />
    <glyph glyph-name="otilde" unicode="&#xf5;" 
d="M364 139q0 -45 -13 -75t-35.5 -48t-53 -25.5t-64.5 -7.5q-36 0 -66.5 7.5t-52.5 25.5t-34.5 48t-12.5 75v210q0 45 12.5 75t34.5 48t52.5 25.5t66.5 7.5q34 0 64.5 -7.5t53 -25.5t35.5 -48t13 -75v-210zM299 349q0 54 -28 74t-73 20t-73 -20t-28 -74v-210q0 -55 28 -75
t73 -20q44 0 72.5 20t28.5 75v210zM45 606v49h309v-49h-309z" />
    <glyph glyph-name="odieresis" unicode="&#xf6;" 
d="M364 139q0 -45 -13 -75t-35.5 -48t-53 -25.5t-64.5 -7.5q-36 0 -66.5 7.5t-52.5 25.5t-34.5 48t-12.5 75v210q0 45 12.5 75t34.5 48t52.5 25.5t66.5 7.5q34 0 64.5 -7.5t53 -25.5t35.5 -48t13 -75v-210zM299 349q0 54 -28 74t-73 20t-73 -20t-28 -74v-210q0 -55 28 -75
t73 -20q44 0 72.5 20t28.5 75v210zM69 554v133h71v-133h-71zM256 554v133h72v-133h-72z" />
    <glyph glyph-name="divide" unicode="&#xf7;" horiz-adv-x="548" 
d="M46 318v53h454v-53h-454zM237 451v151h73v-151h-73zM237 87v151h73v-151h-73z" />
    <glyph glyph-name="oslash" unicode="&#xf8;" 
d="M32 -34l33 63q-16 19 -24.5 45.5t-8.5 64.5v210q0 45 12.5 75t34.5 48t52.5 25.5t66.5 7.5q29 0 55.5 -5.5t47.5 -18.5l31 59l32 -14l-35 -67q17 -19 26 -45.5t9 -64.5v-210q0 -45 -13 -75t-35.5 -48t-53 -25.5t-64.5 -7.5q-67 0 -107 24l-29 -56zM299 349q0 24 -6 41
l-171 -324q14 -12 33 -17t43 -5q44 0 72.5 20t28.5 75v210zM97 139q0 -24 5 -39l168 323q-26 20 -72 20q-45 0 -73 -20t-28 -74v-210z" />
    <glyph glyph-name="ugrave" unicode="&#xf9;" horiz-adv-x="412" 
d="M303 492h65v-481q-23 -9 -63 -18.5t-106 -9.5q-35 0 -64.5 7.5t-51 25.5t-34 48t-12.5 75v353h65v-351q0 -55 27.5 -76t70.5 -21q38 0 63 5.5t40 11.5v431zM75 652v58l222 -137v-39z" />
    <glyph glyph-name="uacute" unicode="&#xfa;" horiz-adv-x="412" 
d="M303 492h65v-481q-23 -9 -63 -18.5t-106 -9.5q-35 0 -64.5 7.5t-51 25.5t-34 48t-12.5 75v353h65v-351q0 -55 27.5 -76t70.5 -21q38 0 63 5.5t40 11.5v431zM115 534v39l222 137v-58z" />
    <glyph glyph-name="ucircumflex" unicode="&#xfb;" horiz-adv-x="412" 
d="M303 492h65v-481q-23 -9 -63 -18.5t-106 -9.5q-35 0 -64.5 7.5t-51 25.5t-34 48t-12.5 75v353h65v-351q0 -55 27.5 -76t70.5 -21q38 0 63 5.5t40 11.5v431zM208 697l-147 -146l-25 27l142 158h58l143 -158l-25 -27z" />
    <glyph glyph-name="udieresis" unicode="&#xfc;" horiz-adv-x="412" 
d="M303 492h65v-481q-23 -9 -63 -18.5t-106 -9.5q-35 0 -64.5 7.5t-51 25.5t-34 48t-12.5 75v353h65v-351q0 -55 27.5 -76t70.5 -21q38 0 63 5.5t40 11.5v431zM76 554v133h71v-133h-71zM263 554v133h72v-133h-72z" />
    <glyph glyph-name="yacute" unicode="&#xfd;" horiz-adv-x="402" 
d="M301 27q-18 -12 -46.5 -21.5t-73.5 -9.5q-30 0 -56.5 6.5t-46.5 24t-32 47.5t-12 78v340h65v-338q0 -57 26.5 -76.5t68.5 -19.5q39 0 65 9.5t42 20.5v404h65v-587q0 -43 -12.5 -72t-35 -46.5t-53 -25t-65.5 -7.5q-33 0 -61.5 7.5t-49.5 25t-32.5 46.5t-11.5 72v39h61v-39
q0 -50 26.5 -70t67.5 -20q45 0 73 19.5t28 70.5v122zM110 534v39l222 137v-58z" />
    <glyph glyph-name="thorn" unicode="&#xfe;" horiz-adv-x="406" 
d="M41 -233v905h65v-199q18 12 46 22t73 10q30 0 57 -6.5t47 -24t32 -47.5t12 -78v-210q0 -48 -12 -78.5t-32 -47.5t-47 -23.5t-57 -6.5q-45 0 -73 9.5t-46 20.5v-246h-65zM308 342q0 57 -26.5 76.5t-68.5 19.5q-39 0 -65.5 -9.5t-41.5 -20.5v-330q15 -11 41.5 -20.5
t65.5 -9.5q42 0 68.5 20t26.5 77v197z" />
    <glyph glyph-name="ydieresis" unicode="&#xff;" horiz-adv-x="402" 
d="M301 27q-18 -12 -46.5 -21.5t-73.5 -9.5q-30 0 -56.5 6.5t-46.5 24t-32 47.5t-12 78v340h65v-338q0 -57 26.5 -76.5t68.5 -19.5q39 0 65 9.5t42 20.5v404h65v-587q0 -43 -12.5 -72t-35 -46.5t-53 -25t-65.5 -7.5q-33 0 -61.5 7.5t-49.5 25t-32.5 46.5t-11.5 72v39h61v-39
q0 -50 26.5 -70t67.5 -20q45 0 73 19.5t28 70.5v122zM71 554v133h71v-133h-71zM258 554v133h72v-133h-72z" />
    <glyph glyph-name="Amacron" unicode="&#x100;" horiz-adv-x="431" 
d="M324 0v250h-220v-250h-70v426q0 55 15 95t40 69.5t57.5 50.5t68.5 39q34 -18 66.5 -39t58 -50.5t41 -69.5t15.5 -95v-426h-72zM324 434q0 38 -9 65t-24.5 46.5t-35.5 33.5t-41 26q-21 -12 -41 -26t-35.5 -33.5t-24.5 -46.5t-9 -65v-125h220v125zM61 778v49h309v-49h-309z
" />
    <glyph glyph-name="amacron" unicode="&#x101;" horiz-adv-x="403" 
d="M365 11q-23 -12 -58.5 -20t-100.5 -8q-41 0 -74.5 7.5t-57 24.5t-36.5 45t-13 69v35q0 40 13 65t34.5 39.5t50 20t59.5 5.5q40 0 70 -10.5t47 -21.5v85q0 48 -28 72t-76 24q-45 0 -78 -7t-67 -21v65q25 11 60 18t89 7q35 0 65.5 -7.5t53 -25.5t35 -48t12.5 -75v-338z
M299 217q-19 13 -46 22t-57 9q-48 0 -75 -18t-27 -70v-26q0 -49 27.5 -69.5t81.5 -20.5q39 0 60.5 4.5t35.5 12.5v156zM48 606v49h309v-49h-309z" />
    <glyph glyph-name="Abreve" unicode="&#x102;" horiz-adv-x="431" 
d="M324 0v250h-220v-250h-70v426q0 55 15 95t40 69.5t57.5 50.5t68.5 39q34 -18 66.5 -39t58 -50.5t41 -69.5t15.5 -95v-426h-72zM324 434q0 38 -9 65t-24.5 46.5t-35.5 33.5t-41 26q-21 -12 -41 -26t-35.5 -33.5t-24.5 -46.5t-9 -65v-125h220v125zM371 888q0 -42 -13 -73
t-35 -51.5t-49.5 -31t-57.5 -10.5q-29 0 -56.5 10.5t-49 31t-34.5 51.5t-13 73h45q2 -63 32.5 -93t75.5 -30t76.5 30t32.5 93h46z" />
    <glyph glyph-name="abreve" unicode="&#x103;" horiz-adv-x="403" 
d="M365 11q-23 -12 -58.5 -20t-100.5 -8q-41 0 -74.5 7.5t-57 24.5t-36.5 45t-13 69v35q0 40 13 65t34.5 39.5t50 20t59.5 5.5q40 0 70 -10.5t47 -21.5v85q0 48 -28 72t-76 24q-45 0 -78 -7t-67 -21v65q25 11 60 18t89 7q35 0 65.5 -7.5t53 -25.5t35 -48t12.5 -75v-338z
M299 217q-19 13 -46 22t-57 9q-48 0 -75 -18t-27 -70v-26q0 -49 27.5 -69.5t81.5 -20.5q39 0 60.5 4.5t35.5 12.5v156zM357 716q0 -42 -13 -73t-35 -51.5t-49.5 -31t-57.5 -10.5q-29 0 -56.5 10.5t-49 31t-34.5 51.5t-13 73h45q2 -63 32.5 -93t75.5 -30t76.5 30t32.5 93h46z
" />
    <glyph glyph-name="Aogonek" unicode="&#x104;" horiz-adv-x="431" 
d="M396 -229q-5 -2 -16 -3t-34 -1q-39 0 -63 8.5t-37.5 22.5t-18 32.5t-4.5 38.5q0 21 3 37.5t11.5 30t23.5 24.5t38 19l56 20h-31v250h-220v-250h-70v426q0 55 15 95t40 69.5t57.5 50.5t68.5 39q34 -18 66.5 -39t58 -50.5t41 -69.5t15.5 -95v-426l-68 -27
q-32 -13 -43.5 -33t-11.5 -49t15.5 -47.5t63.5 -18.5q33 0 44 4v-58zM324 434q0 38 -9 65t-24.5 46.5t-35.5 33.5t-41 26q-21 -12 -41 -26t-35.5 -33.5t-24.5 -46.5t-9 -65v-125h220v125z" />
    <glyph glyph-name="aogonek" unicode="&#x105;" horiz-adv-x="403" 
d="M335 -229q-5 -2 -16 -3t-34 -1q-39 0 -63 8.5t-37.5 22.5t-18 32.5t-4.5 38.5q0 21 3 37.5t11.5 30t23.5 24t38 19.5l11 4q-10 -1 -20.5 -1h-22.5q-41 0 -74.5 7.5t-57 24.5t-36.5 45t-13 69v35q0 40 13 65t34.5 39.5t50 20t59.5 5.5q40 0 70 -10.5t47 -21.5v85
q0 48 -28 72t-76 24q-45 0 -78 -7t-67 -21v65q25 11 60 18t89 7q35 0 65.5 -7.5t53 -25.5t35 -48t12.5 -75v-338q-5 -3 -11 -5.5t-16.5 -7t-27.5 -10.5t-43 -15q-32 -13 -43.5 -33t-11.5 -49t15.5 -47.5t63.5 -18.5q33 0 44 4v-58zM299 217q-19 13 -46 22t-57 9
q-48 0 -75 -18t-27 -70v-26q0 -49 27.5 -69.5t81.5 -20.5q39 0 60.5 4.5t35.5 12.5v156z" />
    <glyph glyph-name="Cacute" unicode="&#x106;" horiz-adv-x="410" 
d="M313 277h64v-132q0 -47 -12 -78t-33.5 -49.5t-52 -26.5t-66.5 -8q-37 0 -69.5 8t-57 26.5t-38.5 49.5t-14 78v373q0 46 14 77.5t38.5 50t57 26.5t69.5 8q36 0 66.5 -8t52 -26.5t33.5 -50t12 -77.5v-139h-64v139q0 57 -23 79.5t-77 22.5t-81 -22.5t-27 -79.5v-373
q0 -54 27 -77.5t81 -23.5t77 23.5t23 77.5v132zM114 706v39l222 137v-58z" />
    <glyph glyph-name="cacute" unicode="&#x107;" horiz-adv-x="389" 
d="M359 139q0 -45 -12 -75t-34 -48t-51.5 -25.5t-64.5 -7.5q-36 0 -66.5 7.5t-52.5 25.5t-34 48t-12 75v210q0 45 12 75t34 48t52.5 25.5t66.5 7.5q35 0 64.5 -7.5t51.5 -25.5t34 -48t12 -75v-63h-63v63q0 27 -7.5 45.5t-20.5 29t-31.5 15t-39.5 4.5q-45 0 -72.5 -20
t-27.5 -74v-200q0 -61 26 -83t74 -22q45 0 72 20t27 75v67h63v-67zM103 534v39l222 137v-58z" />
    <glyph glyph-name="Ccircumflex" unicode="&#x108;" horiz-adv-x="410" 
d="M313 277h64v-132q0 -47 -12 -78t-33.5 -49.5t-52 -26.5t-66.5 -8q-37 0 -69.5 8t-57 26.5t-38.5 49.5t-14 78v373q0 46 14 77.5t38.5 50t57 26.5t69.5 8q36 0 66.5 -8t52 -26.5t33.5 -50t12 -77.5v-139h-64v139q0 57 -23 79.5t-77 22.5t-81 -22.5t-27 -79.5v-373
q0 -54 27 -77.5t81 -23.5t77 23.5t23 77.5v132zM207 869l-147 -146l-25 27l142 158h58l143 -158l-25 -27z" />
    <glyph glyph-name="ccircumflex" unicode="&#x109;" horiz-adv-x="389" 
d="M359 139q0 -45 -12 -75t-34 -48t-51.5 -25.5t-64.5 -7.5q-36 0 -66.5 7.5t-52.5 25.5t-34 48t-12 75v210q0 45 12 75t34 48t52.5 25.5t66.5 7.5q35 0 64.5 -7.5t51.5 -25.5t34 -48t12 -75v-63h-63v63q0 27 -7.5 45.5t-20.5 29t-31.5 15t-39.5 4.5q-45 0 -72.5 -20
t-27.5 -74v-200q0 -61 26 -83t74 -22q45 0 72 20t27 75v67h63v-67zM196 697l-147 -146l-25 27l142 158h58l143 -158l-25 -27z" />
    <glyph glyph-name="Cdotaccent" unicode="&#x10a;" horiz-adv-x="410" 
d="M313 277h64v-132q0 -47 -12 -78t-33.5 -49.5t-52 -26.5t-66.5 -8q-37 0 -69.5 8t-57 26.5t-38.5 49.5t-14 78v373q0 46 14 77.5t38.5 50t57 26.5t69.5 8q36 0 66.5 -8t52 -26.5t33.5 -50t12 -77.5v-139h-64v139q0 57 -23 79.5t-77 22.5t-81 -22.5t-27 -79.5v-373
q0 -54 27 -77.5t81 -23.5t77 23.5t23 77.5v132zM169 726v133h71v-133h-71z" />
    <glyph glyph-name="cdotaccent" unicode="&#x10b;" horiz-adv-x="389" 
d="M359 139q0 -45 -12 -75t-34 -48t-51.5 -25.5t-64.5 -7.5q-36 0 -66.5 7.5t-52.5 25.5t-34 48t-12 75v210q0 45 12 75t34 48t52.5 25.5t66.5 7.5q35 0 64.5 -7.5t51.5 -25.5t34 -48t12 -75v-63h-63v63q0 27 -7.5 45.5t-20.5 29t-31.5 15t-39.5 4.5q-45 0 -72.5 -20
t-27.5 -74v-200q0 -61 26 -83t74 -22q45 0 72 20t27 75v67h63v-67zM159 554v133h71v-133h-71z" />
    <glyph glyph-name="Ccaron" unicode="&#x10c;" horiz-adv-x="410" 
d="M313 277h64v-132q0 -47 -12 -78t-33.5 -49.5t-52 -26.5t-66.5 -8q-37 0 -69.5 8t-57 26.5t-38.5 49.5t-14 78v373q0 46 14 77.5t38.5 50t57 26.5t69.5 8q36 0 66.5 -8t52 -26.5t33.5 -50t12 -77.5v-139h-64v139q0 57 -23 79.5t-77 22.5t-81 -22.5t-27 -79.5v-373
q0 -54 27 -77.5t81 -23.5t77 23.5t23 77.5v132zM206 703l-172 166l23 29l149 -140l150 140l23 -29z" />
    <glyph glyph-name="ccaron" unicode="&#x10d;" horiz-adv-x="389" 
d="M359 139q0 -45 -12 -75t-34 -48t-51.5 -25.5t-64.5 -7.5q-36 0 -66.5 7.5t-52.5 25.5t-34 48t-12 75v210q0 45 12 75t34 48t52.5 25.5t66.5 7.5q35 0 64.5 -7.5t51.5 -25.5t34 -48t12 -75v-63h-63v63q0 27 -7.5 45.5t-20.5 29t-31.5 15t-39.5 4.5q-45 0 -72.5 -20
t-27.5 -74v-200q0 -61 26 -83t74 -22q45 0 72 20t27 75v67h63v-67zM195 531l-172 166l23 29l149 -140l150 140l23 -29z" />
    <glyph glyph-name="Dcaron" unicode="&#x10e;" horiz-adv-x="438" 
d="M41 0v664h181q37 0 69.5 -9t57.5 -31.5t39.5 -60t14.5 -94.5v-280q0 -52 -14.5 -88t-39.5 -58.5t-57.5 -32.5t-69.5 -10h-181zM332 469q0 40 -8 66.5t-22 41.5t-34.5 21t-45.5 6h-111v-543h111q51 0 80.5 28t29.5 100v280zM205 703l-172 166l23 29l149 -140l150 140
l23 -29z" />
    <glyph glyph-name="dcaron" unicode="&#x10f;" horiz-adv-x="514" 
d="M32 349q0 48 12 78t32 47.5t46.5 24t56.5 6.5q45 0 73.5 -10t46.5 -22v199h65v-661q-25 -9 -64 -18.5t-105 -9.5q-35 0 -65 7.5t-51.5 25.5t-34 48t-12.5 75v210zM299 413q-16 11 -41.5 20.5t-65.5 9.5q-42 0 -68.5 -20t-26.5 -77v-205q0 -55 27 -76t72 -21q39 0 63 5.5
t40 11.5v352zM425 672h73l-10 -151q-2 -24 -8.5 -47.5t-17 -42t-25 -30.5t-31.5 -13z" />
    <glyph glyph-name="Dcroat" unicode="&#x110;" horiz-adv-x="438" 
d="M43 0v317h-25v61h25v286h181q37 0 69.5 -9t57.5 -31.5t39.5 -60t14.5 -94.5v-280q0 -52 -14.5 -88t-39.5 -58.5t-57.5 -32.5t-69.5 -10h-181zM334 469q0 40 -8 66.5t-22.5 41.5t-34.5 21t-45 6h-111v-226h124v-61h-124v-256h111q51 0 80.5 28t29.5 100v280z" />
    <glyph glyph-name="dcroat" unicode="&#x111;" horiz-adv-x="406" 
d="M364 555v-544q-25 -9 -64 -18.5t-105 -9.5q-35 0 -65 7.5t-51.5 25.5t-34 48t-12.5 75v210q0 48 12 78t32 47.5t46.5 24t56.5 6.5q45 0 73.5 -10t46.5 -22v82h-202v49h202v68h65v-68h42v-49h-42zM299 413q-16 11 -41.5 20.5t-65.5 9.5q-42 0 -68.5 -20t-26.5 -77v-205
q0 -55 27 -76t72 -21q39 0 63 5.5t40 11.5v352z" />
    <glyph glyph-name="Emacron" unicode="&#x112;" horiz-adv-x="328" 
d="M41 0v664h254v-60h-184v-226h171v-61h-171v-256h190v-61h-260zM11 778v49h309v-49h-309z" />
    <glyph glyph-name="emacron" unicode="&#x113;" 
d="M359 8q-24 -10 -65.5 -17.5t-95.5 -7.5q-35 0 -65.5 7.5t-53 25.5t-35 48t-12.5 75v210q0 45 12.5 75t34.5 48t52.5 25.5t66.5 7.5q34 0 64.5 -7.5t53 -25.5t35.5 -48t13 -75v-135h-267v-69q0 -30 8 -48.5t23 -29.5t35.5 -15t45.5 -4q49 0 84 7t66 18v-65zM299 349
q0 49 -26 71.5t-75 22.5q-51 0 -76 -22.5t-25 -71.5v-77h202v77zM45 606v49h309v-49h-309z" />
    <glyph glyph-name="Ebreve" unicode="&#x114;" horiz-adv-x="328" 
d="M41 0v664h254v-60h-184v-226h171v-61h-171v-256h190v-61h-260zM319 888q0 -42 -13 -73t-35 -51.5t-49.5 -31t-57.5 -10.5q-29 0 -56.5 10.5t-49 31t-34.5 51.5t-13 73h45q2 -63 32.5 -93t75.5 -30t76.5 30t32.5 93h46z" />
    <glyph glyph-name="ebreve" unicode="&#x115;" 
d="M359 8q-24 -10 -65.5 -17.5t-95.5 -7.5q-35 0 -65.5 7.5t-53 25.5t-35 48t-12.5 75v210q0 45 12.5 75t34.5 48t52.5 25.5t66.5 7.5q34 0 64.5 -7.5t53 -25.5t35.5 -48t13 -75v-135h-267v-69q0 -30 8 -48.5t23 -29.5t35.5 -15t45.5 -4q49 0 84 7t66 18v-65zM299 349
q0 49 -26 71.5t-75 22.5q-51 0 -76 -22.5t-25 -71.5v-77h202v77zM354 716q0 -42 -13 -73t-35 -51.5t-49.5 -31t-57.5 -10.5q-29 0 -56.5 10.5t-49 31t-34.5 51.5t-13 73h45q2 -63 32.5 -93t75.5 -30t76.5 30t32.5 93h46z" />
    <glyph glyph-name="Edotaccent" unicode="&#x116;" horiz-adv-x="328" 
d="M41 0v664h254v-60h-184v-226h171v-61h-171v-256h190v-61h-260zM133 726v133h71v-133h-71z" />
    <glyph glyph-name="edotaccent" unicode="&#x117;" 
d="M359 8q-24 -10 -65.5 -17.5t-95.5 -7.5q-35 0 -65.5 7.5t-53 25.5t-35 48t-12.5 75v210q0 45 12.5 75t34.5 48t52.5 25.5t66.5 7.5q34 0 64.5 -7.5t53 -25.5t35.5 -48t13 -75v-135h-267v-69q0 -30 8 -48.5t23 -29.5t35.5 -15t45.5 -4q49 0 84 7t66 18v-65zM299 349
q0 49 -26 71.5t-75 22.5q-51 0 -76 -22.5t-25 -71.5v-77h202v77zM163 554v133h71v-133h-71z" />
    <glyph glyph-name="Eogonek" unicode="&#x118;" horiz-adv-x="328" 
d="M301 -229q-5 -2 -16 -3t-34 -1q-39 0 -63 8.5t-37.5 22.5t-18 32.5t-4.5 38.5q0 21 3 37.5t11.5 30t23.5 24.5t38 19l56 20h-219v664h254v-60h-184v-226h171v-61h-171v-256h190v-61l-68 -27q-32 -13 -43.5 -33t-11.5 -49t15.5 -47.5t63.5 -18.5q33 0 44 4v-58z" />
    <glyph glyph-name="eogonek" unicode="&#x119;" 
d="M330 -229q-5 -2 -16 -3t-34 -1q-39 0 -63 8.5t-37.5 22.5t-18 32.5t-4.5 38.5q0 21 3 37.5t11.5 30t23.5 24t38 19.5l13 5q-11 -1 -23 -1.5t-25 -0.5q-35 0 -65.5 7.5t-53 25.5t-35 48t-12.5 75v210q0 45 12.5 75t34.5 48t52.5 25.5t66.5 7.5q34 0 64.5 -7.5t53 -25.5
t35.5 -48t13 -75v-135h-267v-69q0 -30 8 -48.5t23 -29.5t35.5 -15t45.5 -4q49 0 84 7t66 18v-65q-4 -2 -9.5 -4t-16 -5.5t-27.5 -9.5t-44 -16q-32 -13 -43.5 -33t-11.5 -49t15.5 -47.5t63.5 -18.5q33 0 44 4v-58zM299 349q0 49 -26 71.5t-75 22.5q-51 0 -76 -22.5t-25 -71.5
v-77h202v77z" />
    <glyph glyph-name="Ecaron" unicode="&#x11a;" horiz-adv-x="328" 
d="M41 0v664h254v-60h-184v-226h171v-61h-171v-256h190v-61h-260zM165 703l-172 166l23 29l149 -140l150 140l23 -29z" />
    <glyph glyph-name="ecaron" unicode="&#x11b;" 
d="M359 8q-24 -10 -65.5 -17.5t-95.5 -7.5q-35 0 -65.5 7.5t-53 25.5t-35 48t-12.5 75v210q0 45 12.5 75t34.5 48t52.5 25.5t66.5 7.5q34 0 64.5 -7.5t53 -25.5t35.5 -48t13 -75v-135h-267v-69q0 -30 8 -48.5t23 -29.5t35.5 -15t45.5 -4q49 0 84 7t66 18v-65zM299 349
q0 49 -26 71.5t-75 22.5q-51 0 -76 -22.5t-25 -71.5v-77h202v77zM199 531l-172 166l23 29l149 -140l150 140l23 -29z" />
    <glyph glyph-name="Gcircumflex" unicode="&#x11c;" horiz-adv-x="424" 
d="M319 340h67v-328q-25 -10 -65 -19.5t-109 -9.5q-37 0 -69.5 7.5t-56.5 26.5t-38 49.5t-14 77.5v374q0 46 14 77.5t38.5 50t57 26.5t69.5 8q36 0 66.5 -8t52 -26.5t33.5 -50t12 -77.5v-92h-64v92q0 57 -23 79.5t-77 22.5t-81 -22.5t-27 -79.5v-374q0 -29 8.5 -48t23 -30.5
t34.5 -16.5t43 -5q42 0 65 5.5t40 11.5v279zM214 869l-147 -146l-25 27l142 158h58l143 -158l-25 -27z" />
    <glyph glyph-name="gcircumflex" unicode="&#x11d;" horiz-adv-x="399" 
d="M299 27q-18 -12 -46.5 -21.5t-73.5 -9.5q-30 0 -56.5 6.5t-46.5 24t-32 47.5t-12 78v197q0 45 13 75t35 48t52 25.5t65 7.5q37 0 67.5 -7.5t52.5 -25.5t34.5 -48t12.5 -75v-444q0 -43 -12.5 -72t-35 -46.5t-52.5 -25t-66 -7.5q-33 0 -61.5 7.5t-49.5 25t-32.5 46.5
t-11.5 72v39h61v-39q0 -50 26.5 -70t67.5 -20q44 0 72.5 20t28.5 70v122zM299 349q0 54 -28 74t-73 20q-43 0 -72 -20t-29 -74v-195q0 -57 26.5 -76.5t68.5 -19.5q40 0 65.5 9.5t41.5 20.5v261zM201 697l-147 -146l-25 27l142 158h58l143 -158l-25 -27z" />
    <glyph glyph-name="Gbreve" unicode="&#x11e;" horiz-adv-x="424" 
d="M319 340h67v-328q-25 -10 -65 -19.5t-109 -9.5q-37 0 -69.5 7.5t-56.5 26.5t-38 49.5t-14 77.5v374q0 46 14 77.5t38.5 50t57 26.5t69.5 8q36 0 66.5 -8t52 -26.5t33.5 -50t12 -77.5v-92h-64v92q0 57 -23 79.5t-77 22.5t-81 -22.5t-27 -79.5v-374q0 -29 8.5 -48t23 -30.5
t34.5 -16.5t43 -5q42 0 65 5.5t40 11.5v279zM367 888q0 -42 -13 -73t-35 -51.5t-49.5 -31t-57.5 -10.5q-29 0 -56.5 10.5t-49 31t-34.5 51.5t-13 73h45q2 -63 32.5 -93t75.5 -30t76.5 30t32.5 93h46z" />
    <glyph glyph-name="gbreve" unicode="&#x11f;" horiz-adv-x="399" 
d="M299 27q-18 -12 -46.5 -21.5t-73.5 -9.5q-30 0 -56.5 6.5t-46.5 24t-32 47.5t-12 78v197q0 45 13 75t35 48t52 25.5t65 7.5q37 0 67.5 -7.5t52.5 -25.5t34.5 -48t12.5 -75v-444q0 -43 -12.5 -72t-35 -46.5t-52.5 -25t-66 -7.5q-33 0 -61.5 7.5t-49.5 25t-32.5 46.5
t-11.5 72v39h61v-39q0 -50 26.5 -70t67.5 -20q44 0 72.5 20t28.5 70v122zM299 349q0 54 -28 74t-73 20q-43 0 -72 -20t-29 -74v-195q0 -57 26.5 -76.5t68.5 -19.5q40 0 65.5 9.5t41.5 20.5v261zM355 716q0 -42 -13 -73t-35 -51.5t-49.5 -31t-57.5 -10.5q-29 0 -56.5 10.5
t-49 31t-34.5 51.5t-13 73h45q2 -63 32.5 -93t75.5 -30t76.5 30t32.5 93h46z" />
    <glyph glyph-name="Gdotaccent" unicode="&#x120;" horiz-adv-x="424" 
d="M319 340h67v-328q-25 -10 -65 -19.5t-109 -9.5q-37 0 -69.5 7.5t-56.5 26.5t-38 49.5t-14 77.5v374q0 46 14 77.5t38.5 50t57 26.5t69.5 8q36 0 66.5 -8t52 -26.5t33.5 -50t12 -77.5v-92h-64v92q0 57 -23 79.5t-77 22.5t-81 -22.5t-27 -79.5v-374q0 -29 8.5 -48t23 -30.5
t34.5 -16.5t43 -5q42 0 65 5.5t40 11.5v279zM176 726v133h71v-133h-71z" />
    <glyph glyph-name="gdotaccent" unicode="&#x121;" horiz-adv-x="399" 
d="M299 27q-18 -12 -46.5 -21.5t-73.5 -9.5q-30 0 -56.5 6.5t-46.5 24t-32 47.5t-12 78v197q0 45 13 75t35 48t52 25.5t65 7.5q37 0 67.5 -7.5t52.5 -25.5t34.5 -48t12.5 -75v-444q0 -43 -12.5 -72t-35 -46.5t-52.5 -25t-66 -7.5q-33 0 -61.5 7.5t-49.5 25t-32.5 46.5
t-11.5 72v39h61v-39q0 -50 26.5 -70t67.5 -20q44 0 72.5 20t28.5 70v122zM299 349q0 54 -28 74t-73 20q-43 0 -72 -20t-29 -74v-195q0 -57 26.5 -76.5t68.5 -19.5q40 0 65.5 9.5t41.5 20.5v261zM164 554v133h71v-133h-71z" />
    <glyph glyph-name="uni0122" unicode="&#x122;" horiz-adv-x="424" 
d="M319 340h67v-328q-25 -10 -65 -19.5t-109 -9.5q-37 0 -69.5 7.5t-56.5 26.5t-38 49.5t-14 77.5v374q0 46 14 77.5t38.5 50t57 26.5t69.5 8q36 0 66.5 -8t52 -26.5t33.5 -50t12 -77.5v-92h-64v92q0 57 -23 79.5t-77 22.5t-81 -22.5t-27 -79.5v-374q0 -29 8.5 -48t23 -30.5
t34.5 -16.5t43 -5q42 0 65 5.5t40 11.5v279zM187 -34h65l-6 -62q-2 -27 -7.5 -52.5t-14.5 -46t-22 -33.5t-30 -15z" />
    <glyph glyph-name="uni0123" unicode="&#x123;" horiz-adv-x="399" 
d="M299 27q-18 -12 -46.5 -21.5t-73.5 -9.5q-30 0 -56.5 6.5t-46.5 24t-32 47.5t-12 78v197q0 45 13 75t35 48t52 25.5t65 7.5q37 0 67.5 -7.5t52.5 -25.5t34.5 -48t12.5 -75v-444q0 -43 -12.5 -72t-35 -46.5t-52.5 -25t-66 -7.5q-33 0 -61.5 7.5t-49.5 25t-32.5 46.5
t-11.5 72v39h61v-39q0 -50 26.5 -70t67.5 -20q44 0 72.5 20t28.5 70v122zM299 349q0 54 -28 74t-73 20q-43 0 -72 -20t-29 -74v-195q0 -57 26.5 -76.5t68.5 -19.5q40 0 65.5 9.5t41.5 20.5v261zM234.005 538.998h-64.9961l5.99902 61.9961q2 26.998 7.5 52.4971
q5.5 25.498 14.499 45.9971t21.999 33.498q12.999 12.999 29.998 14.999z" />
    <glyph glyph-name="Hcircumflex" unicode="&#x124;" horiz-adv-x="445" 
d="M332 0v306h-221v-306h-70v664h70v-298h221v298h71v-664h-71zM224 869l-147 -146l-25 27l142 158h58l143 -158l-25 -27z" />
    <glyph glyph-name="hcircumflex" unicode="&#x125;" horiz-adv-x="410" 
d="M308 0v346q0 57 -26.5 77t-68.5 20q-39 0 -65.5 -9.5t-41.5 -20.5v-413h-65v672h65v-199q18 12 46 22t73 10q30 0 57 -6.5t47 -24t32 -47.5t12 -78v-349h-65zM214 869l-147 -146l-25 27l142 158h58l143 -158l-25 -27z" />
    <glyph glyph-name="Hbar" unicode="&#x126;" horiz-adv-x="445" 
d="M332 0v306h-221v-306h-70v664h70v-131h221v131h71v-664h-71zM332 366v118h-221v-118h221z" />
    <glyph glyph-name="hbar" unicode="&#x127;" horiz-adv-x="410" 
d="M106 554v-81q18 12 46 22t73 10q30 0 57 -6.5t47 -24t32 -47.5t12 -78v-349h-65v346q0 57 -26.5 77t-68.5 20q-39 0 -65.5 -9.5t-41.5 -20.5v-413h-65v554h-41v49h41v69h65v-69h203v-49h-203z" />
    <glyph glyph-name="Itilde" unicode="&#x128;" horiz-adv-x="152" 
d="M41 0v664h70v-664h-70zM-77 778v49h309v-49h-309z" />
    <glyph glyph-name="itilde" unicode="&#x129;" horiz-adv-x="156" 
d="M45 0v492h66v-492h-66zM-75 606v49h309v-49h-309z" />
    <glyph glyph-name="Imacron" unicode="&#x12a;" horiz-adv-x="152" 
d="M41 0v664h70v-664h-70zM-77 778v49h309v-49h-309z" />
    <glyph glyph-name="imacron" unicode="&#x12b;" horiz-adv-x="156" 
d="M45 0v492h66v-492h-66zM-75 606v49h309v-49h-309z" />
    <glyph glyph-name="Ibreve" unicode="&#x12c;" horiz-adv-x="152" 
d="M41 0v664h70v-664h-70zM231 888q0 -42 -13 -73t-35 -51.5t-49.5 -31t-57.5 -10.5q-29 0 -56.5 10.5t-49 31t-34.5 51.5t-13 73h45q2 -63 32.5 -93t75.5 -30t76.5 30t32.5 93h46z" />
    <glyph glyph-name="ibreve" unicode="&#x12d;" horiz-adv-x="156" 
d="M45 0v492h66v-492h-66zM233 716q0 -42 -13 -73t-35 -51.5t-49.5 -31t-57.5 -10.5q-29 0 -56.5 10.5t-49 31t-34.5 51.5t-13 73h45q2 -63 32.5 -93t75.5 -30t76.5 30t32.5 93h46z" />
    <glyph glyph-name="Iogonek" unicode="&#x12e;" horiz-adv-x="152" 
d="M111 -229q-5 -2 -16 -3t-34 -1q-39 0 -63 8.5t-37.5 22.5t-18 32.5t-4.5 38.5q0 21 3 37.5t11.5 30t23.5 24.5t38 19l56 20h-29v664h70v-664l-68 -27q-32 -13 -43.5 -33t-11.5 -49t15.5 -47.5t63.5 -18.5q33 0 44 4v-58z" />
    <glyph glyph-name="iogonek" unicode="&#x12f;" horiz-adv-x="156" 
d="M111 -229q-5 -2 -16 -3t-34 -1q-39 0 -63 8.5t-37.5 22.5t-18 32.5t-4.5 38.5q0 21 3 37.5t11.5 30t23.5 24.5t38 19l56 20h-25v492h66v-492l-68 -27q-32 -13 -43.5 -33t-11.5 -49t15.5 -47.5t63.5 -18.5q33 0 44 4v-58zM44 551v121h68v-121h-68z" />
    <glyph glyph-name="Idotaccent" unicode="&#x130;" horiz-adv-x="152" 
d="M41 0v664h70v-664h-70zM42 726v133h71v-133h-71z" />
    <glyph glyph-name="dotlessi" unicode="&#x131;" horiz-adv-x="156" 
d="M45 0v492h66v-492h-66z" />
    <glyph glyph-name="IJ" unicode="&#x132;" horiz-adv-x="418" 
d="M41 0v664h70v-664h-70zM178 44q10 -3 22 -3q49 0 79 21.5t30 77.5v524h71v-525q0 -47 -14 -77.5t-38 -49.5t-56.5 -26.5t-69.5 -7.5q-14 0 -24 3v63z" />
    <glyph glyph-name="ij" unicode="&#x133;" horiz-adv-x="372" 
d="M45 0v492h66v-492h-66zM44 551v121h68v-121h-68zM160 -170q9 -3 21 -3q35 0 58 18.5t23 66.5v580h64v-586q0 -41 -11.5 -67.5t-31 -42.5t-46 -22.5t-55.5 -6.5q-13 0 -22 3v60zM260 551v121h68v-121h-68z" />
    <glyph glyph-name="Jcircumflex" unicode="&#x134;" horiz-adv-x="266" 
d="M26 44q10 -3 22 -3q49 0 79 21.5t30 77.5v524h71v-525q0 -47 -14 -77.5t-38 -49.5t-56.5 -26.5t-69.5 -7.5q-14 0 -24 3v63zM115 869l-147 -146l-25 27l142 158h58l143 -158l-25 -27z" />
    <glyph glyph-name="jcircumflex" unicode="&#x135;" horiz-adv-x="216" 
d="M4 -170q9 -3 21 -3q35 0 58 18.5t23 66.5v580h64v-586q0 -41 -11.5 -67.5t-31 -42.5t-46 -22.5t-55.5 -6.5q-13 0 -22 3v60zM80 697l-147 -146l-25 27l142 158h58l143 -158l-25 -27z" />
    <glyph glyph-name="uni0136" unicode="&#x136;" horiz-adv-x="443" 
d="M349 0l-239 339v-339h-69v664h69v-295l229 295h80l-247 -303l259 -361h-82zM196 -34h65l-6 -62q-2 -27 -7.5 -52.5t-14.5 -46t-22 -33.5t-30 -15z" />
    <glyph glyph-name="uni0137" unicode="&#x137;" horiz-adv-x="416" 
d="M322 0l-216 253v-253h-65v672h65v-395l202 215h84l-220 -223l233 -269h-83zM183 -34h65l-6 -62q-2 -27 -7.5 -52.5t-14.5 -46t-22 -33.5t-30 -15z" />
    <glyph glyph-name="Lacute" unicode="&#x139;" horiz-adv-x="322" 
d="M41 0v664h70v-603h188v-61h-258zM-15 706v39l222 137v-58z" />
    <glyph glyph-name="lacute" unicode="&#x13a;" horiz-adv-x="147" 
d="M41 0v672h65v-672h-65zM-16 706v39l222 137v-58z" />
    <glyph glyph-name="uni013B" unicode="&#x13b;" horiz-adv-x="322" 
d="M41 0v664h70v-603h188v-61h-258zM136 -34h65l-6 -62q-2 -27 -7.5 -52.5t-14.5 -46t-22 -33.5t-30 -15z" />
    <glyph glyph-name="uni013C" unicode="&#x13c;" horiz-adv-x="147" 
d="M41 0v672h65v-672h-65zM40 -34h65l-6 -62q-2 -27 -7.5 -52.5t-14.5 -46t-22 -33.5t-30 -15z" />
    <glyph glyph-name="Lcaron" unicode="&#x13d;" horiz-adv-x="322" 
d="M41 0v664h70v-603h188v-61h-258zM210 795h73l-10 -151q-2 -24 -8.5 -47.5t-17 -42t-25 -30.5t-31.5 -13z" />
    <glyph glyph-name="lcaron" unicode="&#x13e;" horiz-adv-x="256" 
d="M41 0v672h65v-672h-65zM168 672h73l-10 -151q-2 -24 -8.5 -47.5t-17 -42t-25 -30.5t-31.5 -13z" />
    <glyph glyph-name="Ldot" unicode="&#x13f;" horiz-adv-x="322" 
d="M41 0v664h70v-603h188v-61h-258zM163 269v133h71v-133h-71z" />
    <glyph glyph-name="ldot" unicode="&#x140;" horiz-adv-x="217" 
d="M41 0v672h65v-672h-65zM146 267v133h71v-133h-71z" />
    <glyph glyph-name="Lslash" unicode="&#x141;" horiz-adv-x="322" 
d="M41 0v664h70v-327l162 96v-48l-162 -96v-228h188v-61h-258z" />
    <glyph glyph-name="lslash" unicode="&#x142;" horiz-adv-x="159" 
d="M46 0v287l-46 -38v50l46 38v335h66v-283l47 40v-51l-47 -40v-338h-66z" />
    <glyph glyph-name="Nacute" unicode="&#x143;" horiz-adv-x="441" 
d="M332 0v520q0 57 -31 78.5t-77 21.5q-42 0 -68.5 -5t-44.5 -12v-603h-70v651q26 9 70 19t114 10q36 0 68.5 -7.5t57 -26.5t38.5 -50t14 -77v-519h-71zM129 706v39l222 137v-58z" />
    <glyph glyph-name="nacute" unicode="&#x144;" horiz-adv-x="410" 
d="M308 0v346q0 28 -7.5 46.5t-20.5 29.5t-31 16t-40 5q-39 0 -63 -5t-40 -12v-426h-65v477q25 9 63.5 18.5t104.5 9.5q35 0 65 -7.5t52 -25.5t34.5 -48t12.5 -75v-349h-65zM114 534v39l222 137v-58z" />
    <glyph glyph-name="uni0145" unicode="&#x145;" horiz-adv-x="441" 
d="M332 0v520q0 57 -31 78.5t-77 21.5q-42 0 -68.5 -5t-44.5 -12v-603h-70v651q26 9 70 19t114 10q36 0 68.5 -7.5t57 -26.5t38.5 -50t14 -77v-519h-71zM195 -34h65l-6 -62q-2 -27 -7.5 -52.5t-14.5 -46t-22 -33.5t-30 -15z" />
    <glyph glyph-name="uni0146" unicode="&#x146;" horiz-adv-x="410" 
d="M308 0v346q0 28 -7.5 46.5t-20.5 29.5t-31 16t-40 5q-39 0 -63 -5t-40 -12v-426h-65v477q25 9 63.5 18.5t104.5 9.5q35 0 65 -7.5t52 -25.5t34.5 -48t12.5 -75v-349h-65zM180 -34h65l-6 -62q-2 -27 -7.5 -52.5t-14.5 -46t-22 -33.5t-30 -15z" />
    <glyph glyph-name="Ncaron" unicode="&#x147;" horiz-adv-x="441" 
d="M332 0v520q0 57 -31 78.5t-77 21.5q-42 0 -68.5 -5t-44.5 -12v-603h-70v651q26 9 70 19t114 10q36 0 68.5 -7.5t57 -26.5t38.5 -50t14 -77v-519h-71zM221 703l-172 166l23 29l149 -140l150 140l23 -29z" />
    <glyph glyph-name="ncaron" unicode="&#x148;" horiz-adv-x="410" 
d="M308 0v346q0 28 -7.5 46.5t-20.5 29.5t-31 16t-40 5q-39 0 -63 -5t-40 -12v-426h-65v477q25 9 63.5 18.5t104.5 9.5q35 0 65 -7.5t52 -25.5t34.5 -48t12.5 -75v-349h-65zM206 531l-172 166l23 29l149 -140l150 140l23 -29z" />
    <glyph glyph-name="Eng" unicode="&#x14a;" horiz-adv-x="441" 
d="M230 -180q9 -3 21 -3q35 0 58 18.5t23 66.5v618q0 57 -31 78.5t-77 21.5q-42 0 -68.5 -5t-44.5 -12v-603h-70v651q26 9 70 19t114 10q36 0 68.5 -7.5t57 -26.5t38.5 -50t14 -77v-623q0 -41 -12.5 -67.5t-33.5 -42.5t-48.5 -22.5t-56.5 -6.5q-13 0 -22 3v60z" />
    <glyph glyph-name="eng" unicode="&#x14b;" horiz-adv-x="410" 
d="M207 -180q9 -3 21 -3q35 0 57.5 18.5t22.5 66.5v444q0 28 -7.5 46.5t-20.5 29.5t-31 16t-40 5q-39 0 -63 -5t-40 -12v-426h-65v477q25 9 63.5 18.5t104.5 9.5q35 0 65 -7.5t52 -25.5t34.5 -48t12.5 -75v-453q0 -41 -11.5 -67.5t-31 -42.5t-46 -22.5t-55.5 -6.5
q-13 0 -22 3v60z" />
    <glyph glyph-name="Omacron" unicode="&#x14c;" horiz-adv-x="431" 
d="M34 518q0 46 14.5 77.5t39 50t57.5 26.5t70 8t69.5 -8t57.5 -26.5t39.5 -50t14.5 -77.5v-373q0 -47 -14.5 -78t-39.5 -49.5t-57.5 -26.5t-69.5 -8t-70 8t-57.5 26.5t-39 49.5t-14.5 78v373zM325 518q0 61 -28 81.5t-82 20.5t-82 -20.5t-28 -81.5v-373q0 -59 28 -80
t82 -21q53 0 81.5 21t28.5 80v373zM61 778v49h309v-49h-309z" />
    <glyph glyph-name="omacron" unicode="&#x14d;" 
d="M364 139q0 -45 -13 -75t-35.5 -48t-53 -25.5t-64.5 -7.5q-36 0 -66.5 7.5t-52.5 25.5t-34.5 48t-12.5 75v210q0 45 12.5 75t34.5 48t52.5 25.5t66.5 7.5q34 0 64.5 -7.5t53 -25.5t35.5 -48t13 -75v-210zM299 349q0 54 -28 74t-73 20t-73 -20t-28 -74v-210q0 -55 28 -75
t73 -20q44 0 72.5 20t28.5 75v210zM45 606v49h309v-49h-309z" />
    <glyph glyph-name="Obreve" unicode="&#x14e;" horiz-adv-x="431" 
d="M34 518q0 46 14.5 77.5t39 50t57.5 26.5t70 8t69.5 -8t57.5 -26.5t39.5 -50t14.5 -77.5v-373q0 -47 -14.5 -78t-39.5 -49.5t-57.5 -26.5t-69.5 -8t-70 8t-57.5 26.5t-39 49.5t-14.5 78v373zM325 518q0 61 -28 81.5t-82 20.5t-82 -20.5t-28 -81.5v-373q0 -59 28 -80
t82 -21q53 0 81.5 21t28.5 80v373zM371 888q0 -42 -13 -73t-35 -51.5t-49.5 -31t-57.5 -10.5q-29 0 -56.5 10.5t-49 31t-34.5 51.5t-13 73h45q2 -63 32.5 -93t75.5 -30t76.5 30t32.5 93h46z" />
    <glyph glyph-name="obreve" unicode="&#x14f;" 
d="M364 139q0 -45 -13 -75t-35.5 -48t-53 -25.5t-64.5 -7.5q-36 0 -66.5 7.5t-52.5 25.5t-34.5 48t-12.5 75v210q0 45 12.5 75t34.5 48t52.5 25.5t66.5 7.5q34 0 64.5 -7.5t53 -25.5t35.5 -48t13 -75v-210zM299 349q0 54 -28 74t-73 20t-73 -20t-28 -74v-210q0 -55 28 -75
t73 -20q44 0 72.5 20t28.5 75v210zM354 716q0 -42 -13 -73t-35 -51.5t-49.5 -31t-57.5 -10.5q-29 0 -56.5 10.5t-49 31t-34.5 51.5t-13 73h45q2 -63 32.5 -93t75.5 -30t76.5 30t32.5 93h46z" />
    <glyph glyph-name="Ohungarumlaut" unicode="&#x150;" horiz-adv-x="431" 
d="M34 518q0 46 14.5 77.5t39 50t57.5 26.5t70 8t69.5 -8t57.5 -26.5t39.5 -50t14.5 -77.5v-373q0 -47 -14.5 -78t-39.5 -49.5t-57.5 -26.5t-69.5 -8t-70 8t-57.5 26.5t-39 49.5t-14.5 78v373zM325 518q0 61 -28 81.5t-82 20.5t-82 -20.5t-28 -81.5v-373q0 -59 28 -80
t82 -21q53 0 81.5 21t28.5 80v373zM231 734l132 151l26 -21l-135 -149zM82 734l129 153l25 -21l-132 -151z" />
    <glyph glyph-name="ohungarumlaut" unicode="&#x151;" 
d="M364 139q0 -45 -13 -75t-35.5 -48t-53 -25.5t-64.5 -7.5q-36 0 -66.5 7.5t-52.5 25.5t-34.5 48t-12.5 75v210q0 45 12.5 75t34.5 48t52.5 25.5t66.5 7.5q34 0 64.5 -7.5t53 -25.5t35.5 -48t13 -75v-210zM299 349q0 54 -28 74t-73 20t-73 -20t-28 -74v-210q0 -55 28 -75
t73 -20q44 0 72.5 20t28.5 75v210zM215 562l132 151l26 -21l-135 -149zM66 562l129 153l25 -21l-132 -151z" />
    <glyph glyph-name="OE" unicode="&#x152;" horiz-adv-x="600" 
d="M329 0v19q-20 -20 -50 -28t-64 -8q-37 0 -70 8t-57.5 26.5t-39 49.5t-14.5 78v373q0 46 14.5 77.5t39 50t57.5 26.5t70 8q33 0 62.5 -8t49.5 -28v20h240v-60h-171v-226h158v-61h-158v-256h177v-61h-244zM325 518q0 61 -28 81.5t-82 20.5t-82 -20.5t-28 -81.5v-373
q0 -59 28 -80t82 -21q18 0 33 6q38 7 57.5 28t19.5 67v373z" />
    <glyph glyph-name="oe" unicode="&#x153;" horiz-adv-x="670" 
d="M626 8q-24 -10 -65.5 -17.5t-95.5 -7.5q-45 0 -79.5 12t-54.5 43q-20 -31 -55.5 -43t-77.5 -12q-36 0 -66.5 7.5t-52.5 25.5t-34.5 48t-12.5 75v210q0 45 12.5 75t34.5 48t52.5 25.5t66.5 7.5q42 0 77.5 -12.5t55.5 -43.5q20 31 54.5 43.5t79.5 12.5q34 0 64.5 -7.5
t53 -25.5t35.5 -48t13 -75v-135h-267v-73q0 -29 8.5 -47t23.5 -28t35.5 -14t44.5 -4q49 0 84 7t66 18v-65zM299 349q0 54 -28 74t-73 20t-73 -20t-28 -74v-210q0 -55 28 -75t73 -20q44 0 72.5 20t28.5 75v210zM566 349q0 49 -26 71.5t-75 22.5q-51 0 -76 -22.5t-25 -71.5
v-77h202v77z" />
    <glyph glyph-name="Racute" unicode="&#x154;" horiz-adv-x="428" 
d="M323 0v215q0 38 -16 63.5t-62 25.5h-136v-304h-68v664h221q40 0 65.5 -14t40 -36.5t19.5 -51t5 -57.5q0 -30 -4.5 -58t-14.5 -50.5t-26.5 -38.5t-40.5 -22q50 -10 68 -45.5t18 -88.5v-202h-69zM246 361q23 0 38.5 10t24.5 27.5t12.5 40t3.5 47.5q0 24 -3.5 45.5
t-12.5 37.5t-26 25.5t-44 9.5h-130v-243h137zM123 706v39l222 137v-58z" />
    <glyph glyph-name="racute" unicode="&#x155;" horiz-adv-x="381" 
d="M41 0v477q23 9 60.5 18.5t97.5 9.5q33 0 62 -6.5t50.5 -22t33.5 -41.5t12 -65v-63h-58v53q0 47 -27.5 65t-69.5 18q-35 0 -58 -5t-38 -12v-426h-65zM99 534v39l222 137v-58z" />
    <glyph glyph-name="uni0156" unicode="&#x156;" horiz-adv-x="428" 
d="M323 0v215q0 38 -16 63.5t-62 25.5h-136v-304h-68v664h221q40 0 65.5 -14t40 -36.5t19.5 -51t5 -57.5q0 -30 -4.5 -58t-14.5 -50.5t-26.5 -38.5t-40.5 -22q50 -10 68 -45.5t18 -88.5v-202h-69zM246 361q23 0 38.5 10t24.5 27.5t12.5 40t3.5 47.5q0 24 -3.5 45.5
t-12.5 37.5t-26 25.5t-44 9.5h-130v-243h137zM189 -34h65l-6 -62q-2 -27 -7.5 -52.5t-14.5 -46t-22 -33.5t-30 -15z" />
    <glyph glyph-name="uni0157" unicode="&#x157;" horiz-adv-x="381" 
d="M41 0v477q23 9 60.5 18.5t97.5 9.5q33 0 62 -6.5t50.5 -22t33.5 -41.5t12 -65v-63h-58v53q0 47 -27.5 65t-69.5 18q-35 0 -58 -5t-38 -12v-426h-65zM42 -34h65l-6 -62q-2 -27 -7.5 -52.5t-14.5 -46t-22 -33.5t-30 -15z" />
    <glyph glyph-name="Rcaron" unicode="&#x158;" horiz-adv-x="428" 
d="M323 0v215q0 38 -16 63.5t-62 25.5h-136v-304h-68v664h221q40 0 65.5 -14t40 -36.5t19.5 -51t5 -57.5q0 -30 -4.5 -58t-14.5 -50.5t-26.5 -38.5t-40.5 -22q50 -10 68 -45.5t18 -88.5v-202h-69zM246 361q23 0 38.5 10t24.5 27.5t12.5 40t3.5 47.5q0 24 -3.5 45.5
t-12.5 37.5t-26 25.5t-44 9.5h-130v-243h137zM205 703l-172 166l23 29l149 -140l150 140l23 -29z" />
    <glyph glyph-name="rcaron" unicode="&#x159;" horiz-adv-x="381" 
d="M41 0v477q23 9 60.5 18.5t97.5 9.5q33 0 62 -6.5t50.5 -22t33.5 -41.5t12 -65v-63h-58v53q0 47 -27.5 65t-69.5 18q-35 0 -58 -5t-38 -12v-426h-65zM191 531l-172 166l23 29l149 -140l150 140l23 -29z" />
    <glyph glyph-name="Sacute" unicode="&#x15a;" 
d="M305 466v51q0 61 -24.5 82t-72.5 21q-32 0 -52.5 -5.5t-33.5 -19t-18 -35t-5 -53.5q0 -30 5.5 -50t19 -33.5t37.5 -24t61 -20.5q48 -14 77.5 -31.5t46 -42t22 -58t5.5 -79.5q0 -41 -7.5 -74.5t-27 -58.5t-54 -38.5t-89.5 -13.5q-80 0 -123.5 37.5t-43.5 126.5v89h64v-87
q0 -61 25.5 -83t79.5 -22q31 0 51.5 6.5t32.5 21.5t16.5 38.5t4.5 57.5q0 41 -4.5 66.5t-18 42t-38.5 28t-65 23.5q-39 12 -67 27t-46 36t-26.5 49.5t-8.5 66.5q0 37 8 69t28.5 55t55.5 36t88 13q34 0 63 -7t50 -24.5t33 -46t12 -71.5v-65h-61zM107 706v39l222 137v-58z" />
    <glyph glyph-name="sacute" unicode="&#x15b;" horiz-adv-x="394" 
d="M299 347v40q0 19 -8 31t-21.5 18t-32 8t-40.5 2q-23 0 -42.5 -2t-33.5 -9t-21.5 -21t-7.5 -37q0 -33 21.5 -50.5t54 -28.5t69 -19.5t66.5 -23.5q38 -19 51.5 -48.5t13.5 -69.5q0 -45 -12.5 -75t-35.5 -47.5t-55.5 -24.5t-71.5 -7q-30 0 -60.5 4.5t-54.5 18t-39 37
t-15 62.5v56h63v-40q0 -25 8 -40.5t22 -24.5t33.5 -12t42.5 -3q28 0 47.5 4t32.5 15t19 29.5t6 47.5q0 34 -20.5 52.5t-50.5 29t-66 19t-66 23t-50.5 40.5t-20.5 72q0 42 14.5 68t38.5 40t55.5 19t64.5 5q29 0 58.5 -4t53 -16t38 -34t14.5 -58v-46h-62zM106 534v39l222 137
v-58z" />
    <glyph glyph-name="Scircumflex" unicode="&#x15c;" 
d="M305 466v51q0 61 -24.5 82t-72.5 21q-32 0 -52.5 -5.5t-33.5 -19t-18 -35t-5 -53.5q0 -30 5.5 -50t19 -33.5t37.5 -24t61 -20.5q48 -14 77.5 -31.5t46 -42t22 -58t5.5 -79.5q0 -41 -7.5 -74.5t-27 -58.5t-54 -38.5t-89.5 -13.5q-80 0 -123.5 37.5t-43.5 126.5v89h64v-87
q0 -61 25.5 -83t79.5 -22q31 0 51.5 6.5t32.5 21.5t16.5 38.5t4.5 57.5q0 41 -4.5 66.5t-18 42t-38.5 28t-65 23.5q-39 12 -67 27t-46 36t-26.5 49.5t-8.5 66.5q0 37 8 69t28.5 55t55.5 36t88 13q34 0 63 -7t50 -24.5t33 -46t12 -71.5v-65h-61zM200 869l-147 -146l-25 27
l142 158h58l143 -158l-25 -27z" />
    <glyph glyph-name="scircumflex" unicode="&#x15d;" horiz-adv-x="394" 
d="M299 347v40q0 19 -8 31t-21.5 18t-32 8t-40.5 2q-23 0 -42.5 -2t-33.5 -9t-21.5 -21t-7.5 -37q0 -33 21.5 -50.5t54 -28.5t69 -19.5t66.5 -23.5q38 -19 51.5 -48.5t13.5 -69.5q0 -45 -12.5 -75t-35.5 -47.5t-55.5 -24.5t-71.5 -7q-30 0 -60.5 4.5t-54.5 18t-39 37
t-15 62.5v56h63v-40q0 -25 8 -40.5t22 -24.5t33.5 -12t42.5 -3q28 0 47.5 4t32.5 15t19 29.5t6 47.5q0 34 -20.5 52.5t-50.5 29t-66 19t-66 23t-50.5 40.5t-20.5 72q0 42 14.5 68t38.5 40t55.5 19t64.5 5q29 0 58.5 -4t53 -16t38 -34t14.5 -58v-46h-62zM199 697l-147 -146
l-25 27l142 158h58l143 -158l-25 -27z" />
    <glyph glyph-name="Scedilla" unicode="&#x15e;" 
d="M305 466v51q0 61 -24.5 82t-72.5 21q-32 0 -52.5 -5.5t-33.5 -19t-18 -35t-5 -53.5q0 -30 5.5 -50t19 -33.5t37.5 -24t61 -20.5q48 -14 77.5 -31.5t46 -42t22 -58t5.5 -79.5q0 -41 -7.5 -74.5t-27 -58.5t-54 -38.5t-89.5 -13.5q-80 0 -123.5 37.5t-43.5 126.5v89h64v-87
q0 -61 25.5 -83t79.5 -22q31 0 51.5 6.5t32.5 21.5t16.5 38.5t4.5 57.5q0 41 -4.5 66.5t-18 42t-38.5 28t-65 23.5q-39 12 -67 27t-46 36t-26.5 49.5t-8.5 66.5q0 37 8 69t28.5 55t55.5 36t88 13q34 0 63 -7t50 -24.5t33 -46t12 -71.5v-65h-61zM173 -34h65l-6 -62
q-2 -27 -7.5 -52.5t-14.5 -46t-22 -33.5t-30 -15z" />
    <glyph glyph-name="scedilla" unicode="&#x15f;" horiz-adv-x="394" 
d="M299 347v40q0 19 -8 31t-21.5 18t-32 8t-40.5 2q-23 0 -42.5 -2t-33.5 -9t-21.5 -21t-7.5 -37q0 -33 21.5 -50.5t54 -28.5t69 -19.5t66.5 -23.5q38 -19 51.5 -48.5t13.5 -69.5q0 -45 -12.5 -75t-35.5 -47.5t-55.5 -24.5t-71.5 -7q-30 0 -60.5 4.5t-54.5 18t-39 37
t-15 62.5v56h63v-40q0 -25 8 -40.5t22 -24.5t33.5 -12t42.5 -3q28 0 47.5 4t32.5 15t19 29.5t6 47.5q0 34 -20.5 52.5t-50.5 29t-66 19t-66 23t-50.5 40.5t-20.5 72q0 42 14.5 68t38.5 40t55.5 19t64.5 5q29 0 58.5 -4t53 -16t38 -34t14.5 -58v-46h-62zM172 -34h65l-6 -62
q-2 -27 -7.5 -52.5t-14.5 -46t-22 -33.5t-30 -15z" />
    <glyph glyph-name="Scaron" unicode="&#x160;" 
d="M305 466v51q0 61 -24.5 82t-72.5 21q-32 0 -52.5 -5.5t-33.5 -19t-18 -35t-5 -53.5q0 -30 5.5 -50t19 -33.5t37.5 -24t61 -20.5q48 -14 77.5 -31.5t46 -42t22 -58t5.5 -79.5q0 -41 -7.5 -74.5t-27 -58.5t-54 -38.5t-89.5 -13.5q-80 0 -123.5 37.5t-43.5 126.5v89h64v-87
q0 -61 25.5 -83t79.5 -22q31 0 51.5 6.5t32.5 21.5t16.5 38.5t4.5 57.5q0 41 -4.5 66.5t-18 42t-38.5 28t-65 23.5q-39 12 -67 27t-46 36t-26.5 49.5t-8.5 66.5q0 37 8 69t28.5 55t55.5 36t88 13q34 0 63 -7t50 -24.5t33 -46t12 -71.5v-65h-61zM199 703l-172 166l23 29
l149 -140l150 140l23 -29z" />
    <glyph glyph-name="scaron" unicode="&#x161;" horiz-adv-x="394" 
d="M299 347v40q0 19 -8 31t-21.5 18t-32 8t-40.5 2q-23 0 -42.5 -2t-33.5 -9t-21.5 -21t-7.5 -37q0 -33 21.5 -50.5t54 -28.5t69 -19.5t66.5 -23.5q38 -19 51.5 -48.5t13.5 -69.5q0 -45 -12.5 -75t-35.5 -47.5t-55.5 -24.5t-71.5 -7q-30 0 -60.5 4.5t-54.5 18t-39 37
t-15 62.5v56h63v-40q0 -25 8 -40.5t22 -24.5t33.5 -12t42.5 -3q28 0 47.5 4t32.5 15t19 29.5t6 47.5q0 34 -20.5 52.5t-50.5 29t-66 19t-66 23t-50.5 40.5t-20.5 72q0 42 14.5 68t38.5 40t55.5 19t64.5 5q29 0 58.5 -4t53 -16t38 -34t14.5 -58v-46h-62zM198 531l-172 166
l23 29l149 -140l150 140l23 -29z" />
    <glyph glyph-name="uni0162" unicode="&#x162;" horiz-adv-x="357" 
d="M143 0v604h-130v60h330v-60h-130v-604h-70zM145 -34h65l-6 -62q-2 -27 -7.5 -52.5t-14.5 -46t-22 -33.5t-30 -15z" />
    <glyph glyph-name="uni0163" unicode="&#x163;" horiz-adv-x="234" 
d="M82 0v443h-62v49h62v112h66v-112h65v-49h-65v-443h-66zM82 -34h65l-6 -62q-2 -27 -7.5 -52.5t-14.5 -46t-22 -33.5t-30 -15z" />
    <glyph glyph-name="Tcaron" unicode="&#x164;" horiz-adv-x="357" 
d="M143 0v604h-130v60h330v-60h-130v-604h-70zM179 703l-172 166l23 29l149 -140l150 140l23 -29z" />
    <glyph glyph-name="tcaron" unicode="&#x165;" horiz-adv-x="323" 
d="M82 0v443h-62v49h62v112h66v-112h65v-49h-65v-443h-66zM250 672h73l-10 -151q-2 -24 -8.5 -47.5t-17 -42t-25 -30.5t-31.5 -13z" />
    <glyph glyph-name="Tbar" unicode="&#x166;" horiz-adv-x="357" 
d="M143 0v296h-63v52h63v256h-130v60h330v-60h-130v-256h65v-52h-65v-296h-70z" />
    <glyph glyph-name="tbar" unicode="&#x167;" horiz-adv-x="234" 
d="M82 0v224h-34v52h34v167h-62v49h62v112h66v-112h65v-49h-65v-167h33v-52h-33v-224h-66z" />
    <glyph glyph-name="Utilde" unicode="&#x168;" horiz-adv-x="441" 
d="M329 664h71v-652q-26 -9 -70.5 -19t-113.5 -10q-37 0 -69.5 7.5t-56.5 26.5t-38 49.5t-14 77.5v520h70v-520q0 -29 8.5 -48t23 -30.5t34.5 -16.5t43 -5q42 0 68.5 5.5t43.5 11.5v603zM66 778v49h309v-49h-309z" />
    <glyph glyph-name="utilde" unicode="&#x169;" horiz-adv-x="412" 
d="M303 492h65v-481q-23 -9 -63 -18.5t-106 -9.5q-35 0 -64.5 7.5t-51 25.5t-34 48t-12.5 75v353h65v-351q0 -55 27.5 -76t70.5 -21q38 0 63 5.5t40 11.5v431zM51 606v49h309v-49h-309z" />
    <glyph glyph-name="Umacron" unicode="&#x16a;" horiz-adv-x="441" 
d="M329 664h71v-652q-26 -9 -70.5 -19t-113.5 -10q-37 0 -69.5 7.5t-56.5 26.5t-38 49.5t-14 77.5v520h70v-520q0 -29 8.5 -48t23 -30.5t34.5 -16.5t43 -5q42 0 68.5 5.5t43.5 11.5v603zM66 778v49h309v-49h-309z" />
    <glyph glyph-name="umacron" unicode="&#x16b;" horiz-adv-x="412" 
d="M303 492h65v-481q-23 -9 -63 -18.5t-106 -9.5q-35 0 -64.5 7.5t-51 25.5t-34 48t-12.5 75v353h65v-351q0 -55 27.5 -76t70.5 -21q38 0 63 5.5t40 11.5v431zM51 606v49h309v-49h-309z" />
    <glyph glyph-name="Ubreve" unicode="&#x16c;" horiz-adv-x="441" 
d="M329 664h71v-652q-26 -9 -70.5 -19t-113.5 -10q-37 0 -69.5 7.5t-56.5 26.5t-38 49.5t-14 77.5v520h70v-520q0 -29 8.5 -48t23 -30.5t34.5 -16.5t43 -5q42 0 68.5 5.5t43.5 11.5v603zM376 888q0 -42 -13 -73t-35 -51.5t-49.5 -31t-57.5 -10.5q-29 0 -56.5 10.5t-49 31
t-34.5 51.5t-13 73h45q2 -63 32.5 -93t75.5 -30t76.5 30t32.5 93h46z" />
    <glyph glyph-name="ubreve" unicode="&#x16d;" horiz-adv-x="412" 
d="M303 492h65v-481q-23 -9 -63 -18.5t-106 -9.5q-35 0 -64.5 7.5t-51 25.5t-34 48t-12.5 75v353h65v-351q0 -55 27.5 -76t70.5 -21q38 0 63 5.5t40 11.5v431zM361 716q0 -42 -13 -73t-35 -51.5t-49.5 -31t-57.5 -10.5q-29 0 -56.5 10.5t-49 31t-34.5 51.5t-13 73h45
q2 -63 32.5 -93t75.5 -30t76.5 30t32.5 93h46z" />
    <glyph glyph-name="Uring" unicode="&#x16e;" horiz-adv-x="441" 
d="M329 664h71v-652q-26 -9 -70.5 -19t-113.5 -10q-37 0 -69.5 7.5t-56.5 26.5t-38 49.5t-14 77.5v520h70v-520q0 -29 8.5 -48t23 -30.5t34.5 -16.5t43 -5q42 0 68.5 5.5t43.5 11.5v603zM319 792q0 -48 -22.5 -72t-76.5 -24q-98 0 -98 96q0 46 23.5 71t74.5 25
q54 0 76.5 -25t22.5 -71zM289 792q0 34 -16.5 51t-52.5 17q-67 0 -67 -68t67 -68q36 0 52.5 17t16.5 51z" />
    <glyph glyph-name="uring" unicode="&#x16f;" horiz-adv-x="412" 
d="M303 492h65v-481q-23 -9 -63 -18.5t-106 -9.5q-35 0 -64.5 7.5t-51 25.5t-34 48t-12.5 75v353h65v-351q0 -55 27.5 -76t70.5 -21q38 0 63 5.5t40 11.5v431zM304 620q0 -48 -22.5 -72t-76.5 -24q-98 0 -98 96q0 46 23.5 71t74.5 25q54 0 76.5 -25t22.5 -71zM274 620
q0 34 -16.5 51t-52.5 17q-67 0 -67 -68t67 -68q36 0 52.5 17t16.5 51z" />
    <glyph glyph-name="Uhungarumlaut" unicode="&#x170;" horiz-adv-x="441" 
d="M329 664h71v-652q-26 -9 -70.5 -19t-113.5 -10q-37 0 -69.5 7.5t-56.5 26.5t-38 49.5t-14 77.5v520h70v-520q0 -29 8.5 -48t23 -30.5t34.5 -16.5t43 -5q42 0 68.5 5.5t43.5 11.5v603zM236 734l132 151l26 -21l-135 -149zM87 734l129 153l25 -21l-132 -151z" />
    <glyph glyph-name="uhungarumlaut" unicode="&#x171;" horiz-adv-x="412" 
d="M303 492h65v-481q-23 -9 -63 -18.5t-106 -9.5q-35 0 -64.5 7.5t-51 25.5t-34 48t-12.5 75v353h65v-351q0 -55 27.5 -76t70.5 -21q38 0 63 5.5t40 11.5v431zM221 562l132 151l26 -21l-135 -149zM72 562l129 153l25 -21l-132 -151z" />
    <glyph glyph-name="Uogonek" unicode="&#x172;" horiz-adv-x="441" 
d="M357 -229q-5 -2 -16 -3t-34 -1q-39 0 -63 8.5t-37.5 22.5t-18 32.5t-4.5 38.5q0 21 3 37.5t11.5 30t23.5 24t38 19.5l16 6q-14 -1 -28.5 -2t-31.5 -1q-37 0 -69.5 7.5t-56.5 26.5t-38 49.5t-14 77.5v520h70v-520q0 -29 8.5 -48t23 -30.5t34.5 -16.5t43 -5q42 0 68.5 5.5
t43.5 11.5v603h71v-652q-5 -2 -11.5 -4.5t-18.5 -6t-31.5 -10.5t-49.5 -18q-32 -12 -43.5 -32.5t-11.5 -49.5t15.5 -47.5t63.5 -18.5q33 0 44 4v-58z" />
    <glyph glyph-name="uogonek" unicode="&#x173;" horiz-adv-x="412" 
d="M331 -229q-5 -2 -16 -3t-34 -1q-39 0 -63 8.5t-37.5 22.5t-18 32.5t-4.5 38.5q0 21 3 37.5t11.5 30t23.5 24t38 19.5l13 5q-11 -1 -23 -1.5t-25 -0.5q-35 0 -64.5 7.5t-51 25.5t-34 48t-12.5 75v353h65v-351q0 -55 27.5 -76t70.5 -21q38 0 63 5.5t40 11.5v431h65v-481
q-5 -2 -11 -4.5t-17 -6.5t-29.5 -10.5t-47.5 -16.5q-32 -13 -43.5 -33t-11.5 -49t15.5 -47.5t63.5 -18.5q33 0 44 4v-58z" />
    <glyph glyph-name="Wcircumflex" unicode="&#x174;" horiz-adv-x="648" 
d="M543 664h69v-427q0 -56 -13.5 -95.5t-36 -68.5t-52 -50t-60.5 -39q-43 26 -77.5 60.5t-49.5 85.5q-12 -50 -48 -85t-79 -61q-31 18 -60 39t-51.5 50.5t-36.5 69t-14 94.5v427h72v-427q0 -36 7.5 -64t20 -49t29 -36.5t34.5 -27.5q19 12 36 27t29.5 36t20 48.5t7.5 65.5
v427h67v-427q0 -37 7.5 -64.5t20.5 -48.5t30 -36.5t36 -27.5q20 12 37 27.5t29 36.5t19 49t7 64v427zM324 869l-147 -146l-25 27l142 158h58l143 -158l-25 -27z" />
    <glyph glyph-name="wcircumflex" unicode="&#x175;" horiz-adv-x="581" 
d="M484 492h65v-283q0 -51 -12 -88.5t-32 -65t-46 -47.5t-54 -36q-43 21 -73 52.5t-42 73.5q-12 -42 -42 -74t-72 -52q-28 16 -54 36t-46 47.5t-32 65t-12 88.5v283h65v-294q0 -64 23 -98.5t57 -56.5q15 10 30 22.5t26 30.5t18 42.5t7 59.5v294h65v-278q0 -40 6 -67.5
t17 -46.5t26 -32.5t32 -24.5q15 10 29.5 23t25.5 31.5t18 43t7 57.5v294zM291 697l-147 -146l-25 27l142 158h58l143 -158l-25 -27z" />
    <glyph glyph-name="Ycircumflex" unicode="&#x176;" horiz-adv-x="417" 
d="M174 0v234q-29 17 -56 38t-47 49t-32 64.5t-12 84.5v194h72v-201q0 -38 9.5 -65t24.5 -47t35 -34.5t41 -26.5q21 12 41 26.5t35.5 35t24.5 47.5t9 64v201h70v-194q0 -48 -11.5 -84.5t-31.5 -64.5t-46 -49t-55 -38v-234h-71zM210 869l-147 -146l-25 27l142 158h58
l143 -158l-25 -27z" />
    <glyph glyph-name="ycircumflex" unicode="&#x177;" horiz-adv-x="402" 
d="M301 27q-18 -12 -46.5 -21.5t-73.5 -9.5q-30 0 -56.5 6.5t-46.5 24t-32 47.5t-12 78v340h65v-338q0 -57 26.5 -76.5t68.5 -19.5q39 0 65 9.5t42 20.5v404h65v-587q0 -43 -12.5 -72t-35 -46.5t-53 -25t-65.5 -7.5q-33 0 -61.5 7.5t-49.5 25t-32.5 46.5t-11.5 72v39h61v-39
q0 -50 26.5 -70t67.5 -20q45 0 73 19.5t28 70.5v122zM203 697l-147 -146l-25 27l142 158h58l143 -158l-25 -27z" />
    <glyph glyph-name="Ydieresis" unicode="&#x178;" horiz-adv-x="417" 
d="M174 0v234q-29 17 -56 38t-47 49t-32 64.5t-12 84.5v194h72v-201q0 -38 9.5 -65t24.5 -47t35 -34.5t41 -26.5q21 12 41 26.5t35.5 35t24.5 47.5t9 64v201h70v-194q0 -48 -11.5 -84.5t-31.5 -64.5t-46 -49t-55 -38v-234h-71zM79 726v133h71v-133h-71zM266 726v133h72v-133
h-72z" />
    <glyph glyph-name="Zacute" unicode="&#x179;" horiz-adv-x="388" 
d="M25 0v68l253 536h-243v60h320v-51l-251 -552h251v-61h-330zM103 706v39l222 137v-58z" />
    <glyph glyph-name="zacute" unicode="&#x17a;" horiz-adv-x="365" 
d="M24 0v56l232 382h-217v54h295v-47l-232 -390h239v-55h-317zM91 534v39l222 137v-58z" />
    <glyph glyph-name="Zdotaccent" unicode="&#x17b;" horiz-adv-x="388" 
d="M25 0v68l253 536h-243v60h320v-51l-251 -552h251v-61h-330zM158 726v133h71v-133h-71z" />
    <glyph glyph-name="zdotaccent" unicode="&#x17c;" horiz-adv-x="365" 
d="M24 0v56l232 382h-217v54h295v-47l-232 -390h239v-55h-317zM147 554v133h71v-133h-71z" />
    <glyph glyph-name="Zcaron" unicode="&#x17d;" horiz-adv-x="388" 
d="M25 0v68l253 536h-243v60h320v-51l-251 -552h251v-61h-330zM195 703l-172 166l23 29l149 -140l150 140l23 -29z" />
    <glyph glyph-name="zcaron" unicode="&#x17e;" horiz-adv-x="365" 
d="M24 0v56l232 382h-217v54h295v-47l-232 -390h239v-55h-317zM183 531l-172 166l23 29l149 -140l150 140l23 -29z" />
    <glyph glyph-name="florin" unicode="&#x192;" horiz-adv-x="466" 
d="M-12 -173v61h14q60 0 97 28t47 98l51 375h-96v53h103l8 51q8 51 25 85t43.5 55t62.5 30t81 9h21v-61h-21q-126 0 -140 -119l-6 -50h104v-53h-111l-53 -378q-14 -97 -66.5 -140.5t-149.5 -43.5h-14z" />
    <glyph glyph-name="uni0218" unicode="&#x218;" 
d="M305 466v51q0 61 -24.5 82t-72.5 21q-32 0 -52.5 -5.5t-33.5 -19t-18 -35t-5 -53.5q0 -30 5.5 -50t19 -33.5t37.5 -24t61 -20.5q48 -14 77.5 -31.5t46 -42t22 -58t5.5 -79.5q0 -41 -7.5 -74.5t-27 -58.5t-54 -38.5t-89.5 -13.5q-80 0 -123.5 37.5t-43.5 126.5v89h64v-87
q0 -61 25.5 -83t79.5 -22q31 0 51.5 6.5t32.5 21.5t16.5 38.5t4.5 57.5q0 41 -4.5 66.5t-18 42t-38.5 28t-65 23.5q-39 12 -67 27t-46 36t-26.5 49.5t-8.5 66.5q0 37 8 69t28.5 55t55.5 36t88 13q34 0 63 -7t50 -24.5t33 -46t12 -71.5v-65h-61zM173 -34h65l-6 -62
q-2 -27 -7.5 -52.5t-14.5 -46t-22 -33.5t-30 -15z" />
    <glyph glyph-name="uni0219" unicode="&#x219;" horiz-adv-x="394" 
d="M299 347v40q0 19 -8 31t-21.5 18t-32 8t-40.5 2q-23 0 -42.5 -2t-33.5 -9t-21.5 -21t-7.5 -37q0 -33 21.5 -50.5t54 -28.5t69 -19.5t66.5 -23.5q38 -19 51.5 -48.5t13.5 -69.5q0 -45 -12.5 -75t-35.5 -47.5t-55.5 -24.5t-71.5 -7q-30 0 -60.5 4.5t-54.5 18t-39 37
t-15 62.5v56h63v-40q0 -25 8 -40.5t22 -24.5t33.5 -12t42.5 -3q28 0 47.5 4t32.5 15t19 29.5t6 47.5q0 34 -20.5 52.5t-50.5 29t-66 19t-66 23t-50.5 40.5t-20.5 72q0 42 14.5 68t38.5 40t55.5 19t64.5 5q29 0 58.5 -4t53 -16t38 -34t14.5 -58v-46h-62zM172 -34h65l-6 -62
q-2 -27 -7.5 -52.5t-14.5 -46t-22 -33.5t-30 -15z" />
    <glyph glyph-name="uni021A" unicode="&#x21a;" horiz-adv-x="357" 
d="M143 0v604h-130v60h330v-60h-130v-604h-70zM145 -34h65l-6 -62q-2 -27 -7.5 -52.5t-14.5 -46t-22 -33.5t-30 -15z" />
    <glyph glyph-name="uni021B" unicode="&#x21b;" horiz-adv-x="234" 
d="M82 0v443h-62v49h62v112h66v-112h65v-49h-65v-443h-66zM82 -34h65l-6 -62q-2 -27 -7.5 -52.5t-14.5 -46t-22 -33.5t-30 -15z" />
    <glyph glyph-name="uni0237" unicode="&#x237;" horiz-adv-x="216" 
d="M4 -170q9 -3 21 -3q35 0 58 18.5t23 66.5v580h64v-586q0 -41 -11.5 -67.5t-31 -42.5t-46 -22.5t-55.5 -6.5q-13 0 -22 3v60z" />
    <glyph glyph-name="circumflex" unicode="&#x2c6;" horiz-adv-x="482" 
d="M241 697l-147 -146l-25 27l142 158h58l143 -158l-25 -27z" />
    <glyph glyph-name="caron" unicode="&#x2c7;" horiz-adv-x="484" 
d="M241 531l-172 166l23 29l149 -140l150 140l23 -29z" />
    <glyph glyph-name="breve" unicode="&#x2d8;" horiz-adv-x="446" 
d="M377 716q0 -42 -13 -73t-35 -51.5t-49.5 -31t-57.5 -10.5q-29 0 -56.5 10.5t-49 31t-34.5 51.5t-13 73h45q2 -63 32.5 -93t75.5 -30t76.5 30t32.5 93h46z" />
    <glyph glyph-name="dotaccent" unicode="&#x2d9;" horiz-adv-x="210" 
d="M69 554v133h71v-133h-71z" />
    <glyph glyph-name="ring" unicode="&#x2da;" horiz-adv-x="335" 
d="M266 620q0 -48 -22.5 -72t-76.5 -24q-98 0 -98 96q0 46 23.5 71t74.5 25q54 0 76.5 -25t22.5 -71zM236 620q0 34 -16.5 51t-52.5 17q-67 0 -67 -68t67 -68q36 0 52.5 17t16.5 51z" />
    <glyph glyph-name="ogonek" unicode="&#x2db;" horiz-adv-x="273" 
d="M222 -229q-5 -2 -16 -3t-34 -1q-39 0 -63 8.5t-37.5 22.5t-18 32.5t-4.5 38.5q0 21 3 37.5t11.5 30t23.5 24.5t38 19l56 20h41l-68 -27q-32 -13 -43.5 -33t-11.5 -49t15.5 -47.5t63.5 -18.5q33 0 44 4v-58z" />
    <glyph glyph-name="tilde" unicode="&#x2dc;" horiz-adv-x="408" 
d="M49 606v49h309v-49h-309z" />
    <glyph glyph-name="hungarumlaut" unicode="&#x2dd;" horiz-adv-x="445" 
d="M218 562l132 151l26 -21l-135 -149zM69 562l129 153l25 -21l-132 -151z" />
    <glyph glyph-name="uni0394" unicode="&#x394;" horiz-adv-x="416" 
d="M9 0l197 733l200 -733h-397zM206 531l-120 -470h241z" />
    <glyph glyph-name="uni0394" unicode="&#x2206;" horiz-adv-x="416" 
d="M9 0l197 733l200 -733h-397zM206 531l-120 -470h241z" />
    <glyph glyph-name="uni03A9" unicode="&#x3a9;" horiz-adv-x="443" 
d="M247 0v69q37 21 60.5 63t23.5 115v273q0 30 -8.5 49t-23.5 30.5t-35 16t-43 4.5t-43.5 -4.5t-35.5 -16t-23.5 -30.5t-8.5 -49v-273q0 -73 23 -115t61 -63v-69h-156v61h102q-54 29 -77 82t-23 128v247q0 46 14.5 77.5t39 50t57.5 26.5t70 8t69.5 -8t57.5 -26.5t39.5 -50
t14.5 -77.5v-247q0 -75 -22 -128t-79 -82h103v-61h-157z" />
    <glyph glyph-name="uni03A9" unicode="&#x2126;" horiz-adv-x="443" 
d="M247 0v69q37 21 60.5 63t23.5 115v273q0 30 -8.5 49t-23.5 30.5t-35 16t-43 4.5t-43.5 -4.5t-35.5 -16t-23.5 -30.5t-8.5 -49v-273q0 -73 23 -115t61 -63v-69h-156v61h102q-54 29 -77 82t-23 128v247q0 46 14.5 77.5t39 50t57.5 26.5t70 8t69.5 -8t57.5 -26.5t39.5 -50
t14.5 -77.5v-247q0 -75 -22 -128t-79 -82h103v-61h-157z" />
    <glyph glyph-name="pi" unicode="&#x3c0;" horiz-adv-x="418" 
d="M310 0v430h-203v-430h-67v492h337v-492h-67z" />
    <glyph glyph-name="Wgrave" unicode="&#x1e80;" horiz-adv-x="648" 
d="M543 664h69v-427q0 -56 -13.5 -95.5t-36 -68.5t-52 -50t-60.5 -39q-43 26 -77.5 60.5t-49.5 85.5q-12 -50 -48 -85t-79 -61q-31 18 -60 39t-51.5 50.5t-36.5 69t-14 94.5v427h72v-427q0 -36 7.5 -64t20 -49t29 -36.5t34.5 -27.5q19 12 36 27t29.5 36t20 48.5t7.5 65.5
v427h67v-427q0 -37 7.5 -64.5t20.5 -48.5t30 -36.5t36 -27.5q20 12 37 27.5t29 36.5t19 49t7 64v427zM193 824v58l222 -137v-39z" />
    <glyph glyph-name="wgrave" unicode="&#x1e81;" horiz-adv-x="581" 
d="M484 492h65v-283q0 -51 -12 -88.5t-32 -65t-46 -47.5t-54 -36q-43 21 -73 52.5t-42 73.5q-12 -42 -42 -74t-72 -52q-28 16 -54 36t-46 47.5t-32 65t-12 88.5v283h65v-294q0 -64 23 -98.5t57 -56.5q15 10 30 22.5t26 30.5t18 42.5t7 59.5v294h65v-278q0 -40 6 -67.5
t17 -46.5t26 -32.5t32 -24.5q15 10 29.5 23t25.5 31.5t18 43t7 57.5v294zM159 652v58l222 -137v-39z" />
    <glyph glyph-name="Wacute" unicode="&#x1e82;" horiz-adv-x="648" 
d="M543 664h69v-427q0 -56 -13.5 -95.5t-36 -68.5t-52 -50t-60.5 -39q-43 26 -77.5 60.5t-49.5 85.5q-12 -50 -48 -85t-79 -61q-31 18 -60 39t-51.5 50.5t-36.5 69t-14 94.5v427h72v-427q0 -36 7.5 -64t20 -49t29 -36.5t34.5 -27.5q19 12 36 27t29.5 36t20 48.5t7.5 65.5
v427h67v-427q0 -37 7.5 -64.5t20.5 -48.5t30 -36.5t36 -27.5q20 12 37 27.5t29 36.5t19 49t7 64v427zM233 706v39l222 137v-58z" />
    <glyph glyph-name="wacute" unicode="&#x1e83;" horiz-adv-x="581" 
d="M484 492h65v-283q0 -51 -12 -88.5t-32 -65t-46 -47.5t-54 -36q-43 21 -73 52.5t-42 73.5q-12 -42 -42 -74t-72 -52q-28 16 -54 36t-46 47.5t-32 65t-12 88.5v283h65v-294q0 -64 23 -98.5t57 -56.5q15 10 30 22.5t26 30.5t18 42.5t7 59.5v294h65v-278q0 -40 6 -67.5
t17 -46.5t26 -32.5t32 -24.5q15 10 29.5 23t25.5 31.5t18 43t7 57.5v294zM199 534v39l222 137v-58z" />
    <glyph glyph-name="Wdieresis" unicode="&#x1e84;" horiz-adv-x="648" 
d="M543 664h69v-427q0 -56 -13.5 -95.5t-36 -68.5t-52 -50t-60.5 -39q-43 26 -77.5 60.5t-49.5 85.5q-12 -50 -48 -85t-79 -61q-31 18 -60 39t-51.5 50.5t-36.5 69t-14 94.5v427h72v-427q0 -36 7.5 -64t20 -49t29 -36.5t34.5 -27.5q19 12 36 27t29.5 36t20 48.5t7.5 65.5
v427h67v-427q0 -37 7.5 -64.5t20.5 -48.5t30 -36.5t36 -27.5q20 12 37 27.5t29 36.5t19 49t7 64v427zM194 726v133h71v-133h-71zM381 726v133h72v-133h-72z" />
    <glyph glyph-name="wdieresis" unicode="&#x1e85;" horiz-adv-x="581" 
d="M484 492h65v-283q0 -51 -12 -88.5t-32 -65t-46 -47.5t-54 -36q-43 21 -73 52.5t-42 73.5q-12 -42 -42 -74t-72 -52q-28 16 -54 36t-46 47.5t-32 65t-12 88.5v283h65v-294q0 -64 23 -98.5t57 -56.5q15 10 30 22.5t26 30.5t18 42.5t7 59.5v294h65v-278q0 -40 6 -67.5
t17 -46.5t26 -32.5t32 -24.5q15 10 29.5 23t25.5 31.5t18 43t7 57.5v294zM161 554v133h71v-133h-71zM348 554v133h72v-133h-72z" />
    <glyph glyph-name="Ygrave" unicode="&#x1ef2;" horiz-adv-x="417" 
d="M174 0v234q-29 17 -56 38t-47 49t-32 64.5t-12 84.5v194h72v-201q0 -38 9.5 -65t24.5 -47t35 -34.5t41 -26.5q21 12 41 26.5t35.5 35t24.5 47.5t9 64v201h70v-194q0 -48 -11.5 -84.5t-31.5 -64.5t-46 -49t-55 -38v-234h-71zM77 824v58l222 -137v-39z" />
    <glyph glyph-name="ygrave" unicode="&#x1ef3;" horiz-adv-x="402" 
d="M301 27q-18 -12 -46.5 -21.5t-73.5 -9.5q-30 0 -56.5 6.5t-46.5 24t-32 47.5t-12 78v340h65v-338q0 -57 26.5 -76.5t68.5 -19.5q39 0 65 9.5t42 20.5v404h65v-587q0 -43 -12.5 -72t-35 -46.5t-53 -25t-65.5 -7.5q-33 0 -61.5 7.5t-49.5 25t-32.5 46.5t-11.5 72v39h61v-39
q0 -50 26.5 -70t67.5 -20q45 0 73 19.5t28 70.5v122zM70 652v58l222 -137v-39z" />
    <glyph glyph-name="endash" unicode="&#x2013;" horiz-adv-x="478" 
d="M45 284v52h388v-52h-388z" />
    <glyph glyph-name="emdash" unicode="&#x2014;" horiz-adv-x="608" 
d="M22 284v52h564v-52h-564z" />
    <glyph glyph-name="quoteleft" unicode="&#x2018;" horiz-adv-x="176" 
d="M133 388q-17 1 -31 13t-25 30.5t-18 42t-8 47.5l-10 151h73z" />
    <glyph glyph-name="quoteright" unicode="&#x2019;" horiz-adv-x="176" 
d="M60 672h73l-10 -151q-2 -24 -8.5 -47.5t-17 -42t-25 -30.5t-31.5 -13z" />
    <glyph glyph-name="quotesinglbase" unicode="&#x201a;" horiz-adv-x="176" 
d="M59 151h73l-9 -151q-2 -24 -8.5 -47.5t-17 -42t-25 -30t-31.5 -12.5z" />
    <glyph glyph-name="quotedblleft" unicode="&#x201c;" horiz-adv-x="352" 
d="M133 388q-17 1 -31 13t-25 30.5t-18 42t-8 47.5l-10 151h73zM309 388q-17 1 -31 13t-25 30.5t-18 42t-8 47.5l-10 151h73z" />
    <glyph glyph-name="quotedblright" unicode="&#x201d;" horiz-adv-x="352" 
d="M60 672h73l-10 -151q-2 -24 -8.5 -47.5t-17 -42t-25 -30.5t-31.5 -13zM236 672h73l-10 -151q-2 -24 -8.5 -47.5t-17 -42t-25 -30.5t-31.5 -13z" />
    <glyph glyph-name="quotedblbase" unicode="&#x201e;" horiz-adv-x="352" 
d="M59 151h73l-9 -151q-2 -24 -8.5 -47.5t-17 -42t-25 -30t-31.5 -12.5zM235 151h73l-9 -151q-2 -24 -8.5 -47.5t-17 -42t-25 -30t-31.5 -12.5z" />
    <glyph glyph-name="dagger" unicode="&#x2020;" horiz-adv-x="339" 
d="M144 0v468h-104v47h104v149h58v-149h95v-47h-95v-468h-58z" />
    <glyph glyph-name="daggerdbl" unicode="&#x2021;" horiz-adv-x="339" 
d="M144 0v149h-104v46h104v273h-104v47h104v149h58v-149h95v-47h-95v-273h95v-46h-95v-149h-58z" />
    <glyph glyph-name="bullet" unicode="&#x2022;" horiz-adv-x="369" 
d="M317 343q0 -25 -10.5 -46.5t-28.5 -37t-42 -24.5t-51 -9q-29 0 -53.5 9t-42.5 24.5t-28 37t-10 46.5t10 46.5t28 37.5t42.5 24.5t53.5 8.5q28 0 52 -8.5t42 -24.5t28 -37.5t10 -46.5z" />
    <glyph glyph-name="ellipsis" unicode="&#x2026;" horiz-adv-x="1025" 
d="M66 0v151h73v-151h-73zM476 0v151h73v-151h-73zM886 0v151h73v-151h-73z" />
    <glyph glyph-name="perthousand" unicode="&#x2030;" horiz-adv-x="698" 
d="M59 602q0 23 7.5 38.5t20 25t29 13.5t34.5 4q19 0 35.5 -4t29 -13.5t20 -25t7.5 -38.5v-187q0 -23 -7.5 -38.5t-20 -25t-29 -13.5t-35.5 -4q-18 0 -34.5 4t-29 13.5t-20 25t-7.5 38.5v187zM196 602q0 26 -10.5 34.5t-35.5 8.5q-24 0 -35 -8.5t-11 -34.5v-187
q0 -25 11 -33t35 -8q25 0 35.5 8t10.5 33v187zM33 -20l394 704h50l-395 -704h-49zM273 249q0 23 7.5 38.5t20 25t29 13.5t34.5 4q19 0 35.5 -4t29 -13.5t20 -25t7.5 -38.5v-187q0 -23 -7.5 -38.5t-20 -25t-29 -13.5t-35.5 -4q-18 0 -34.5 4t-29 13.5t-20 25t-7.5 38.5v187z
M410 249q0 26 -10.5 34.5t-35.5 8.5q-24 0 -35 -8.5t-11 -34.5v-187q0 -25 11 -33t35 -8q25 0 35.5 8t10.5 33v187zM480 249q0 23 7.5 38.5t20 25t29 13.5t34.5 4q19 0 35.5 -4t29 -13.5t20 -25t7.5 -38.5v-187q0 -23 -7.5 -38.5t-20 -25t-29 -13.5t-35.5 -4q-18 0 -34.5 4
t-29 13.5t-20 25t-7.5 38.5v187zM617 249q0 26 -10.5 34.5t-35.5 8.5q-24 0 -35 -8.5t-11 -34.5v-187q0 -25 11 -33t35 -8q25 0 35.5 8t10.5 33v187z" />
    <glyph glyph-name="guilsinglleft" unicode="&#x2039;" horiz-adv-x="210" 
d="M22 317l134 174l33 -37l-108 -137l108 -137l-33 -35z" />
    <glyph glyph-name="guilsinglright" unicode="&#x203a;" horiz-adv-x="210" 
d="M21 180l108 137l-108 137l33 37l134 -174l-134 -172z" />
    <glyph glyph-name="fraction" unicode="&#x2044;" horiz-adv-x="90" 
d="M-177 -20l394 704h50l-395 -704h-49z" />
    <glyph glyph-name="uni2070" unicode="&#x2070;" horiz-adv-x="247" 
d="M32 602q0 23 7.5 38.5t20 25t29 13.5t34.5 4q19 0 35.5 -4t29 -13.5t20 -25t7.5 -38.5v-187q0 -23 -7.5 -38.5t-20 -25t-29 -13.5t-35.5 -4q-18 0 -34.5 4t-29 13.5t-20 25t-7.5 38.5v187zM169 602q0 26 -10.5 34.5t-35.5 8.5q-24 0 -35 -8.5t-11 -34.5v-187
q0 -25 11 -33t35 -8q25 0 35.5 8t10.5 33v187z" />
    <glyph glyph-name="uni2074" unicode="&#x2074;" horiz-adv-x="235" 
d="M155 343v66h-128v43l103 223h43l-101 -227h84v78h42v-183h-43z" />
    <glyph glyph-name="uni2075" unicode="&#x2075;" horiz-adv-x="240" 
d="M207 415q0 -47 -23.5 -64t-64.5 -17q-40 0 -63 17t-23 64v30h40v-26q0 -28 11.5 -36.5t34.5 -8.5t32.5 8.5t9.5 36.5v42q0 23 -9 33.5t-31 10.5q-23 0 -31.5 -4t-13.5 -11h-38l10 185h149v-38h-107l-7 -111q19 16 49 16q42 0 58.5 -20.5t16.5 -59.5v-47z" />
    <glyph glyph-name="uni2076" unicode="&#x2076;" horiz-adv-x="247" 
d="M215 412q0 -44 -25.5 -61t-62.5 -17q-18 0 -35.5 4t-30.5 13t-21 24t-8 37v189q0 48 25 65t67 17q41 0 64 -17.5t23 -64.5v-19h-44v19q0 27 -9.5 35.5t-33.5 8.5t-35.5 -8.5t-11.5 -35.5v-72q6 8 21 16.5t40 8.5q15 0 29 -3.5t24.5 -12.5t17 -24.5t6.5 -40.5v-61z
M170 466q0 27 -11 38.5t-35 11.5q-37 0 -47 -33v-71q0 -23 11 -30.5t35 -7.5q21 0 34 7.5t13 30.5v54z" />
    <glyph glyph-name="uni2077" unicode="&#x2077;" horiz-adv-x="219" 
d="M70 343q0 43 6 85.5t16.5 81.5t24.5 71t29 54h-121v40h165v-34q-32 -51 -53 -129.5t-23 -168.5h-44z" />
    <glyph glyph-name="uni2078" unicode="&#x2078;" horiz-adv-x="245" 
d="M214 415q0 -45 -25 -63t-67 -18t-66.5 18t-24.5 63v36q0 23 11 39.5t35 21.5q-24 5 -34 23.5t-10 39.5v27q0 47 23.5 64t65.5 17t65.5 -17t23.5 -64v-27q0 -21 -10 -39.5t-33 -23.5q23 -5 34.5 -21.5t11.5 -39.5v-36zM168 451q0 26 -10 34.5t-36 8.5t-36 -8.5t-10 -34.5
v-36q0 -25 11.5 -33t34.5 -8q24 0 35 8t11 33v36zM167 601q0 27 -10.5 35.5t-34.5 8.5q-23 0 -34 -8.5t-11 -35.5v-26q0 -25 10 -35t35 -10t35 10t10 35v26z" />
    <glyph glyph-name="uni2079" unicode="&#x2079;" horiz-adv-x="245" 
d="M168 492q-6 -8 -21 -16t-40 -8q-15 0 -29 3.5t-24.5 12.5t-17 24.5t-6.5 39.5v57q0 44 25.5 61t62.5 17q18 0 35.5 -4t30.5 -13t21 -24t8 -37v-189q0 -48 -25 -65t-67 -17q-41 0 -64 17.5t-23 64.5v24h44v-24q0 -26 9.5 -34t33.5 -8t35.5 8t11.5 34v76zM168 605
q0 24 -11 32t-35 8q-21 0 -34 -8t-13 -32v-50q0 -50 46 -50q36 0 47 33v67z" />
    <glyph glyph-name="uni2080" unicode="&#x2080;" horiz-adv-x="247" 
d="M32 249q0 23 7.5 38.5t20 25t29 13.5t34.5 4q19 0 35.5 -4t29 -13.5t20 -25t7.5 -38.5v-187q0 -23 -7.5 -38.5t-20 -25t-29 -13.5t-35.5 -4q-18 0 -34.5 4t-29 13.5t-20 25t-7.5 38.5v187zM169 249q0 26 -10.5 34.5t-35.5 8.5q-24 0 -35 -8.5t-11 -34.5v-187
q0 -25 11 -33t35 -8q25 0 35.5 8t10.5 33v187z" />
    <glyph glyph-name="uni2081" unicode="&#x2081;" horiz-adv-x="164" 
d="M84 -10v253q0 23 -12.5 32t-32.5 9q-9 0 -11 -1v42q2 0 5 0.5t7 0.5q37 0 63.5 -17.5t26.5 -63.5v-255h-46z" />
    <glyph glyph-name="uni2082" unicode="&#x2082;" horiz-adv-x="238" 
d="M33 -10v84q0 24 3 40.5t11.5 28t23.5 20t39 16.5q17 6 27.5 9.5t16 9.5t7 16t1.5 28q0 32 -7.5 41t-34.5 9q-28 0 -36 -7t-8 -24v-30h-39v31q0 40 23.5 54t57.5 14q51 0 68.5 -20.5t17.5 -66.5q0 -22 -3 -37.5t-10.5 -26.5t-22 -19t-36.5 -15q-18 -6 -28.5 -11t-16 -12
t-7 -17t-1.5 -25v-51h123v-39h-169z" />
    <glyph glyph-name="uni2083" unicode="&#x2083;" horiz-adv-x="234" 
d="M203 62q0 -45 -23.5 -63t-65.5 -18t-63.5 16.5t-21.5 64.5v30h41v-26q0 -28 10 -36.5t34 -8.5q23 0 33.5 8t10.5 33v36q0 26 -9 34.5t-31 8.5h-27v36h27q21 0 30 10t9 35v26q0 27 -10 35.5t-33 8.5q-24 0 -34 -9t-10 -39v-24h-41v29q0 48 21.5 64.5t63.5 16.5t64.5 -17
t22.5 -64v-27q0 -21 -10 -39.5t-34 -23.5q24 -5 35 -21.5t11 -39.5v-36z" />
    <glyph glyph-name="uni2084" unicode="&#x2084;" horiz-adv-x="235" 
d="M155 -10v66h-128v43l103 223h43l-101 -227h84v78h42v-183h-43z" />
    <glyph glyph-name="uni2085" unicode="&#x2085;" horiz-adv-x="240" 
d="M207 62q0 -47 -23.5 -64t-64.5 -17q-40 0 -63 17t-23 64v30h40v-26q0 -28 11.5 -36.5t34.5 -8.5t32.5 8.5t9.5 36.5v42q0 23 -9 33.5t-31 10.5q-23 0 -31.5 -4t-13.5 -11h-38l10 185h149v-38h-107l-7 -111q19 16 49 16q42 0 58.5 -20.5t16.5 -59.5v-47z" />
    <glyph glyph-name="uni2086" unicode="&#x2086;" horiz-adv-x="247" 
d="M215 59q0 -44 -25.5 -61t-62.5 -17q-18 0 -35.5 4t-30.5 13t-21 24t-8 37v189q0 48 25 65t67 17q41 0 64 -17.5t23 -64.5v-19h-44v19q0 27 -9.5 35.5t-33.5 8.5t-35.5 -8.5t-11.5 -35.5v-72q6 8 21 16.5t40 8.5q15 0 29 -3.5t24.5 -12.5t17 -24.5t6.5 -40.5v-61zM170 113
q0 27 -11 38.5t-35 11.5q-37 0 -47 -33v-71q0 -23 11 -30.5t35 -7.5q21 0 34 7.5t13 30.5v54z" />
    <glyph glyph-name="uni2087" unicode="&#x2087;" horiz-adv-x="219" 
d="M70 -10q0 43 6 85.5t16.5 81.5t24.5 71t29 54h-121v40h165v-34q-32 -51 -53 -129.5t-23 -168.5h-44z" />
    <glyph glyph-name="uni2088" unicode="&#x2088;" horiz-adv-x="245" 
d="M214 62q0 -45 -25 -63t-67 -18t-66.5 18t-24.5 63v36q0 23 11 39.5t35 21.5q-24 5 -34 23.5t-10 39.5v27q0 47 23.5 64t65.5 17t65.5 -17t23.5 -64v-27q0 -21 -10 -39.5t-33 -23.5q23 -5 34.5 -21.5t11.5 -39.5v-36zM168 98q0 26 -10 34.5t-36 8.5t-36 -8.5t-10 -34.5
v-36q0 -25 11.5 -33t34.5 -8q24 0 35 8t11 33v36zM167 248q0 27 -10.5 35.5t-34.5 8.5q-23 0 -34 -8.5t-11 -35.5v-26q0 -25 10 -35t35 -10t35 10t10 35v26z" />
    <glyph glyph-name="uni2089" unicode="&#x2089;" horiz-adv-x="245" 
d="M168 139q-6 -8 -21 -16t-40 -8q-15 0 -29 3.5t-24.5 12.5t-17 24.5t-6.5 39.5v57q0 44 25.5 61t62.5 17q18 0 35.5 -4t30.5 -13t21 -24t8 -37v-189q0 -48 -25 -65t-67 -17q-41 0 -64 17.5t-23 64.5v24h44v-24q0 -26 9.5 -34t33.5 -8t35.5 8t11.5 34v76zM168 252
q0 24 -11 32t-35 8q-21 0 -34 -8t-13 -32v-50q0 -50 46 -50q36 0 47 33v67z" />
    <glyph glyph-name="Euro" unicode="&#x20ac;" horiz-adv-x="357" 
d="M323 -9q-26 -8 -82 -8q-38 0 -71 8t-57 26.5t-38 49.5t-14 78v105h-38l5 40h33v90h-38l5 39h33v99q0 46 14 77.5t38 50t57 26.5t71 8q36 0 74 -9l-10 -59q-17 5 -32.5 6.5t-31.5 1.5q-24 0 -44 -5t-34.5 -16.5t-23 -31t-8.5 -47.5v-101h148l-7 -39h-141v-90h129l-6 -40
h-123v-105q0 -57 31 -79t79 -22q26 0 45.5 2.5t36.5 7.5v-63z" />
    <glyph glyph-name="trademark" unicode="&#x2122;" horiz-adv-x="549" 
d="M94 353v285h-61v34h161v-34h-60v-285h-40zM469 353v243q0 45 -44 45q-25 0 -39 -11v-277h-38v276q-6 6 -18.5 9t-23.5 3q-14 0 -23 -2t-17 -5v-281h-40v313q11 5 30.5 9.5t47.5 4.5q37 0 60 -18q18 18 62 18q36 0 60 -19t24 -61v-247h-41z" />
    <glyph glyph-name="onethird" unicode="&#x2153;" horiz-adv-x="529" 
d="M124 343v253q0 23 -12.5 32t-32.5 9q-9 0 -11 -1v42q2 0 5 0.5t7 0.5q37 0 63.5 -17.5t26.5 -63.5v-255h-46zM32 -20l394 704h50l-395 -704h-49zM494 62q0 -45 -23.5 -63t-65.5 -18t-63.5 16.5t-21.5 64.5v30h41v-26q0 -28 10 -36.5t34 -8.5q23 0 33.5 8t10.5 33v36
q0 26 -9 34.5t-31 8.5h-27v36h27q21 0 30 10t9 35v26q0 27 -10 35.5t-33 8.5q-24 0 -34 -9t-10 -39v-24h-41v29q0 48 21.5 64.5t63.5 16.5t64.5 -17t22.5 -64v-27q0 -21 -10 -39.5t-34 -23.5q24 -5 35 -21.5t11 -39.5v-36z" />
    <glyph glyph-name="twothirds" unicode="&#x2154;" horiz-adv-x="519" 
d="M39 343v84q0 24 3 40.5t11.5 28t23.5 20t39 16.5q17 6 27.5 9.5t16 9.5t7 16t1.5 28q0 32 -7.5 41t-34.5 9q-28 0 -36 -7t-8 -24v-30h-39v31q0 40 23.5 54t57.5 14q51 0 68.5 -20.5t17.5 -66.5q0 -22 -3 -37.5t-10.5 -26.5t-22 -19t-36.5 -15q-18 -6 -28.5 -11t-16 -12
t-7 -17t-1.5 -25v-51h123v-39h-169zM32 -20l394 704h50l-395 -704h-49zM484 62q0 -45 -23.5 -63t-65.5 -18t-63.5 16.5t-21.5 64.5v30h41v-26q0 -28 10 -36.5t34 -8.5q23 0 33.5 8t10.5 33v36q0 26 -9 34.5t-31 8.5h-27v36h27q21 0 30 10t9 35v26q0 27 -10 35.5t-33 8.5
q-24 0 -34 -9t-10 -39v-24h-41v29q0 48 21.5 64.5t63.5 16.5t64.5 -17t22.5 -64v-27q0 -21 -10 -39.5t-34 -23.5q24 -5 35 -21.5t11 -39.5v-36z" />
    <glyph glyph-name="oneeighth" unicode="&#x215b;" horiz-adv-x="540" 
d="M124 343v253q0 23 -12.5 32t-32.5 9q-9 0 -11 -1v42q2 0 5 0.5t7 0.5q37 0 63.5 -17.5t26.5 -63.5v-255h-46zM31 -20l394 704h50l-395 -704h-49zM505 62q0 -45 -25 -63t-67 -18t-66.5 18t-24.5 63v36q0 23 11 39.5t35 21.5q-24 5 -34 23.5t-10 39.5v27q0 47 23.5 64
t65.5 17t65.5 -17t23.5 -64v-27q0 -21 -10 -39.5t-33 -23.5q23 -5 34.5 -21.5t11.5 -39.5v-36zM459 98q0 26 -10 34.5t-36 8.5t-36 -8.5t-10 -34.5v-36q0 -25 11.5 -33t34.5 -8q24 0 35 8t11 33v36zM458 248q0 27 -10.5 35.5t-34.5 8.5q-23 0 -34 -8.5t-11 -35.5v-26
q0 -25 10 -35t35 -10t35 10t10 35v26z" />
    <glyph glyph-name="threeeighths" unicode="&#x215c;" horiz-adv-x="520" 
d="M223 415q0 -45 -23.5 -63t-65.5 -18t-63.5 16.5t-21.5 64.5v30h41v-26q0 -28 10 -36.5t34 -8.5q23 0 33.5 8t10.5 33v36q0 26 -9 34.5t-31 8.5h-27v36h27q21 0 30 10t9 35v26q0 27 -10 35.5t-33 8.5q-24 0 -34 -9t-10 -39v-24h-41v29q0 48 21.5 64.5t63.5 16.5t64.5 -17
t22.5 -64v-27q0 -21 -10 -39.5t-34 -23.5q24 -5 35 -21.5t11 -39.5v-36zM35 -20l394 704h50l-395 -704h-49zM485 62q0 -45 -25 -63t-67 -18t-66.5 18t-24.5 63v36q0 23 11 39.5t35 21.5q-24 5 -34 23.5t-10 39.5v27q0 47 23.5 64t65.5 17t65.5 -17t23.5 -64v-27
q0 -21 -10 -39.5t-33 -23.5q23 -5 34.5 -21.5t11.5 -39.5v-36zM439 98q0 26 -10 34.5t-36 8.5t-36 -8.5t-10 -34.5v-36q0 -25 11.5 -33t34.5 -8q24 0 35 8t11 33v36zM438 248q0 27 -10.5 35.5t-34.5 8.5q-23 0 -34 -8.5t-11 -35.5v-26q0 -25 10 -35t35 -10t35 10t10 35v26z
" />
    <glyph glyph-name="fiveeighths" unicode="&#x215d;" horiz-adv-x="520" 
d="M221 415q0 -47 -23.5 -64t-64.5 -17q-40 0 -63 17t-23 64v30h40v-26q0 -28 11.5 -36.5t34.5 -8.5t32.5 8.5t9.5 36.5v42q0 23 -9 33.5t-31 10.5q-23 0 -31.5 -4t-13.5 -11h-38l10 185h149v-38h-107l-7 -111q19 16 49 16q42 0 58.5 -20.5t16.5 -59.5v-47zM36 -20l394 704
h50l-395 -704h-49zM485 62q0 -45 -25 -63t-67 -18t-66.5 18t-24.5 63v36q0 23 11 39.5t35 21.5q-24 5 -34 23.5t-10 39.5v27q0 47 23.5 64t65.5 17t65.5 -17t23.5 -64v-27q0 -21 -10 -39.5t-33 -23.5q23 -5 34.5 -21.5t11.5 -39.5v-36zM439 98q0 26 -10 34.5t-36 8.5
t-36 -8.5t-10 -34.5v-36q0 -25 11.5 -33t34.5 -8q24 0 35 8t11 33v36zM438 248q0 27 -10.5 35.5t-34.5 8.5q-23 0 -34 -8.5t-11 -35.5v-26q0 -25 10 -35t35 -10t35 10t10 35v26z" />
    <glyph glyph-name="seveneighths" unicode="&#x215e;" horiz-adv-x="530" 
d="M115 343q0 43 6 85.5t16.5 81.5t24.5 71t29 54h-121v40h165v-34q-32 -51 -53 -129.5t-23 -168.5h-44zM32 -20l394 704h50l-395 -704h-49zM495 62q0 -45 -25 -63t-67 -18t-66.5 18t-24.5 63v36q0 23 11 39.5t35 21.5q-24 5 -34 23.5t-10 39.5v27q0 47 23.5 64t65.5 17
t65.5 -17t23.5 -64v-27q0 -21 -10 -39.5t-33 -23.5q23 -5 34.5 -21.5t11.5 -39.5v-36zM449 98q0 26 -10 34.5t-36 8.5t-36 -8.5t-10 -34.5v-36q0 -25 11.5 -33t34.5 -8q24 0 35 8t11 33v36zM448 248q0 27 -10.5 35.5t-34.5 8.5q-23 0 -34 -8.5t-11 -35.5v-26q0 -25 10 -35
t35 -10t35 10t10 35v26z" />
    <glyph glyph-name="partialdiff" unicode="&#x2202;" horiz-adv-x="461" 
d="M188 675q28 5 45 5q38 0 73.5 -15.5t62.5 -49t43.5 -86t16.5 -125.5q0 -83 -10.5 -159t-35.5 -134t-67.5 -93t-105.5 -35q-50 0 -84 15t-55 42.5t-30 67.5t-9 91q0 55 13.5 99t37.5 74t58 46t75 16q24 0 48.5 -7t45.5 -23.5t36.5 -44.5t20.5 -71q4 25 5.5 52t1.5 55
q0 45 -7.5 85t-25 70.5t-46 48.5t-71.5 18q-9 0 -18 -1t-18 -4v63zM352 209q-7 87 -40.5 124.5t-91.5 37.5q-61 0 -95.5 -44t-34.5 -129q0 -75 28.5 -114t91.5 -39q58 0 92.5 41.5t49.5 122.5z" />
    <glyph glyph-name="product" unicode="&#x220f;" horiz-adv-x="457" 
d="M351 -233v844h-247v-844h-64v897h375v-897h-64z" />
    <glyph glyph-name="summation" unicode="&#x2211;" horiz-adv-x="429" 
d="M44 -182v45l214 378l-214 377v46h341v-61h-269l199 -362l-199 -363h269v-60h-341z" />
    <glyph glyph-name="minus" unicode="&#x2212;" horiz-adv-x="548" 
d="M46 318v53h454v-53h-454z" />
    <glyph glyph-name="radical" unicode="&#x221a;" horiz-adv-x="510" 
d="M218 0l-113 320h-79v46h135l86 -273l183 571h67l-220 -664h-59z" />
    <glyph glyph-name="infinity" unicode="&#x221e;" horiz-adv-x="579" 
d="M290 289q-20 -60 -54 -87t-89 -27q-57 0 -96.5 41.5t-39.5 123.5q0 83 39.5 124.5t96.5 41.5q55 0 88 -28t55 -88q20 60 52.5 88t89.5 28t96.5 -42t39.5 -124t-39.5 -123.5t-96.5 -41.5t-90 27t-52 87zM312 338q14 -57 40 -83.5t71 -26.5t70.5 27.5t25.5 84.5
q0 54 -26.5 82.5t-69.5 28.5t-68.5 -26.5t-42.5 -86.5zM268 338q-20 58 -45 85.5t-67 27.5q-45 0 -70.5 -28.5t-25.5 -82.5q0 -57 25.5 -84.5t70.5 -27.5q42 0 68.5 27.5t43.5 82.5z" />
    <glyph glyph-name="integral" unicode="&#x222b;" horiz-adv-x="372" 
d="M10 -233v62h26q23 0 43 6t35 19.5t23.5 35t8.5 53.5v552q0 94 51.5 135.5t138.5 41.5h26v-63h-26q-23 0 -43 -6t-35 -19.5t-24 -35.5t-9 -53v-552q0 -94 -51.5 -135t-137.5 -41h-26z" />
    <glyph glyph-name="approxequal" unicode="&#x2248;" horiz-adv-x="576" 
d="M528 222q-29 -35 -63 -51t-79 -16q-29 0 -55 10t-51 22.5t-50.5 22.5t-53.5 10q-42 0 -72 -19t-58 -56v60q21 26 51.5 46.5t75.5 20.5q34 0 62 -10t53.5 -21.5t50 -21.5t50.5 -10q42 0 75 16t64 56v-59zM529 421q-29 -35 -63 -51t-79 -16q-29 0 -55 10t-51 22.5
t-50.5 22.5t-53.5 10q-42 0 -72 -19t-58 -56v60q21 26 51.5 46.5t75.5 20.5q34 0 62 -10t53.5 -21.5t50 -21.5t50.5 -10q42 0 75 16t64 56v-59z" />
    <glyph glyph-name="notequal" unicode="&#x2260;" horiz-adv-x="526" 
d="M206 215l-155 -235h-39l154 235h-127v54h162l97 148h-259v53h294l140 214h41l-141 -214h114v-53h-149l-97 -148h246v-54h-281z" />
    <glyph glyph-name="lessequal" unicode="&#x2264;" horiz-adv-x="548" 
d="M46 316v53l454 221v-60l-394 -187l394 -188v-59zM47 19v53h454v-53h-454z" />
    <glyph glyph-name="greaterequal" unicode="&#x2265;" horiz-adv-x="548" 
d="M46 96v59l394 188l-394 187v60l454 -221v-53zM47 19v53h454v-53h-454z" />
    <glyph glyph-name="lozenge" unicode="&#x25ca;" horiz-adv-x="515" 
d="M224 0l-191 332l191 332h76l181 -332l-181 -332h-76zM408 332l-147 262l-153 -262l153 -263z" />
    <glyph glyph-name="uniF8FF" unicode="&#xf8ff;" horiz-adv-x="187" 
 />
    <glyph glyph-name="glyph398" horiz-adv-x="0" 
 />
    </font>
</defs>
</svg>
