<?xml version="1.0" standalone="no"?>
<!DOCTYPE svg PUBLIC "-//W3C//DTD SVG 1.1//EN" "http://www.w3.org/Graphics/SVG/1.1/DTD/svg11.dtd" >
<svg>
<metadata>
Created by FontForge 20120731 at Sat Jul 22 22:58:21 2023
 By www
Copyright (c) 2009 Typodermic Fonts. This font is not freely distributable. Visit typodermic.com for more information.
</metadata>
<defs>
<font id="MaquiW00-BoldItalic" horiz-adv-x="439" >
  <font-face 
    font-family="MaquiW00-BoldItalic"
    font-weight="700"
    font-style="italic"
    font-stretch="normal"
    units-per-em="1000"
    panose-1="2 11 8 6 3 6 2 2 0 4"
    ascent="800"
    descent="-200"
    x-height="492"
    cap-height="664"
    bbox="-166 -246 1173 908"
    underline-thickness="50"
    underline-position="-125"
    slope="-8"
    unicode-range="U+0017-F8FF"
  />
<missing-glyph horiz-adv-x="678" 
d="M151 -241q-114 0 -114 99v799q0 100 114 100h374q116 0 116 -100v-799q0 -99 -116 -99h-374zM321 24l-187 50l-45 -167l188 -49zM336 130q4 16 13 25t20.5 15t25 9.5t26.5 7.5q29 9 50 21.5t37.5 34t29.5 54.5t27 83q8 29 12.5 55t4.5 49q0 49 -26 83t-64.5 55
t-83.5 30.5t-84 9.5q-54 0 -94 -28t-59 -97l-21 -77l175 -48l20 72q3 11 15 11t22.5 -6t10.5 -17l-24 -87q-4 -15 -12.5 -23.5t-21 -14t-27.5 -9.5t-33 -10q-48 -17 -70.5 -52t-35.5 -86l-12 -46l171 -44z" />
    <glyph glyph-name="copyright" unicode="&#x28;C&#x29;" horiz-adv-x="506" 
d="M492 145q-7 -47 -29 -78t-55 -49.5t-74 -26.5t-86 -8q-46 0 -82.5 7t-62 23.5t-39 44t-13.5 68.5v9.5t2 9.5l52 373q6 46 27 77.5t53 50t73 26.5t88 8q41 0 77.5 -6.5t63.5 -22t43 -41.5t16 -64q0 -7 -0.5 -13.5t-1.5 -14.5zM488 518q1 5 1 8.5v7.5q0 25 -12 42
t-32.5 27.5t-48 15t-58.5 4.5q-34 0 -64.5 -5t-54 -17.5t-39 -32.5t-19.5 -50l-52 -373q-1 -5 -1.5 -9.5t-0.5 -8.5q0 -26 11.5 -42.5t31.5 -27t47 -14.5t59 -4q33 0 63.5 5t55 17t40.5 32.5t21 51.5zM326 311h49l-8 -58q-6 -43 -28.5 -58.5t-57.5 -15.5q-32 0 -53.5 12.5
t-21.5 45.5v7.5t1 8.5l24 168q6 42 32.5 57.5t61.5 15.5q31 0 49 -11.5t18 -43.5v-9t-1 -9l-9 -60h-49l7 49q0 3 0.5 5.5t0.5 5.5q0 9 -5 14.5t-19 5.5q-12 0 -21 -6.5t-11 -19.5l-22 -158q0 -2 -0.5 -3t-0.5 -3q0 -11 7.5 -15.5t18.5 -4.5t20 6t11 20z" />
    <glyph glyph-name="registered" unicode="&#x28;R&#x29;" horiz-adv-x="506" 
d="M493 145q-7 -47 -29 -78t-55 -49.5t-74 -26.5t-86 -8q-46 0 -82.5 7t-62 23.5t-39.5 44t-14 68.5v9.5t2 9.5l52 373q6 46 27 77.5t53.5 50t73.5 26.5t88 8q41 0 77.5 -6.5t63.5 -22t43 -41.5t16 -64q0 -7 -0.5 -13.5t-1.5 -14.5zM488 518q1 5 1 8.5v8.5q0 25 -12 41.5
t-32.5 27t-47.5 15t-58 4.5q-34 0 -64.5 -5t-54 -17.5t-39 -32.5t-19.5 -50l-52 -373q-1 -5 -1.5 -9.5t-0.5 -8.5q0 -26 11 -42.5t31 -26.5t47.5 -14t59.5 -4q33 0 63.5 5t55 17t40.5 32.5t20 50.5zM312 357q11 0 17.5 8t9.5 18t4 20t1 13q0 25 -17 25h-37l-11 -84h33z
M311 187l14 107q0 7 -3.5 14t-16.5 7h-32l-18 -128h-53l42 300h108q27 0 36.5 -15.5t9.5 -36.5q0 -7 -1.5 -21.5t-6.5 -29.5t-14.5 -28t-25.5 -17q17 -4 23 -16.5t6 -27.5q0 -12 -1 -17l-13 -91h-54z" />
    <glyph glyph-name="uni2117" unicode="&#x28;P&#x29;" horiz-adv-x="506" 
d="M493 145q-7 -47 -29 -78t-55 -49.5t-74 -26.5t-86 -8q-46 0 -82.5 7t-62 23.5t-39.5 44t-14 68.5v9.5t2 9.5l52 373q6 46 27 77.5t53.5 50t73.5 26.5t88 8q41 0 77.5 -6.5t63.5 -22t43 -41.5t16 -64q0 -7 -0.5 -13.5t-1.5 -14.5zM488 518q1 5 1 8.5v8.5q0 25 -12 41.5
t-32.5 27t-47.5 15t-58 4.5q-34 0 -64.5 -5t-54 -17.5t-39 -32.5t-19.5 -50l-52 -373q-1 -5 -1.5 -9.5t-0.5 -8.5q0 -26 11 -42.5t31 -26.5t47.5 -14t59.5 -4q33 0 63.5 5t55 17t40.5 32.5t20 50.5zM202 187l42 300h98q32 0 45 -13.5t13 -43.5q0 -17 -3 -38
q-8 -51 -24 -73.5t-58 -22.5h-43l-15 -109h-55zM312 340q17 0 25.5 21t8.5 55q0 25 -20 25h-34l-14 -101h34z" />
    <glyph glyph-name=".notdef" horiz-adv-x="678" 
d="M151 -241q-114 0 -114 99v799q0 100 114 100h374q116 0 116 -100v-799q0 -99 -116 -99h-374zM321 24l-187 50l-45 -167l188 -49zM336 130q4 16 13 25t20.5 15t25 9.5t26.5 7.5q29 9 50 21.5t37.5 34t29.5 54.5t27 83q8 29 12.5 55t4.5 49q0 49 -26 83t-64.5 55
t-83.5 30.5t-84 9.5q-54 0 -94 -28t-59 -97l-21 -77l175 -48l20 72q3 11 15 11t22.5 -6t10.5 -17l-24 -87q-4 -15 -12.5 -23.5t-21 -14t-27.5 -9.5t-33 -10q-48 -17 -70.5 -52t-35.5 -86l-12 -46l171 -44z" />
    <glyph glyph-name=".null" horiz-adv-x="0" 
 />
    <glyph glyph-name="nonmarkingreturn" horiz-adv-x="333" 
 />
    <glyph glyph-name="glyph397" horiz-adv-x="0" 
 />
    <glyph glyph-name="glyph397" horiz-adv-x="0" 
 />
    <glyph glyph-name="uni0017" horiz-adv-x="193" 
 />
    <glyph glyph-name="space" unicode=" " horiz-adv-x="193" 
 />
    <glyph glyph-name="exclam" unicode="!" horiz-adv-x="227" 
d="M56 0l20 146h115l-20 -146h-115zM110 198q0 61 1 113.5t4 101.5t7.5 97t11.5 99q2 17 5.5 31t7.5 24h120q0 -3 0.5 -6.5t0.5 -6.5q0 -9 -1 -19.5t-3 -22.5q-8 -51 -16.5 -99t-19.5 -97t-25 -101.5t-32 -113.5h-61z" />
    <glyph glyph-name="quotedbl" unicode="&#x22;" horiz-adv-x="336" 
d="M99 414l35 250h84l-35 -250h-84zM267 414l35 250h84l-35 -250h-84z" />
    <glyph glyph-name="numbersign" unicode="#" horiz-adv-x="509" 
d="M367 396h-97l-39 -127h97zM249 0l58 196h-96l-58 -196h-72l57 196h-89l18 73h92l38 127h-94l19 73h96l60 195h71l-59 -195h97l59 195h74l-59 -195h90l-20 -73h-91l-38 -127h95l-18 -73h-98l-58 -196h-74z" />
    <glyph glyph-name="dollar" unicode="$" horiz-adv-x="420" 
d="M168 0l10 76q-28 2 -50 8t-37 19t-23 34.5t-8 53.5v8.5t2 9.5l6 43h104l-5 -34q-1 -3 -1 -11q0 -23 15.5 -32.5t46.5 -9.5q37 0 55.5 15t18.5 57q0 22 -15.5 35.5t-38.5 24t-49.5 20t-49.5 24t-38.5 35.5t-15.5 54q0 42 12.5 71.5t33.5 49t49.5 29.5t60.5 13l10 71h87
l-10 -70q22 -2 42 -7.5t35 -16.5t24 -28.5t9 -44.5q0 -5 -0.5 -11.5t-1.5 -13.5l-5 -34h-101l4 25q0 3 0.5 5.5t0.5 5.5q0 22 -14.5 31t-43.5 9q-42 0 -58.5 -15t-16.5 -42q0 -21 15.5 -34t38.5 -22.5t50 -18t51 -20.5q32 -17 43.5 -40t11.5 -52q0 -48 -11.5 -83t-32 -58
t-49.5 -36t-64 -17l-10 -76h-87z" />
    <glyph glyph-name="percent" unicode="%" horiz-adv-x="535" 
d="M278 415q-6 -46 -37 -63.5t-69 -17.5q-36 0 -60 14t-24 51v7.5t1 8.5l26 187q7 47 36.5 64t69.5 17q35 0 59.5 -14t24.5 -51v-7.5t-1 -8.5zM232 596v5q0 14 -21 14t-24 -19l-25 -175q0 -2 -0.5 -3t-0.5 -2q0 -14 20 -14q23 0 26 19zM32 -20l469 704h86l-471 -704h-84z
M511 62q-6 -46 -37 -63.5t-69 -17.5q-36 0 -60 14t-24 51v7.5t1 8.5l26 187q7 47 36.5 64t69.5 17q35 0 59.5 -14t24.5 -51v-7.5t-1 -8.5zM465 243v5q0 14 -21 14t-24 -19l-25 -175q0 -2 -0.5 -3t-0.5 -2q0 -14 20 -14q23 0 26 19z" />
    <glyph glyph-name="ampersand" unicode="&#x26;" horiz-adv-x="501" 
d="M380 0l-34 48q-31 -35 -70 -50t-97 -15q-28 0 -52 7t-41.5 23.5t-27.5 43t-10 65.5v10t2 10l5 32q4 23 11 46t18.5 43.5t29 37.5t42.5 29q-23 31 -32.5 55.5t-9.5 55.5q0 11 1.5 23.5t3.5 27.5l3 26q5 46 18 77t35.5 50t54.5 27t75 8q74 0 104.5 -24t30.5 -84
q0 -13 -1 -26.5t-3 -29.5l-4 -27q-5 -33 -13 -59t-23.5 -47.5t-41 -40t-65.5 -36.5l63 -90l68 104h114l-126 -187l94 -133h-122zM338 507q1 8 1.5 14.5t0.5 12.5q0 21 -9.5 32t-36.5 11q-21 0 -33.5 -4.5t-19.5 -13.5t-10 -22t-6 -29l-7 -46q-1 -7 -1.5 -12.5t-0.5 -10.5
q0 -20 6.5 -35t23.5 -35q25 11 40.5 20.5t24.5 19t13 20t6 22.5zM205 255q-18 -13 -27 -31.5t-13 -44.5l-4 -26q-1 -5 -1.5 -10t-0.5 -10q0 -26 14 -36.5t40 -10.5t43.5 10t35.5 34z" />
    <glyph glyph-name="quotesingle" unicode="'" horiz-adv-x="168" 
d="M99 414l35 250h84l-35 -250h-84z" />
    <glyph glyph-name="parenleft" unicode="(" horiz-adv-x="307" 
d="M219 -143q-58 76 -87 165.5t-29 186.5q0 69 14 137.5t43.5 134.5t74.5 128.5t107 118.5h81q-108 -127 -158.5 -260t-50.5 -274q0 -88 21 -172t66 -165h-82z" />
    <glyph glyph-name="parenright" unicode=")" horiz-adv-x="307" 
d="M-34 -143q105 129 157.5 265.5t52.5 276.5q0 85 -21.5 166.5t-66.5 162.5h81q61 -76 89.5 -162t28.5 -177q0 -71 -16 -142.5t-46.5 -139.5t-75.5 -131.5t-103 -118.5h-80z" />
    <glyph glyph-name="asterisk" unicode="*" horiz-adv-x="416" 
d="M358 326l-82 112l-81 -112l-48 34l82 115l-128 40l17 54l126 -41v141h62v-141l127 41l19 -54l-128 -40l82 -115z" />
    <glyph glyph-name="plus" unicode="+" horiz-adv-x="556" 
d="M252 110l27 194h-192l11 80h192l28 193h80l-28 -193h194l-11 -80h-194l-27 -194h-80z" />
    <glyph glyph-name="comma" unicode="," horiz-adv-x="298" 
d="M113 151h117l-19 -135q-5 -32 -17.5 -60t-31 -49t-42 -34t-49.5 -14z" />
    <glyph glyph-name="hyphen" unicode="-" horiz-adv-x="331" 
d="M80 267l12 85h245l-12 -85h-245z" />
    <glyph glyph-name="period" unicode="." horiz-adv-x="243" 
d="M63 0l21 151h117l-21 -151h-117z" />
    <glyph glyph-name="slash" unicode="/" horiz-adv-x="295" 
d="M0 0l295 664h93l-297 -664h-91z" />
    <glyph glyph-name="zero" unicode="0" 
d="M105 518q7 46 26 77.5t46.5 50t62.5 26.5t74 8q37 0 67.5 -7t52 -23.5t33.5 -44t12 -67.5v-10t-2 -10l-52 -373q-6 -47 -25.5 -78t-48 -49.5t-63.5 -26.5t-72 -8q-35 0 -65 6.5t-52.5 21.5t-35.5 39.5t-13 60.5q0 16 3 34zM358 512q1 5 1 9.5v9.5q0 26 -14 34.5t-46 8.5
q-35 0 -54 -13t-24 -49l-50 -362q-1 -5 -1.5 -9t-0.5 -9q0 -24 15 -33t47 -9q35 0 53.5 12.5t23.5 47.5z" />
    <glyph glyph-name="one" unicode="1" horiz-adv-x="270" 
d="M115 0l70 502q0 3 0.5 6t0.5 6q0 27 -16.5 37.5t-44.5 10.5q-12 0 -22 -3l16 111q5 1 11 1.5t14 0.5q37 0 67 -7t51 -23t32.5 -43t11.5 -67v-10.5t-2 -10.5l-71 -511h-118z" />
    <glyph glyph-name="two" unicode="2" horiz-adv-x="420" 
d="M36 0l24 176q6 45 15.5 76.5t29 55t51 41t82.5 35.5q31 11 49.5 19t29 19.5t15.5 29t10 47.5q2 13 3 23t1 19q0 24 -12 33t-44 9q-40 0 -54 -10t-18 -36l-9 -61h-100l10 65q6 41 22 68t40 42.5t54.5 22t66.5 6.5q87 0 121.5 -28.5t34.5 -91.5q0 -14 -1.5 -28t-3.5 -31
q-6 -44 -16 -75.5t-28 -54.5t-46 -39.5t-70 -29.5q-30 -9 -50 -18t-33 -21t-20 -29t-10 -43l-12 -89h225l-14 -102h-343z" />
    <glyph glyph-name="three" unicode="3" horiz-adv-x="413" 
d="M402 145q-13 -90 -67.5 -126t-138.5 -36q-73 0 -112 26t-39 94q0 19 3 42l8 60h105l-7 -51q-1 -6 -1.5 -11t-0.5 -10q0 -26 14 -35t45 -9q36 0 52.5 12.5t21.5 47.5l11 74q1 7 1.5 13.5t0.5 11.5q0 27 -12.5 37.5t-41.5 10.5h-50l12 86h50q32 0 49 18t22 56l8 57
q1 6 1.5 11t0.5 10q0 26 -13.5 34.5t-43.5 8.5q-36 0 -53 -13t-23 -55l-7 -49h-105l8 58q6 47 22 78t40.5 50t57.5 26.5t74 7.5q37 0 66 -6t49.5 -20.5t31.5 -38t11 -58.5q0 -18 -3 -39l-6 -44q-6 -44 -29 -83t-71 -53q37 -11 53.5 -39.5t16.5 -64.5q0 -6 -0.5 -12.5
t-1.5 -12.5z" />
    <glyph glyph-name="four" unicode="4" horiz-adv-x="423" 
d="M272 0l17 125h-249l16 111l252 428h112l-249 -437h134l20 140h107l-51 -367h-109z" />
    <glyph glyph-name="five" unicode="5" horiz-adv-x="425" 
d="M408 145q-7 -47 -24.5 -78t-43.5 -49.5t-60.5 -26.5t-74.5 -8q-72 0 -112.5 26.5t-40.5 95.5q0 19 3 40l8 60h104l-7 -51q-1 -5 -1.5 -9.5t-0.5 -9.5q0 -26 15 -36t46 -10q38 0 53 16t22 60l11 77q1 6 1.5 11t0.5 10q0 26 -13.5 36.5t-42.5 10.5q-30 0 -42.5 -5
t-20.5 -14h-103l74 373h303l-14 -100h-195l-39 -187q21 12 42.5 18t47.5 6q66 0 93.5 -29t27.5 -86q0 -21 -3 -43z" />
    <glyph glyph-name="six" unicode="6" 
d="M426 139q-6 -45 -24.5 -75t-46 -48t-62 -25.5t-72.5 -7.5t-69.5 7t-54 23t-35 42.5t-12.5 65.5v8.5t2 9.5l53 378q7 47 25.5 78.5t45.5 50t62.5 26.5t76.5 8q36 0 65 -6t49.5 -20.5t31.5 -38t11 -59.5q0 -18 -3 -39l-5 -39h-112l5 36q1 6 1.5 11t0.5 10q0 25 -13.5 33.5
t-44.5 8.5q-36 0 -54.5 -12.5t-23.5 -50.5l-18 -129q12 11 38 23t66 12q26 0 51 -5t44 -18.5t30.5 -37t11.5 -60.5q0 -17 -3 -38zM324 256q1 6 1.5 11t0.5 10q0 51 -60 51q-54 0 -76 -46l-19 -138q-1 -5 -1 -8.5v-6.5q0 -23 14.5 -32t46.5 -9t52.5 12t25.5 44z" />
    <glyph glyph-name="seven" unicode="7" horiz-adv-x="382" 
d="M100 0q12 83 35 166t52.5 157t63.5 136t69 103h-222l15 102h336l-12 -86q-38 -48 -72.5 -111.5t-63 -138t-51 -158t-36.5 -170.5h-114z" />
    <glyph glyph-name="eight" unicode="8" horiz-adv-x="435" 
d="M424 145q-6 -45 -24 -76t-45.5 -50t-63 -27.5t-77.5 -8.5q-75 0 -120.5 29t-45.5 99q0 16 3 34l9 64q6 45 31.5 81t73.5 48q-20 6 -33 18t-20 27.5t-9.5 34t-2.5 38.5v9t2 9l6 44q6 46 23 77.5t43.5 50t61 26.5t76.5 8q37 0 67 -6t51 -20.5t32.5 -38.5t11.5 -59
q0 -17 -3 -38l-6 -44q-3 -22 -10.5 -43.5t-19.5 -40t-29.5 -32t-41.5 -20.5q38 -11 54.5 -39.5t16.5 -64.5q0 -6 -0.5 -12.5t-1.5 -12.5zM317 224q1 7 1.5 13t0.5 11q0 26 -14.5 37t-46.5 11q-38 0 -55.5 -15t-22.5 -57l-10 -74q-1 -5 -1.5 -9t-0.5 -8q0 -25 15 -34t46 -9
q35 0 54 12.5t24 47.5zM356 512q1 6 1.5 10.5t0.5 9.5q0 26 -15 35t-46 9q-35 0 -53 -12.5t-23 -51.5l-8 -58q-1 -6 -1.5 -11t-0.5 -10q0 -26 13.5 -38.5t45.5 -12.5q38 0 55.5 17.5t22.5 54.5z" />
    <glyph glyph-name="nine" unicode="9" horiz-adv-x="436" 
d="M325 287q-12 -11 -38.5 -23t-66.5 -12q-26 0 -50.5 5t-44 18.5t-31 37t-11.5 61.5q0 17 3 37l16 113q6 45 24.5 75t46 48t61.5 25.5t72 7.5q34 0 65.5 -6.5t55 -21t37.5 -39t14 -60.5q0 -7 -0.5 -14t-1.5 -15l-53 -378q-7 -47 -25.5 -78.5t-45.5 -50.5t-62.5 -26.5
t-76.5 -7.5q-36 0 -65 6t-50 20.5t-32 38t-11 59.5q0 18 3 39l7 48h112l-6 -44q-1 -5 -1.5 -10t-0.5 -10q0 -24 13.5 -32.5t45.5 -8.5q36 0 54.5 12.5t23.5 48.5zM357 519q1 5 1 9v8q0 23 -14.5 32t-46.5 9q-30 0 -51.5 -12t-26.5 -46l-14 -103q-1 -5 -1.5 -10t-0.5 -10
q0 -27 14 -39.5t46 -12.5q54 0 76 46z" />
    <glyph glyph-name="colon" unicode=":" horiz-adv-x="289" 
d="M85 0l21 151h117l-21 -151h-117zM132 339l21 150h117l-21 -150h-117z" />
    <glyph glyph-name="semicolon" unicode=";" horiz-adv-x="297" 
d="M142 339l21 150h117l-21 -150h-117zM116 151h117l-19 -135q-5 -32 -17.5 -60t-31 -49t-42 -34t-49.5 -14z" />
    <glyph glyph-name="less" unicode="&#x3c;" horiz-adv-x="556" 
d="M87 303l11 80l495 207l-12 -89l-399 -158l354 -159l-12 -88z" />
    <glyph glyph-name="equal" unicode="=" horiz-adv-x="556" 
d="M101 402l11 81h466l-11 -81h-466zM73 203l11 81h466l-11 -81h-466z" />
    <glyph glyph-name="greater" unicode="&#x3e;" horiz-adv-x="556" 
d="M58 96l12 88l398 159l-353 158l12 89l437 -207l-11 -80z" />
    <glyph glyph-name="question" unicode="?" horiz-adv-x="386" 
d="M113 0l20 146h115l-20 -146h-115zM145 209l5 35q3 22 8 40.5t15 34t25.5 29.5t39.5 29q22 13 37 23t24.5 20t14.5 22t8 30q3 20 5 35t2 28q0 25 -11.5 36.5t-43.5 11.5q-22 0 -35.5 -3.5t-21.5 -12.5t-12 -23t-7 -35l-6 -43h-106l8 56q6 45 20.5 75.5t38.5 49t57.5 26
t78.5 7.5q84 0 118 -27t34 -91q0 -14 -1.5 -30t-3.5 -34q-6 -42 -13.5 -69t-18.5 -45t-27 -30.5t-38 -24.5q-46 -26 -63.5 -47.5t-21.5 -45.5l-4 -27h-105z" />
    <glyph glyph-name="at" unicode="@" horiz-adv-x="529" 
d="M162 -102q-27 0 -50 5t-40.5 16.5t-27.5 30.5t-10 47q0 6 0.5 12.5t1.5 13.5l65 461q5 36 19.5 60t35.5 38.5t48.5 20.5t57.5 6h175q27 0 50.5 -5t41 -17t27.5 -31.5t10 -47.5q0 -6 -0.5 -12t-1.5 -12l-53 -374q-23 -8 -58 -15.5t-92 -7.5q-62 0 -94 24t-32 90v8.5t2 9.5
l11 76q6 42 20 67.5t33.5 40t42 19.5t46.5 5q29 0 44.5 -5t27.5 -13l9 66q0 2 0.5 4.5t0.5 4.5q0 20 -13.5 28.5t-33.5 8.5h-175q-23 0 -39.5 -10t-20.5 -36l-62 -443q-1 -2 -1 -10q0 -20 13.5 -28t34.5 -8h318l-13 -88h-318zM449 320q-8 7 -20.5 10.5t-32.5 3.5
q-24 0 -38.5 -9.5t-19.5 -39.5l-8 -56q-1 -3 -1 -13q0 -20 12.5 -28t33.5 -8q20 0 32.5 2t23.5 6z" />
    <glyph glyph-name="A" unicode="A" 
d="M287 0l32 231h-139l-32 -231h-115l59 426q7 55 28 95t51 69.5t67 50.5t76 39q29 -16 57 -34.5t49.5 -43.5t34.5 -57.5t13 -75.5q0 -21 -3 -43l-59 -426h-119zM347 434q1 7 1.5 13.5t0.5 12.5q0 38 -16.5 57t-37.5 32q-14 -8 -28 -17t-26 -22t-21 -31.5t-12 -44.5
l-14 -105h139z" />
    <glyph glyph-name="B" unicode="B" horiz-adv-x="438" 
d="M39 0l93 664h233q31 0 51.5 -9t32.5 -24.5t17 -36t5 -42.5q0 -29 -4.5 -62.5t-16.5 -63.5t-32 -54t-51 -34q40 -12 54.5 -47t14.5 -78q0 -33 -7 -70t-25.5 -69t-50 -53t-80.5 -21h-234zM245 99q42 0 60 35t18 98q0 28 -11 46t-41 18h-77l-28 -197h79zM283 382
q22 0 36.5 12t23 31t12 42t3.5 46q0 26 -10 40t-37 14h-79l-26 -185h77z" />
    <glyph glyph-name="C" unicode="C" horiz-adv-x="417" 
d="M319 276h105l-18 -131q-6 -47 -23 -78t-42 -49.5t-57.5 -26.5t-69.5 -8q-35 0 -65 6.5t-52 21t-34.5 39t-12.5 60.5q0 17 3 35l52 373q6 46 24.5 77.5t46.5 50t63 26.5t73 8q33 0 60.5 -6t47 -20.5t30.5 -38t11 -58.5q0 -18 -3 -39l-19 -139h-105l19 134q1 4 1 8v8
q0 23 -12.5 34.5t-44.5 11.5q-37 0 -53.5 -14.5t-21.5 -47.5l-49 -347q-3 -17 -3 -29q0 -24 12 -36t47 -12q38 0 52.5 14.5t19.5 45.5z" />
    <glyph glyph-name="D" unicode="D" horiz-adv-x="445" 
d="M39 0l93 664h187q33 0 62.5 -7t51.5 -24t35 -45.5t13 -71.5q0 -11 -1 -23t-3 -25l-39 -279q-8 -52 -27.5 -88t-48 -58.5t-63.5 -32.5t-73 -10h-187zM363 484q1 6 1.5 12t0.5 11q0 32 -15.5 45t-44.5 13h-70l-65 -463h70q34 0 53.5 17.5t26.5 62.5z" />
    <glyph glyph-name="E" unicode="E" horiz-adv-x="333" 
d="M39 0l93 664h262l-14 -99h-145l-24 -168h132l-14 -99h-132l-27 -196h151l-14 -102h-268z" />
    <glyph glyph-name="F" unicode="F" horiz-adv-x="342" 
d="M39 0l93 664h280l-14 -99h-163l-25 -175h158l-14 -99h-158l-40 -291h-117z" />
    <glyph glyph-name="G" unicode="G" horiz-adv-x="431" 
d="M333 340h109l-46 -328q-26 -9 -69 -19t-114 -10q-34 0 -63.5 6t-51.5 21t-35 39.5t-13 60.5q0 16 3 34l52 374q6 46 24.5 77.5t46.5 50t63 26.5t73 8q33 0 60.5 -6t47 -20.5t30.5 -38t11 -58.5q0 -18 -3 -39l-13 -92h-105l13 88q1 5 1 9.5v8.5q0 23 -12.5 34t-43.5 11
q-36 0 -53 -15t-22 -48l-51 -364q-1 -4 -1 -7.5v-6.5q0 -26 16 -36t44 -10q24 0 40 3t29 8z" />
    <glyph glyph-name="H" unicode="H" horiz-adv-x="452" 
d="M295 0l40 287h-139l-40 -287h-117l93 664h117l-39 -279h139l39 279h117l-93 -664h-117z" />
    <glyph glyph-name="I" unicode="I" horiz-adv-x="195" 
d="M39 0l93 664h117l-93 -664h-117z" />
    <glyph glyph-name="J" unicode="J" horiz-adv-x="270" 
d="M37 90q8 -4 22 -4q32 0 51.5 14t24.5 46l73 518h118l-74 -525q-7 -47 -26 -77.5t-46.5 -49.5t-62 -26.5t-71.5 -7.5q-7 0 -13 0.5t-11 1.5z" />
    <glyph glyph-name="K" unicode="K" horiz-adv-x="452" 
d="M310 0l-110 334l-46 -334h-115l93 664h115l-41 -289l190 289h126l-211 -295l131 -369h-132z" />
    <glyph glyph-name="L" unicode="L" horiz-adv-x="327" 
d="M39 0l93 664h117l-79 -562h149l-14 -102h-266z" />
    <glyph glyph-name="M" unicode="M" horiz-adv-x="665" 
d="M511 0l72 513q0 3 0.5 6t0.5 5q0 51 -58 51q-36 0 -58 -16l-78 -559h-112l77 553q-7 11 -24 16.5t-35 5.5q-36 0 -61 -11l-79 -564h-117l91 651q27 9 71.5 19t101.5 10q38 0 71 -9.5t48 -26.5q21 14 52 25t76 11q72 0 112 -32.5t40 -109.5v-10.5t-2 -10.5l-72 -517h-117z
" />
    <glyph glyph-name="N" unicode="N" horiz-adv-x="448" 
d="M295 0l72 515q0 3 0.5 6t0.5 6q0 27 -17 37.5t-44 10.5q-25 0 -42 -3t-30 -8l-79 -564h-117l91 651q28 9 75 19t119 10q37 0 67 -7t51 -23t32.5 -43t11.5 -67v-10.5t-2 -10.5l-72 -519h-117z" />
    <glyph glyph-name="O" unicode="O" 
d="M105 518q7 46 26 77.5t46.5 50t62.5 26.5t74 8q37 0 67.5 -7t52 -23.5t33.5 -44t12 -67.5v-10t-2 -10l-52 -373q-6 -47 -25.5 -78t-48 -49.5t-63.5 -26.5t-72 -8q-35 0 -65 6.5t-52.5 21.5t-35.5 39.5t-13 60.5q0 16 3 34zM358 512q1 5 1 9.5v9.5q0 26 -14 34.5t-46 8.5
q-35 0 -54 -13t-24 -49l-50 -362q-1 -5 -1.5 -9t-0.5 -9q0 -24 15 -33t47 -9q35 0 53.5 12.5t23.5 47.5z" />
    <glyph glyph-name="P" unicode="P" horiz-adv-x="429" 
d="M39 0l93 664h215q73 0 101.5 -29.5t28.5 -95.5q0 -18 -1.5 -39.5t-5.5 -46.5q-8 -56 -20 -96t-32 -65.5t-51.5 -37.5t-78.5 -12h-98l-34 -242h-117zM279 335q39 0 55 31t24 86q2 17 3.5 31t1.5 26q0 32 -11.5 45t-40.5 13h-76l-32 -232h76z" />
    <glyph glyph-name="Q" unicode="Q" 
d="M231 -102q-3 26 -6.5 52.5t-7.5 52.5q-37 0 -67 7.5t-51.5 24t-33 44t-11.5 67.5v9.5t2 9.5l49 353q6 46 25 77.5t47 50t63 26.5t74 8q37 0 67.5 -7t52 -23.5t33.5 -44t12 -67.5v-10t-2 -10l-49 -353q-8 -58 -35.5 -91.5t-65.5 -50.5l23 -125h-119zM358 512q1 5 1 9.5
v9.5q0 26 -14 34.5t-46 8.5q-35 0 -54 -13t-24 -49l-48 -342q-1 -5 -1 -8.5v-7.5q0 -26 15 -35t47 -9q36 0 53.5 13.5t22.5 46.5z" />
    <glyph glyph-name="R" unicode="R" horiz-adv-x="435" 
d="M288 375q19 0 33 12.5t22 32.5t12 44t4 48q0 26 -10 40.5t-38 14.5h-79l-27 -192h83zM286 0l31 226q1 5 1 9v8q0 19 -9 31.5t-34 12.5h-82l-40 -287h-114l93 664h234q32 0 53 -9t33 -25t17 -36.5t5 -43.5q0 -29 -5 -63t-17 -65t-32 -54.5t-50 -31.5q36 -8 49 -33t13 -58
q0 -21 -3 -43l-28 -202h-115z" />
    <glyph glyph-name="S" unicode="S" horiz-adv-x="406" 
d="M339 466l6 41q1 8 1.5 14.5t0.5 12.5q0 29 -13 39t-40 10q-22 0 -36 -3.5t-22 -13t-13 -26.5t-9 -43q-3 -18 -3 -30q0 -14 4 -24.5t13.5 -18.5t25.5 -15.5t41 -15.5q35 -12 58 -26t36 -31t18 -37t5 -44q0 -18 -2 -38t-5 -43q-6 -45 -19.5 -80.5t-38 -60t-61.5 -37.5
t-91 -13q-72 0 -111.5 27.5t-39.5 96.5q0 18 3 39l13 90h104l-12 -86q-1 -5 -1.5 -10t-0.5 -10q0 -26 15.5 -34.5t45.5 -8.5q20 0 33 4t21.5 13.5t13.5 26.5t9 44q2 17 3.5 30t1.5 24q0 19 -5 32t-15.5 22t-27.5 16t-41 16q-58 21 -84.5 52.5t-26.5 86.5q0 18 3 41
q6 43 19 77t37.5 58t62 37t92.5 13q69 0 106.5 -27.5t37.5 -100.5v-10t-2 -10l-9 -66h-101z" />
    <glyph glyph-name="T" unicode="T" horiz-adv-x="366" 
d="M124 0l79 565h-111l14 99h341l-14 -99h-113l-79 -565h-117z" />
    <glyph glyph-name="U" unicode="U" horiz-adv-x="448" 
d="M385 664h117l-92 -652q-26 -9 -73.5 -19t-119.5 -10q-34 0 -64 6t-52 21t-35 39.5t-13 60.5q0 16 3 34l73 520h118l-72 -514q-1 -4 -1 -7.5v-6.5q0 -26 16.5 -36t43.5 -10q47 0 72 11z" />
    <glyph glyph-name="V" unicode="V" 
d="M383 664h116l-60 -426q-8 -56 -29 -95.5t-51 -69t-67 -50.5t-76 -39q-29 16 -56.5 34.5t-49 43t-34.5 57t-13 76.5q0 20 3 43l60 426h119l-61 -432q-1 -7 -1.5 -13.5t-0.5 -11.5q0 -39 17 -58.5t38 -32.5q14 8 27.5 17.5t25 22.5t20 31t12.5 45z" />
    <glyph glyph-name="W" unicode="W" horiz-adv-x="650" 
d="M594 664h116l-60 -427q-8 -56 -28 -95.5t-48.5 -68.5t-63 -50t-71.5 -39q-34 22 -60.5 49.5t-40.5 61.5q-21 -34 -56.5 -61.5t-77.5 -49.5q-27 16 -53 34t-45.5 42t-31.5 55.5t-12 74.5q0 12 1 24t3 23l60 427h119l-60 -427q-3 -17 -3 -31q0 -35 13 -55.5t32 -34.5
q28 16 48.5 43t28.5 78l60 427h111l-60 -427q-2 -5 -2 -9.5v-9.5q0 -42 11.5 -65t33.5 -37q29 16 48.5 43t27.5 78z" />
    <glyph glyph-name="X" unicode="X" horiz-adv-x="445" 
d="M311 0l-51 270l-128 -270h-121l173 346l-74 318h123l46 -259l120 259h119l-162 -312l78 -352h-123z" />
    <glyph glyph-name="Y" unicode="Y" horiz-adv-x="426" 
d="M155 0l32 233q-21 15 -39.5 32t-32 38.5t-21.5 48.5t-8 60q0 20 3 43l30 209h119l-30 -215q-1 -7 -1.5 -13.5t-0.5 -12.5q0 -38 16.5 -58.5t36.5 -33.5q15 8 29 17.5t25.5 23t20 32.5t12.5 45l30 215h115l-30 -209q-6 -43 -21 -77t-36 -61t-46.5 -47.5t-53.5 -36.5
l-32 -233h-117z" />
    <glyph glyph-name="Z" unicode="Z" horiz-adv-x="395" 
d="M24 0l15 113l278 452h-204l14 99h330l-12 -84l-275 -478h208l-14 -102h-340z" />
    <glyph glyph-name="bracketleft" unicode="[" horiz-adv-x="325" 
d="M69 -130l120 849h225l-12 -82h-127l-96 -686h127l-12 -81h-225z" />
    <glyph glyph-name="backslash" unicode="\" horiz-adv-x="295" 
d="M204 0l-111 664h93l109 -664h-91z" />
    <glyph glyph-name="bracketright" unicode="]" horiz-adv-x="320" 
d="M-6 -130l11 81h128l96 686h-128l12 82h225l-120 -849h-224z" />
    <glyph glyph-name="asciicircum" unicode="^" horiz-adv-x="338" 
d="M294 473l-43 113l-78 -113h-80l141 191h54l87 -191h-81z" />
    <glyph glyph-name="underscore" unicode="_" horiz-adv-x="358" 
d="M-18 -121l8 51h360l-8 -51h-360z" />
    <glyph glyph-name="grave" unicode="`" horiz-adv-x="306" 
d="M127 627l11 83l212 -119l-8 -57z" />
    <glyph glyph-name="a" unicode="a" horiz-adv-x="410" 
d="M375 11q-25 -12 -62.5 -20t-104.5 -8q-83 0 -125.5 28.5t-42.5 99.5v9t2 9l5 39q5 40 22 65t40.5 39t52 19t56.5 5q31 0 53 -6t33 -13l9 63q1 3 1 12q0 49 -61 49q-44 0 -78 -6.5t-73 -20.5l15 106q27 11 64 18t92 7q33 0 60.5 -6t48 -20.5t32 -38t11.5 -58.5
q0 -8 -0.5 -16t-1.5 -17zM295 209q-11 8 -27 13t-36 5q-32 0 -48.5 -11.5t-21.5 -43.5l-5 -31q-1 -3 -1 -12q0 -44 60 -44q24 0 38.5 3t24.5 8z" />
    <glyph glyph-name="b" unicode="b" horiz-adv-x="403" 
d="M392 139q-6 -45 -23.5 -75t-43 -48t-57.5 -25.5t-68 -7.5q-34 0 -62 6t-48.5 20t-31.5 37t-11 58q0 15 3 35l75 533h107l-26 -188q15 8 37 14.5t55 6.5q25 0 48 -5t40.5 -18t28 -35.5t10.5 -58.5q0 -18 -3 -39zM313 341q1 5 1 8.5v7.5q0 25 -14 34t-38 9
q-25 0 -42.5 -5.5t-28.5 -12.5l-33 -238q-1 -3 -1 -13q0 -25 15.5 -34t41.5 -9q29 0 48 12t24 44z" />
    <glyph glyph-name="c" unicode="c" horiz-adv-x="396" 
d="M387 139q-6 -45 -23 -75t-42 -48t-56.5 -25.5t-67.5 -7.5q-33 0 -61 6t-48 20t-31 37t-11 57q0 16 3 36l30 210q6 45 22.5 75t41.5 48t57 25.5t70 7.5q32 0 59.5 -6t47 -20.5t30.5 -38t11 -58.5q0 -8 -0.5 -16t-1.5 -17l-9 -63h-104l8 58q1 3 1 6.5v6.5q0 25 -15 34
t-41 9q-29 0 -47.5 -12t-23.5 -44l-28 -200q-1 -3 -1 -13q0 -25 15 -34t41 -9q29 0 47.5 12t23.5 44l8 62h104z" />
    <glyph glyph-name="d" unicode="d" horiz-adv-x="413" 
d="M80 349q7 48 23 78.5t38.5 48t49 23.5t55.5 6q33 0 53.5 -6.5t34.5 -14.5l26 188h107l-93 -661q-27 -9 -69 -18.5t-109 -9.5q-33 0 -60 6t-47 20t-31 37t-11 58q0 15 3 35zM319 382q-10 7 -25 12.5t-40 5.5q-28 0 -46 -12t-23 -47l-27 -194q-1 -3 -1 -13q0 -26 15 -36
t40 -10q24 0 40 3t27 8z" />
    <glyph glyph-name="e" unicode="e" horiz-adv-x="404" 
d="M368 8q-26 -10 -69.5 -17.5t-100.5 -7.5q-32 0 -60 6t-48 20t-31.5 37.5t-11.5 58.5q0 16 3 34l30 210q6 45 22.5 75t41.5 48t57 25.5t70 7.5q33 0 60.5 -6t48 -20.5t32 -38.5t11.5 -59q0 -8 -0.5 -16t-1.5 -16l-20 -142h-234l-9 -58q-1 -3 -1 -13q0 -29 20.5 -36.5
t54.5 -7.5q50 0 84 6.5t67 17.5zM313 342q1 4 1 7.5v6.5q0 23 -12.5 34.5t-44.5 11.5q-38 0 -52.5 -17t-19.5 -48l-8 -56h127z" />
    <glyph glyph-name="f" unicode="f" horiz-adv-x="271" 
d="M66 0l58 414h-47l11 78h47l7 49q6 40 22 67t40 43t53.5 22.5t61.5 6.5q7 0 12 -0.5t10 -1.5l-14 -99q-9 3 -21 3q-24 0 -39.5 -12t-18.5 -39l-5 -39h73l-11 -78h-73l-58 -414h-108z" />
    <glyph glyph-name="g" unicode="g" horiz-adv-x="406" 
d="M268 17q-16 -8 -38 -14.5t-55 -6.5q-25 0 -47.5 5t-40 17.5t-28 35t-10.5 58.5q0 17 3 40l28 197q6 45 23 75t42.5 48t57.5 25.5t68 7.5q34 0 62 -6t48.5 -20.5t31.5 -38t11 -58.5q0 -8 -0.5 -16t-1.5 -17l-63 -444q-6 -43 -23 -72t-42.5 -46.5t-57.5 -25t-69 -7.5
q-31 0 -57 6t-45 19.5t-29.5 36t-10.5 55.5q0 16 3 34l6 39h101l-5 -36q-1 -3 -1 -12q0 -22 14 -31t38 -9q28 0 48 11.5t24 40.5zM314 344q1 3 1 6.5v6.5q0 25 -15.5 34t-41.5 9q-29 0 -48 -12t-24 -44l-26 -184q-1 -4 -1 -7.5v-6.5q0 -26 14 -35t39 -9t42 5t28 13z" />
    <glyph glyph-name="h" unicode="h" horiz-adv-x="417" 
d="M274 0l47 341q1 5 1 8.5v7.5q0 25 -14 34t-38 9t-41.5 -5.5t-28.5 -12.5l-53 -382h-108l94 672h108l-26 -188q14 8 36 14.5t55 6.5q25 0 48 -5t41 -17.5t28.5 -35.5t10.5 -59q0 -18 -3 -39l-49 -349h-108z" />
    <glyph glyph-name="i" unicode="i" horiz-adv-x="193" 
d="M42 0l69 492h108l-69 -492h-108zM119 551l17 121h109l-17 -121h-109z" />
    <glyph glyph-name="j" unicode="j" horiz-adv-x="225" 
d="M-14 -132q9 -3 20 -3q23 0 38.5 12t19.5 39l81 576h106l-83 -586q-6 -41 -22 -67.5t-39 -42.5t-52.5 -22.5t-60.5 -6.5q-7 0 -12 0.5t-10 1.5zM152 551l17 121h108l-17 -121h-108z" />
    <glyph glyph-name="k" unicode="k" horiz-adv-x="425" 
d="M286 0l-104 250l-35 -250h-108l94 672h108l-55 -388l157 208h126l-178 -215l123 -277h-128z" />
    <glyph glyph-name="l" unicode="l" horiz-adv-x="186" 
d="M39 0l94 672h108l-94 -672h-108z" />
    <glyph glyph-name="m" unicode="m" horiz-adv-x="601" 
d="M457 0l49 352v9q0 39 -46 39q-35 0 -52 -13l-54 -387h-103l53 380q-5 10 -19 15t-31 5q-16 0 -29.5 -2.5t-23.5 -6.5l-54 -391h-108l67 479q25 8 62.5 17t91.5 9q32 0 60 -6.5t39 -19.5q19 12 48.5 19t67.5 7q63 0 103 -26.5t40 -89.5q0 -8 -0.5 -15t-1.5 -15l-50 -359
h-109z" />
    <glyph glyph-name="n" unicode="n" horiz-adv-x="417" 
d="M274 0l47 341q1 3 1 15q0 24 -14.5 34t-39.5 10q-24 0 -40 -3t-27 -8l-54 -389h-108l67 477q26 9 68 18.5t109 9.5q33 0 60.5 -6t47.5 -20.5t31 -38t11 -58.5q0 -8 -0.5 -16t-1.5 -17l-49 -349h-108z" />
    <glyph glyph-name="o" unicode="o" horiz-adv-x="404" 
d="M392 139q-6 -45 -23.5 -75t-43 -48t-58 -25.5t-68.5 -7.5q-34 0 -62 6t-48 20t-31 37t-11 57q0 16 3 36l30 210q6 45 22.5 75t41.5 48t57.5 25.5t70.5 7.5q33 0 60.5 -6t48 -20.5t32 -38.5t11.5 -59q0 -8 -0.5 -16t-1.5 -16zM314 344q0 3 0.5 6t0.5 6q0 25 -15.5 34.5
t-41.5 9.5q-29 0 -48 -12t-24 -44l-28 -200q-1 -3 -1 -13q0 -25 15.5 -34t41.5 -9q29 0 48 12t24 44z" />
    <glyph glyph-name="p" unicode="p" horiz-adv-x="406" 
d="M-1 -233l99 710q26 9 68 18.5t109 9.5q33 0 60 -6t47 -20t31 -37.5t11 -58.5q0 -8 -0.5 -16.5t-1.5 -17.5l-30 -210q-7 -48 -23.5 -78.5t-39 -48t-49.5 -23.5t-55 -6q-33 0 -53 6.5t-34 14.5l-33 -237h-106zM313 341q1 3 1 15q0 24 -15 34t-39 10t-40.5 -3t-27.5 -8
l-40 -283q10 -7 25.5 -12.5t40.5 -5.5q28 0 45.5 12t22.5 47z" />
    <glyph glyph-name="q" unicode="q" horiz-adv-x="421" 
d="M233 -233l33 237q-15 -8 -37.5 -14.5t-55.5 -6.5q-25 0 -47.5 5t-40 17.5t-28 35t-10.5 58.5q0 17 3 40l30 210q6 45 23 75t42.5 48t57.5 25.5t68 7.5q34 0 62 -6t48.5 -20.5t31.5 -38t11 -58.5q0 -8 -0.5 -16t-1.5 -17l-82 -582h-107zM314 344q1 3 1 6.5v6.5
q0 25 -15.5 34t-41.5 9q-29 0 -48 -12t-24 -44l-28 -197q-1 -3 -1 -15q0 -26 14 -35t39 -9t42 5.5t28 12.5z" />
    <glyph glyph-name="r" unicode="r" horiz-adv-x="388" 
d="M39 0l67 477q25 9 64.5 18.5t102.5 9.5q31 0 58 -5.5t46.5 -18t30.5 -33.5t11 -52q0 -6 -0.5 -12.5t-1.5 -13.5l-9 -63h-96l6 42q0 2 0.5 5t0.5 5q0 23 -15 32t-40 9q-22 0 -37 -3t-26 -8l-54 -389h-108z" />
    <glyph glyph-name="s" unicode="s" horiz-adv-x="403" 
d="M317 347l4 30q0 2 0.5 5t0.5 5q0 17 -14 22.5t-44 5.5q-37 0 -56 -10t-19 -45q0 -12 13.5 -23t33 -20t41.5 -17t40 -15q48 -19 65.5 -45.5t17.5 -61.5q0 -16 -3 -34q-6 -45 -21.5 -76t-40.5 -50t-60.5 -27t-81.5 -8q-32 0 -60.5 4t-50.5 15.5t-34.5 30.5t-12.5 49
q0 5 0.5 10.5t1.5 11.5l8 57h104l-4 -29q-1 -5 -1 -8.5v-6.5q0 -23 14.5 -31.5t46.5 -8.5q34 0 54 12.5t20 55.5q0 20 -11 33t-27.5 22t-36.5 15t-37 12q-42 15 -68.5 40t-26.5 72q0 50 16.5 82t44 51t64.5 26t78 7q28 0 55.5 -3.5t48.5 -13.5t34 -28t13 -47v-9.5t-1 -9.5
l-7 -47h-101z" />
    <glyph glyph-name="t" unicode="t" horiz-adv-x="260" 
d="M74 0l58 414h-55l11 78h55l15 112h108l-15 -112h59l-11 -78h-59l-58 -414h-108z" />
    <glyph glyph-name="u" unicode="u" horiz-adv-x="419" 
d="M339 492h107l-68 -481q-26 -9 -68.5 -18.5t-109.5 -9.5q-32 0 -59.5 6t-47.5 20t-31 37t-11 58q0 15 3 35l50 353h108l-49 -345q-1 -3 -1 -14q0 -25 14.5 -35t39.5 -10q23 0 39.5 3t27.5 8z" />
    <glyph glyph-name="v" unicode="v" horiz-adv-x="405" 
d="M336 492h107l-38 -267q-8 -55 -27.5 -94.5t-47 -69t-61.5 -50.5t-71 -39q-28 16 -53 34t-44 42t-30.5 55.5t-11.5 74.5q0 11 0.5 22.5t2.5 24.5l38 267h107l-40 -281q-3 -18 -3 -32q0 -40 15 -59.5t35 -29.5q13 6 26 14.5t24 22.5t19.5 34t12.5 49z" />
    <glyph glyph-name="w" unicode="w" horiz-adv-x="594" 
d="M525 492h107l-39 -276q-8 -53 -26 -91t-43.5 -66.5t-57 -49t-65.5 -37.5q-35 17 -58.5 42.5t-36.5 53.5q-21 -28 -51.5 -53.5t-70.5 -42.5q-25 15 -48 32.5t-40.5 40.5t-28 53t-10.5 70q0 13 1 25t3 23l39 276h107l-42 -294q-1 -8 -1.5 -14.5t-0.5 -12.5
q0 -32 11.5 -50.5t28.5 -30.5q22 13 41 35.5t27 72.5l42 294h107l-42 -295q-2 -5 -2 -9.5v-9.5q0 -39 9.5 -57t29.5 -31q22 13 41.5 36.5t26.5 71.5z" />
    <glyph glyph-name="x" unicode="x" horiz-adv-x="397" 
d="M271 0l-46 202l-106 -202h-108l139 257l-65 235h113l42 -194l98 194h110l-130 -231l68 -261h-115z" />
    <glyph glyph-name="y" unicode="y" horiz-adv-x="406" 
d="M267 17q-16 -8 -37.5 -14t-54.5 -6q-25 0 -48 4.5t-40 17.5t-27.5 35t-10.5 58q0 17 3 40l48 340h107l-47 -333q-1 -4 -1 -7.5v-6.5q0 -26 14 -35t39 -9q24 0 41 5.5t28 12.5l53 373h107l-83 -587q-6 -43 -23 -72t-42.5 -46.5t-57.5 -25t-69 -7.5q-31 0 -57 6t-44.5 19.5
t-29 36t-10.5 55.5q0 16 3 34l6 39h100l-5 -35q-1 -3 -1 -12q0 -22 14 -31.5t38 -9.5q29 0 48 12t24 41z" />
    <glyph glyph-name="z" unicode="z" horiz-adv-x="373" 
d="M23 0l12 91l235 314h-175l13 87h304l-11 -77l-235 -325h196l-12 -90h-327z" />
    <glyph glyph-name="braceleft" unicode="{" horiz-adv-x="336" 
d="M261 -131q-44 0 -72.5 6t-45 19t-23.5 32t-7 45q0 12 1 26.5t4 29.5l23 127q2 11 2.5 21t0.5 18q0 35 -16 50t-53 15l10 74q46 0 67 23.5t29 81.5q1 7 2.5 24t3 36.5t3 37.5t3.5 27q6 40 16 70t30 49.5t54 29t88 9.5h34l-10 -70h-22q-26 0 -43 -4t-27.5 -13.5t-16 -24
t-8.5 -35.5q-6 -43 -10 -87.5t-10 -87.5q-6 -45 -38 -71.5t-74 -31.5q35 -5 59.5 -28t24.5 -60q0 -12 -1 -15q-6 -43 -14.5 -88t-14.5 -88q-2 -5 -2 -9v-8q0 -17 2.5 -28.5t10.5 -18.5t22.5 -10t39.5 -3h22l-10 -70h-34z" />
    <glyph glyph-name="bar" unicode="|" horiz-adv-x="244" 
d="M61 -125l121 861h86l-121 -861h-86z" />
    <glyph glyph-name="braceright" unicode="}" horiz-adv-x="338" 
d="M3 -131l10 70h21q27 0 44 4t27.5 13t16 24t8.5 36q6 43 9.5 88t9.5 88t38 70.5t74 32.5q-36 5 -60 28t-24 60q0 12 1 15q6 43 15 87.5t15 87.5q1 8 1.5 14t0.5 12q0 27 -15.5 39t-60.5 12h-21l10 70h34q43 0 71.5 -6t45.5 -18.5t24 -32t7 -45.5q0 -15 -4.5 -44.5
t-10.5 -63t-10.5 -64.5t-4.5 -49q0 -35 15.5 -50t52.5 -15l-10 -74q-46 0 -66.5 -23t-28.5 -81q-1 -7 -3 -24.5t-3.5 -37.5t-3.5 -38l-3 -27q-6 -41 -16 -70.5t-30.5 -49t-54 -29t-87.5 -9.5h-34z" />
    <glyph glyph-name="asciitilde" unicode="~" horiz-adv-x="585" 
d="M582 311q-35 -35 -71 -51t-84 -16q-30 0 -55.5 9.5t-50 20.5t-49 20.5t-51.5 9.5q-42 0 -75.5 -19t-68.5 -57l12 87q25 26 59 46.5t80 20.5q35 0 63.5 -9t54 -20.5t49 -20.5t48.5 -9q42 0 78.5 16t72.5 58z" />
    <glyph glyph-name="uni00A0" unicode="&#xa0;" horiz-adv-x="193" 
 />
    <glyph glyph-name="exclamdown" unicode="&#xa1;" horiz-adv-x="227" 
d="M265.004 664l-19.999 -145.991h-114.993l19.999 145.991h114.993zM211.007 466.012q0 -60.9961 -1 -113.493q-1 -52.4961 -4 -101.493t-7.49902 -96.9941q-4.5 -47.9971 -11.5 -98.9941q-2 -16.999 -5.49902 -30.998q-3.5 -13.999 -7.5 -23.998h-119.992
q0 2.99902 -0.5 6.49902t-0.5 6.5q0 8.99902 1 19.499q1 10.499 2.99902 22.498q8 50.9971 16.499 98.9941q8.5 47.9971 19.499 96.9941q11 48.9971 24.999 101.493q13.999 52.4971 31.998 113.493h60.9961z" />
    <glyph glyph-name="cent" unicode="&#xa2;" horiz-adv-x="403" 
d="M158 0l10 76q-48 7 -77 33.5t-29 83.5q0 16 3 37l29 210q11 75 49.5 109.5t97.5 42.5l10 72h87l-10 -72q53 -8 78.5 -37.5t25.5 -93.5v-10.5t-2 -10.5l-9 -63h-104l8 57q1 4 1 7.5v6.5q0 24 -15 33t-40 9q-29 0 -47.5 -12t-23.5 -44l-27 -199q-1 -4 -1 -7.5v-6.5
q0 -24 15 -33t41 -9q27 0 46.5 12.5t23.5 43.5l8 62h104l-9 -67q-11 -76 -50.5 -111t-95.5 -43l-10 -76h-87z" />
    <glyph glyph-name="sterling" unicode="&#xa3;" horiz-adv-x="434" 
d="M410 23q-14 -19 -35 -29.5t-45 -10.5q-19 0 -34.5 6t-30.5 13.5t-31 15t-37 10.5q-41 -45 -104 -45q-34 0 -60 17l12 87q20 -5 36 -5q48 0 72 25.5t24 82.5q0 22 -5.5 41t-13.5 36h-85l9 67h52q-30 43 -30 104q0 13 1.5 26t3.5 28q6 46 19.5 81t36.5 59t58 36t84 12
q32 0 60.5 -5.5t49.5 -18.5t33.5 -36t12.5 -57q0 -7 -0.5 -14t-1.5 -15l-10 -68h-106l6 43q1 6 1.5 11.5t0.5 10.5q0 28 -14 40t-42 12q-23 0 -37 -6t-22 -18t-12 -30t-7 -42q-2 -14 -3 -26.5t-1 -23.5q0 -34 8 -58t21 -45h164l-9 -67h-138q8 -15 12.5 -31t4.5 -37
q0 -53 -31 -101q35 -5 58.5 -14.5t50.5 -9.5q38 0 65 31z" />
    <glyph glyph-name="currency" unicode="&#xa4;" horiz-adv-x="551" 
d="M416 175q-28 -17 -58.5 -26.5t-62.5 -9.5q-65 0 -111 36l-72 -67l-50 58l77 63q-23 37 -23 86q0 42 14.5 78t39.5 68l-57 63l65 56l52 -65q28 17 59 27t64 10q32 0 60.5 -10t51.5 -27l70 65l48 -56l-74 -63q24 -39 24 -89q0 -42 -15 -78t-41 -65l57 -63l-64 -58zM479 345
q1 5 1 11v11q0 28 -10 52.5t-28 42.5t-42.5 28t-53.5 10q-35 0 -67 -14t-57 -38.5t-39.5 -56.5t-14.5 -68q0 -28 10 -52t27.5 -42t42 -28t54.5 -10q32 0 62 12t54 33t40 49t21 60z" />
    <glyph glyph-name="yen" unicode="&#xa5;" 
d="M290 81l-11 -81h-117l11 81h-129l9 65h129l10 71h-129l9 64h129l5 33q-21 15 -39.5 32t-32 38.5t-21.5 48.5t-8 60q0 20 3 43l18 128h119l-17 -123q-1 -7 -1.5 -13.5t-0.5 -12.5q0 -42 16.5 -66.5t35.5 -35.5q15 8 29 18t25.5 24.5t20.5 35t13 50.5l17 123h115l-18 -128
q-6 -44 -20.5 -78t-35.5 -60.5t-47 -47t-54 -36.5l-5 -33h126l-9 -64h-126l-10 -71h126l-9 -65h-126z" />
    <glyph glyph-name="brokenbar" unicode="&#xa6;" horiz-adv-x="375" 
d="M126 -125l52 372h87l-52 -372h-87zM199 397l48 339h87l-48 -339h-87z" />
    <glyph glyph-name="section" unicode="&#xa7;" horiz-adv-x="436" 
d="M148 40q-1 -4 -1 -7.5v-6.5q0 -28 18 -34.5t43 -6.5q24 0 39.5 6.5t24 18.5t11.5 29t3 38q0 31 -15.5 45.5t-39 21.5t-50.5 11.5t-50.5 14.5t-39 30t-15.5 59q0 40 13 66.5t35 42t50.5 22t59.5 6.5q-48 11 -80.5 41.5t-32.5 81.5q0 5 0.5 10.5t1.5 10.5q6 44 25.5 71.5
t47 42.5t61 20.5t68.5 5.5q26 0 52.5 -3t48.5 -13t35.5 -28t13.5 -48v-9.5t-1 -9.5l-6 -47h-101l4 37q0 11 -5 17.5t-12.5 9.5t-17 3.5t-19.5 0.5q-13 0 -27.5 -1t-27 -6.5t-20.5 -18t-8 -34.5q0 -25 18 -39t44 -23t54.5 -15t48.5 -15q30 -14 41 -38t11 -53q0 -30 -7 -58.5
t-22 -50.5t-38.5 -35t-57.5 -13q42 -14 59 -41t17 -66q0 -8 -0.5 -15.5t-1.5 -15.5q-7 -47 -24 -78t-43 -49.5t-60.5 -26t-75.5 -7.5q-28 0 -56.5 3.5t-51 14t-37 30.5t-14.5 52q0 5 0.5 10.5t1.5 10.5l8 57h104zM324 296q0 17 -14 22t-45 5q-40 0 -56 -7.5t-16 -34.5
q0 -17 14 -23t48 -6q38 0 52 7.5t17 29.5v7z" />
    <glyph glyph-name="dieresis" unicode="&#xa8;" horiz-adv-x="429" 
d="M143 554l19 133h104l-19 -133h-104zM335 554l19 133h105l-19 -133h-105z" />
    <glyph glyph-name="ordfeminine" unicode="&#xaa;" horiz-adv-x="256" 
d="M265 299q-17 -8 -39 -13t-57 -5q-45 0 -70.5 14.5t-25.5 52.5v8t1 9l3 21q3 23 12.5 37.5t23 23t29.5 11.5t33 3q14 0 24 -2.5t17 -5.5l4 29q0 24 -27 24q-23 0 -43 -4.5t-44 -13.5l10 68q32 17 90 17q36 0 60.5 -14.5t24.5 -55.5v-10t-1 -10zM209 405q-5 2 -13 4.5
t-14 2.5q-29 0 -32 -23l-2 -17q-1 -2 -1 -7q0 -17 28 -17q19 0 27 3z" />
    <glyph glyph-name="guillemotleft" unicode="&#xab;" horiz-adv-x="466" 
d="M65 317l164 174l43 -55l-117 -119l83 -118l-58 -54zM298 317l164 174l43 -55l-117 -119l83 -118l-58 -54z" />
    <glyph glyph-name="logicalnot" unicode="&#xac;" horiz-adv-x="619" 
d="M471 0l55 392h-424l14 100h524l-69 -492h-100z" />
    <glyph glyph-name="macron" unicode="&#xaf;" horiz-adv-x="412" 
d="M130 593l10 73h317l-10 -73h-317z" />
    <glyph glyph-name="degree" unicode="&#xb0;" horiz-adv-x="399" 
d="M247 355q-68 0 -97 35.5t-29 87.5q0 40 10.5 75t31.5 61.5t53 42t76 15.5q68 0 97.5 -35t29.5 -89q0 -39 -10.5 -74t-32 -61.5t-54 -42t-75.5 -15.5zM255 406q27 0 47.5 11t34 29.5t20 42.5t6.5 50q0 36 -18 59.5t-60 23.5q-27 0 -47.5 -11t-33.5 -29.5t-19.5 -42.5
t-6.5 -51q0 -35 17.5 -58.5t59.5 -23.5z" />
    <glyph glyph-name="plusminus" unicode="&#xb1;" horiz-adv-x="556" 
d="M252 110l27 194h-192l11 80h192l28 193h80l-28 -193h194l-11 -80h-194l-27 -194h-80zM46 1l11 80h466l-11 -80h-466z" />
    <glyph glyph-name="uni00B2" unicode="&#xb2;" horiz-adv-x="242" 
d="M79 343l13 92q5 32 15 54t34 33t39 16t23.5 11t12.5 16.5t7 32.5q1 3 1 11q0 9 -4 12t-14 3q-22 0 -25 -15l-4 -31h-61l5 34q6 42 31.5 56.5t61.5 14.5q45 0 62 -15t17 -47q0 -60 -18.5 -89t-57.5 -43q-23 -9 -35.5 -16t-15.5 -29l-5 -39h102l-9 -62h-175z" />
    <glyph glyph-name="uni00B3" unicode="&#xb3;" horiz-adv-x="238" 
d="M265 415q-7 -46 -35 -63.5t-70 -17.5q-35 0 -55.5 13.5t-20.5 48.5v9.5t1 9.5l4 30h65l-3 -25q0 -2 -0.5 -3.5t-0.5 -2.5q0 -13 19 -13q11 0 17 3.5t8 14.5l5 39q0 3 0.5 5.5t0.5 4.5q0 19 -19 19h-22l7 50h22q14 0 19 7.5t7 21.5l5 37q0 14 -19 14q-13 0 -17.5 -4
t-6.5 -16l-4 -24h-65l4 29q7 47 32 64t66 17q38 0 59.5 -13.5t21.5 -48.5v-9.5t-1 -9.5l-2 -18q-2 -22 -14 -43t-34 -29q17 -6 24 -21.5t7 -32.5q0 -12 -1 -15z" />
    <glyph glyph-name="acute" unicode="&#xb4;" horiz-adv-x="306" 
d="M114 534l8 57l244 119l-11 -83z" />
    <glyph glyph-name="mu" unicode="&#xb5;" horiz-adv-x="421" 
d="M6 -233l102 725h108l-48 -342q-1 -4 -1 -7.5v-6.5q0 -25 14 -36.5t39 -11.5q23 0 39.5 3t27.5 8l56 393h107l-68 -481q-26 -9 -65 -18.5t-84 -9.5q-42 0 -60.5 6.5t-25.5 14.5l-33 -237h-108z" />
    <glyph glyph-name="mu" unicode="&#x3bc;" horiz-adv-x="421" 
d="M6 -233l102 725h108l-48 -342q-1 -4 -1 -7.5v-6.5q0 -25 14 -36.5t39 -11.5q23 0 39.5 3t27.5 8l56 393h107l-68 -481q-26 -9 -65 -18.5t-84 -9.5q-42 0 -60.5 6.5t-25.5 14.5l-33 -237h-108z" />
    <glyph glyph-name="paragraph" unicode="&#xb6;" horiz-adv-x="511" 
d="M334 -100l97 686h-99l-97 -686h-82l69 491q-23 1 -42 5t-32.5 14.5t-21 28.5t-7.5 48q0 81 35 129t101 48h311l-11 -78h-43l-97 -686h-81z" />
    <glyph glyph-name="periodcentered" unicode="&#xb7;" horiz-adv-x="243" 
d="M96 240l21 151h117l-21 -151h-117z" />
    <glyph glyph-name="cedilla" unicode="&#xb8;" horiz-adv-x="225" 
d="M52 -34h111l-8 -52q-5 -32 -17 -60t-29.5 -49t-40 -34t-47.5 -14z" />
    <glyph glyph-name="uni00B9" unicode="&#xb9;" horiz-adv-x="165" 
d="M107 343l35 253q0 14 -19 14q-6 0 -12 -2l10 70q3 0 6 0.5t6 0.5q35 0 59.5 -14t24.5 -51v-7.5t-1 -8.5l-36 -255h-73z" />
    <glyph glyph-name="ordmasculine" unicode="&#xba;" horiz-adv-x="252" 
d="M274 370q-8 -51 -38 -70t-72 -19q-39 0 -63 14.5t-24 53.5q0 5 0.5 10t1.5 11l15 113q7 52 37.5 71t73.5 19q36 0 60.5 -15t24.5 -55v-10t-1 -10zM220 480v5q0 20 -25 20q-13 0 -21.5 -5.5t-10.5 -19.5l-15 -107q0 -2 -0.5 -3t-0.5 -3q0 -11 8 -14.5t19 -3.5q12 0 20.5 5
t10.5 19z" />
    <glyph glyph-name="guillemotright" unicode="&#xbb;" horiz-adv-x="466" 
d="M48 199l118 118l-84 119l58 55l115 -174l-164 -172zM281 199l118 118l-84 119l58 55l115 -174l-164 -172z" />
    <glyph glyph-name="onequarter" unicode="&#xbc;" horiz-adv-x="536" 
d="M152 343l35 253q0 14 -19 14q-6 0 -12 -2l10 70q3 0 6 0.5t6 0.5q35 0 59.5 -14t24.5 -51v-7.5t-1 -8.5l-36 -255h-73zM29 -20l469 704h86l-471 -704h-84zM435 -10l8 59h-120l10 68l118 205h69l-116 -210h50l9 61h65l-26 -183h-67z" />
    <glyph glyph-name="onehalf" unicode="&#xbd;" horiz-adv-x="542" 
d="M152 343l35 253q0 14 -19 14q-6 0 -12 -2l10 70q3 0 6 0.5t6 0.5q35 0 59.5 -14t24.5 -51v-7.5t-1 -8.5l-36 -255h-73zM30 -20l469 704h86l-471 -704h-84zM331 -10l13 92q5 32 15 54t34 33t39 16t23.5 11t12.5 16.5t7 32.5q1 3 1 11q0 9 -4 12t-14 3q-22 0 -25 -15
l-4 -31h-61l5 34q6 42 31.5 56.5t61.5 14.5q45 0 62 -15t17 -47q0 -60 -18.5 -89t-57.5 -43q-23 -9 -35.5 -16t-15.5 -29l-5 -39h102l-9 -62h-175z" />
    <glyph glyph-name="threequarters" unicode="&#xbe;" horiz-adv-x="533" 
d="M269 415q-7 -46 -35 -63.5t-70 -17.5q-35 0 -55.5 13.5t-20.5 48.5v9.5t1 9.5l4 30h65l-3 -25q0 -2 -0.5 -3.5t-0.5 -2.5q0 -13 19 -13q11 0 17 3.5t8 14.5l5 39q0 3 0.5 5.5t0.5 4.5q0 19 -19 19h-22l7 50h22q14 0 19 7.5t7 21.5l5 37q0 14 -19 14q-13 0 -17.5 -4
t-6.5 -16l-4 -24h-65l4 29q7 47 32 64t66 17q38 0 59.5 -13.5t21.5 -48.5v-9.5t-1 -9.5l-2 -18q-2 -22 -14 -43t-34 -29q17 -6 24 -21.5t7 -32.5q0 -12 -1 -15zM31 -20l469 704h86l-471 -704h-84zM417 -10l8 59h-120l10 68l118 205h69l-116 -210h50l9 61h65l-26 -183h-67z
" />
    <glyph glyph-name="questiondown" unicode="&#xbf;" horiz-adv-x="386" 
d="M367.007 664l-19.999 -145.991h-114.992l19.998 145.991h114.993zM335.009 455.013l-5 -34.998q-2.99902 -21.998 -7.99902 -40.4971t-14.999 -33.998q-10 -15.499 -25.499 -29.498t-39.4971 -28.998q-21.999 -13 -36.998 -22.999t-24.498 -19.999
q-9.5 -9.99902 -14.499 -21.998q-5 -12 -8 -29.998q-3 -19.999 -5 -34.998q-1.99902 -14.999 -1.99902 -27.999q0 -24.998 11.499 -36.4971q11.499 -11.5 43.4971 -11.5q21.999 0 35.498 3.5t21.499 12.499q7.99902 9 11.999 22.999t6.99902 34.998l6 42.9971h105.993
l-7.99902 -55.9961q-6 -44.998 -20.499 -75.4961t-38.4971 -48.9971q-23.999 -18.498 -57.4971 -25.998t-78.4951 -7.5q-83.9951 0 -117.993 26.999q-33.9971 26.998 -33.9971 90.9941q0 13.999 1.49902 29.998q1.5 15.999 3.5 33.998q6 41.9971 13.499 68.9961
q7.5 26.998 18.499 44.9971q11 17.999 26.999 30.498t37.9971 24.499q45.9971 25.998 63.4961 47.4971q17.499 21.498 21.499 45.4971l4 26.998h104.993z" />
    <glyph glyph-name="Agrave" unicode="&#xc0;" 
d="M287 0l32 231h-139l-32 -231h-115l59 426q7 55 28 95t51 69.5t67 50.5t76 39q29 -16 57 -34.5t49.5 -43.5t34.5 -57.5t13 -75.5q0 -21 -3 -43l-59 -426h-119zM347 434q1 7 1.5 13.5t0.5 12.5q0 38 -16.5 57t-37.5 32q-14 -8 -28 -17t-26 -22t-21 -31.5t-12 -44.5
l-14 -105h139zM197 799l11 83l212 -119l-8 -57z" />
    <glyph glyph-name="Aacute" unicode="&#xc1;" 
d="M287 0l32 231h-139l-32 -231h-115l59 426q7 55 28 95t51 69.5t67 50.5t76 39q29 -16 57 -34.5t49.5 -43.5t34.5 -57.5t13 -75.5q0 -21 -3 -43l-59 -426h-119zM347 434q1 7 1.5 13.5t0.5 12.5q0 38 -16.5 57t-37.5 32q-14 -8 -28 -17t-26 -22t-21 -31.5t-12 -44.5
l-14 -105h139zM224 706l8 57l244 119l-11 -83z" />
    <glyph glyph-name="Acircumflex" unicode="&#xc2;" 
d="M287 0l32 231h-139l-32 -231h-115l59 426q7 55 28 95t51 69.5t67 50.5t76 39q29 -16 57 -34.5t49.5 -43.5t34.5 -57.5t13 -75.5q0 -21 -3 -43l-59 -426h-119zM347 434q1 7 1.5 13.5t0.5 12.5q0 38 -16.5 57t-37.5 32q-14 -8 -28 -17t-26 -22t-21 -31.5t-12 -44.5
l-14 -105h139zM340 853l-159 -130l-31 41l155 144h85l114 -144l-43 -41z" />
    <glyph glyph-name="Atilde" unicode="&#xc3;" 
d="M287 0l32 231h-139l-32 -231h-115l59 426q7 55 28 95t51 69.5t67 50.5t76 39q29 -16 57 -34.5t49.5 -43.5t34.5 -57.5t13 -75.5q0 -21 -3 -43l-59 -426h-119zM347 434q1 7 1.5 13.5t0.5 12.5q0 38 -16.5 57t-37.5 32q-14 -8 -28 -17t-26 -22t-21 -31.5t-12 -44.5
l-14 -105h139zM168 765l10 73h317l-10 -73h-317z" />
    <glyph glyph-name="Adieresis" unicode="&#xc4;" 
d="M287 0l32 231h-139l-32 -231h-115l59 426q7 55 28 95t51 69.5t67 50.5t76 39q29 -16 57 -34.5t49.5 -43.5t34.5 -57.5t13 -75.5q0 -21 -3 -43l-59 -426h-119zM347 434q1 7 1.5 13.5t0.5 12.5q0 38 -16.5 57t-37.5 32q-14 -8 -28 -17t-26 -22t-21 -31.5t-12 -44.5
l-14 -105h139zM172 726l19 133h104l-19 -133h-104zM364 726l19 133h105l-19 -133h-105z" />
    <glyph glyph-name="Aring" unicode="&#xc5;" 
d="M287 0l32 231h-139l-32 -231h-115l59 426q7 55 28 95t51 69.5t67 50.5t76 39q29 -16 57 -34.5t49.5 -43.5t34.5 -57.5t13 -75.5q0 -21 -3 -43l-59 -426h-119zM347 434q1 7 1.5 13.5t0.5 12.5q0 38 -16.5 57t-37.5 32q-14 -8 -28 -17t-26 -22t-21 -31.5t-12 -44.5
l-14 -105h139zM432 792q-7 -48 -33 -72t-83 -24q-89 0 -89 74q0 57 29.5 87.5t86.5 30.5q49 0 69.5 -19.5t20.5 -55.5v-10.5t-1 -10.5zM390 792q0 3 0.5 6.5t0.5 6.5q0 45 -53 45q-30 0 -47.5 -18t-17.5 -54q0 -43 49 -43q59 0 68 57z" />
    <glyph glyph-name="AE" unicode="&#xc6;" horiz-adv-x="533" 
d="M249 0l32 231h-100l-32 -231h-116l59 426q8 58 29.5 102.5t53.5 74.5t72 45.5t85 15.5h262l-14 -100h-138l-24 -168h124l-14 -99h-124l-27 -195h144l-14 -102h-258zM328 564h-10q-21 0 -39.5 -10.5t-33 -29t-24 -44t-13.5 -54.5l-13 -98h100z" />
    <glyph glyph-name="Ccedilla" unicode="&#xc7;" horiz-adv-x="417" 
d="M319 276h105l-18 -131q-6 -47 -23 -78t-42 -49.5t-57.5 -26.5t-69.5 -8q-35 0 -65 6.5t-52 21t-34.5 39t-12.5 60.5q0 17 3 35l52 373q6 46 24.5 77.5t46.5 50t63 26.5t73 8q33 0 60.5 -6t47 -20.5t30.5 -38t11 -58.5q0 -18 -3 -39l-19 -139h-105l19 134q1 4 1 8v8
q0 23 -12.5 34.5t-44.5 11.5q-37 0 -53.5 -14.5t-21.5 -47.5l-49 -347q-3 -17 -3 -29q0 -24 12 -36t47 -12q38 0 52.5 14.5t19.5 45.5zM153 -34h111l-8 -52q-5 -32 -17 -60t-29.5 -49t-40 -34t-47.5 -14z" />
    <glyph glyph-name="Egrave" unicode="&#xc8;" horiz-adv-x="333" 
d="M39 0l93 664h262l-14 -99h-145l-24 -168h132l-14 -99h-132l-27 -196h151l-14 -102h-268zM145 799l11 83l212 -119l-8 -57z" />
    <glyph glyph-name="Eacute" unicode="&#xc9;" horiz-adv-x="333" 
d="M39 0l93 664h262l-14 -99h-145l-24 -168h132l-14 -99h-132l-27 -196h151l-14 -102h-268zM174 706l8 57l244 119l-11 -83z" />
    <glyph glyph-name="Ecircumflex" unicode="&#xca;" horiz-adv-x="333" 
d="M39 0l93 664h262l-14 -99h-145l-24 -168h132l-14 -99h-132l-27 -196h151l-14 -102h-268zM289 853l-159 -130l-31 41l155 144h85l114 -144l-43 -41z" />
    <glyph glyph-name="Edieresis" unicode="&#xcb;" horiz-adv-x="333" 
d="M39 0l93 664h262l-14 -99h-145l-24 -168h132l-14 -99h-132l-27 -196h151l-14 -102h-268zM121 726l19 133h104l-19 -133h-104zM313 726l19 133h105l-19 -133h-105z" />
    <glyph glyph-name="Igrave" unicode="&#xcc;" horiz-adv-x="195" 
d="M39 0l93 664h117l-93 -664h-117zM78 799l11 83l212 -119l-8 -57z" />
    <glyph glyph-name="Iacute" unicode="&#xcd;" horiz-adv-x="195" 
d="M39 0l93 664h117l-93 -664h-117zM105 706l8 57l244 119l-11 -83z" />
    <glyph glyph-name="Icircumflex" unicode="&#xce;" horiz-adv-x="195" 
d="M39 0l93 664h117l-93 -664h-117zM220 853l-159 -130l-31 41l155 144h85l114 -144l-43 -41z" />
    <glyph glyph-name="Idieresis" unicode="&#xcf;" horiz-adv-x="195" 
d="M39 0l93 664h117l-93 -664h-117zM52 726l19 133h104l-19 -133h-104zM244 726l19 133h105l-19 -133h-105z" />
    <glyph glyph-name="Eth" unicode="&#xd0;" horiz-adv-x="447" 
d="M41 0l41 298h-26l14 99h26l38 267h187q33 0 62.5 -7t51.5 -24t35 -45.5t13 -71.5q0 -11 -1 -23t-3 -25l-39 -279q-8 -52 -27.5 -88t-48 -58.5t-63.5 -32.5t-73 -10h-187zM365 484q1 6 1.5 12t0.5 11q0 32 -15.5 45t-44.5 13h-70l-24 -168h74l-14 -99h-74l-27 -196h70
q34 0 53.5 17.5t26.5 62.5z" />
    <glyph glyph-name="Ntilde" unicode="&#xd1;" horiz-adv-x="448" 
d="M295 0l72 515q0 3 0.5 6t0.5 6q0 27 -17 37.5t-44 10.5q-25 0 -42 -3t-30 -8l-79 -564h-117l91 651q28 9 75 19t119 10q37 0 67 -7t51 -23t32.5 -43t11.5 -67v-10.5t-2 -10.5l-72 -519h-117zM172 765l10 73h317l-10 -73h-317z" />
    <glyph glyph-name="Ograve" unicode="&#xd2;" 
d="M105 518q7 46 26 77.5t46.5 50t62.5 26.5t74 8q37 0 67.5 -7t52 -23.5t33.5 -44t12 -67.5v-10t-2 -10l-52 -373q-6 -47 -25.5 -78t-48 -49.5t-63.5 -26.5t-72 -8q-35 0 -65 6.5t-52.5 21.5t-35.5 39.5t-13 60.5q0 16 3 34zM358 512q1 5 1 9.5v9.5q0 26 -14 34.5t-46 8.5
q-35 0 -54 -13t-24 -49l-50 -362q-1 -5 -1.5 -9t-0.5 -9q0 -24 15 -33t47 -9q35 0 53.5 12.5t23.5 47.5zM197 799l11 83l212 -119l-8 -57z" />
    <glyph glyph-name="Oacute" unicode="&#xd3;" 
d="M105 518q7 46 26 77.5t46.5 50t62.5 26.5t74 8q37 0 67.5 -7t52 -23.5t33.5 -44t12 -67.5v-10t-2 -10l-52 -373q-6 -47 -25.5 -78t-48 -49.5t-63.5 -26.5t-72 -8q-35 0 -65 6.5t-52.5 21.5t-35.5 39.5t-13 60.5q0 16 3 34zM358 512q1 5 1 9.5v9.5q0 26 -14 34.5t-46 8.5
q-35 0 -54 -13t-24 -49l-50 -362q-1 -5 -1.5 -9t-0.5 -9q0 -24 15 -33t47 -9q35 0 53.5 12.5t23.5 47.5zM224 706l8 57l244 119l-11 -83z" />
    <glyph glyph-name="Ocircumflex" unicode="&#xd4;" 
d="M105 518q7 46 26 77.5t46.5 50t62.5 26.5t74 8q37 0 67.5 -7t52 -23.5t33.5 -44t12 -67.5v-10t-2 -10l-52 -373q-6 -47 -25.5 -78t-48 -49.5t-63.5 -26.5t-72 -8q-35 0 -65 6.5t-52.5 21.5t-35.5 39.5t-13 60.5q0 16 3 34zM358 512q1 5 1 9.5v9.5q0 26 -14 34.5t-46 8.5
q-35 0 -54 -13t-24 -49l-50 -362q-1 -5 -1.5 -9t-0.5 -9q0 -24 15 -33t47 -9q35 0 53.5 12.5t23.5 47.5zM340 853l-159 -130l-31 41l155 144h85l114 -144l-43 -41z" />
    <glyph glyph-name="Otilde" unicode="&#xd5;" 
d="M105 518q7 46 26 77.5t46.5 50t62.5 26.5t74 8q37 0 67.5 -7t52 -23.5t33.5 -44t12 -67.5v-10t-2 -10l-52 -373q-6 -47 -25.5 -78t-48 -49.5t-63.5 -26.5t-72 -8q-35 0 -65 6.5t-52.5 21.5t-35.5 39.5t-13 60.5q0 16 3 34zM358 512q1 5 1 9.5v9.5q0 26 -14 34.5t-46 8.5
q-35 0 -54 -13t-24 -49l-50 -362q-1 -5 -1.5 -9t-0.5 -9q0 -24 15 -33t47 -9q35 0 53.5 12.5t23.5 47.5zM168 765l10 73h317l-10 -73h-317z" />
    <glyph glyph-name="Odieresis" unicode="&#xd6;" 
d="M105 518q7 46 26 77.5t46.5 50t62.5 26.5t74 8q37 0 67.5 -7t52 -23.5t33.5 -44t12 -67.5v-10t-2 -10l-52 -373q-6 -47 -25.5 -78t-48 -49.5t-63.5 -26.5t-72 -8q-35 0 -65 6.5t-52.5 21.5t-35.5 39.5t-13 60.5q0 16 3 34zM358 512q1 5 1 9.5v9.5q0 26 -14 34.5t-46 8.5
q-35 0 -54 -13t-24 -49l-50 -362q-1 -5 -1.5 -9t-0.5 -9q0 -24 15 -33t47 -9q35 0 53.5 12.5t23.5 47.5zM172 726l19 133h104l-19 -133h-104zM364 726l19 133h105l-19 -133h-105z" />
    <glyph glyph-name="multiply" unicode="&#xd7;" horiz-adv-x="568" 
d="M440 150l-117 136l-155 -135l-49 57l155 136l-117 135l65 57l117 -135l155 136l49 -57l-156 -136l118 -137z" />
    <glyph glyph-name="Oslash" unicode="&#xd8;" 
d="M29 -26l38 68q-17 26 -17 68q0 15 3 35l52 373q6 46 25 77.5t47 50t63 26.5t74 8q63 0 108 -23l37 65l44 -21l-45 -76q11 -17 16 -38t5 -50v-9.5t-2 -9.5l-52 -373q-6 -47 -25.5 -78t-48 -49.5t-63.5 -26.5t-72 -8q-34 0 -63 6t-51 19l-33 -57zM347 432l-178 -307
q2 -20 17.5 -27.5t44.5 -7.5q35 0 53.5 12.5t23.5 47.5zM358 547q-5 16 -19 21.5t-40 5.5q-35 0 -54 -13t-24 -49l-37 -269z" />
    <glyph glyph-name="Ugrave" unicode="&#xd9;" horiz-adv-x="448" 
d="M385 664h117l-92 -652q-26 -9 -73.5 -19t-119.5 -10q-34 0 -64 6t-52 21t-35 39.5t-13 60.5q0 16 3 34l73 520h118l-72 -514q-1 -4 -1 -7.5v-6.5q0 -26 16.5 -36t43.5 -10q47 0 72 11zM202 799l11 83l212 -119l-8 -57z" />
    <glyph glyph-name="Uacute" unicode="&#xda;" horiz-adv-x="448" 
d="M385 664h117l-92 -652q-26 -9 -73.5 -19t-119.5 -10q-34 0 -64 6t-52 21t-35 39.5t-13 60.5q0 16 3 34l73 520h118l-72 -514q-1 -4 -1 -7.5v-6.5q0 -26 16.5 -36t43.5 -10q47 0 72 11zM229 706l8 57l244 119l-11 -83z" />
    <glyph glyph-name="Ucircumflex" unicode="&#xdb;" horiz-adv-x="448" 
d="M385 664h117l-92 -652q-26 -9 -73.5 -19t-119.5 -10q-34 0 -64 6t-52 21t-35 39.5t-13 60.5q0 16 3 34l73 520h118l-72 -514q-1 -4 -1 -7.5v-6.5q0 -26 16.5 -36t43.5 -10q47 0 72 11zM344 853l-159 -130l-31 41l155 144h85l114 -144l-43 -41z" />
    <glyph glyph-name="Udieresis" unicode="&#xdc;" horiz-adv-x="448" 
d="M385 664h117l-92 -652q-26 -9 -73.5 -19t-119.5 -10q-34 0 -64 6t-52 21t-35 39.5t-13 60.5q0 16 3 34l73 520h118l-72 -514q-1 -4 -1 -7.5v-6.5q0 -26 16.5 -36t43.5 -10q47 0 72 11zM176 726l19 133h104l-19 -133h-104zM368 726l19 133h105l-19 -133h-105z" />
    <glyph glyph-name="Yacute" unicode="&#xdd;" horiz-adv-x="426" 
d="M155 0l32 233q-21 15 -39.5 32t-32 38.5t-21.5 48.5t-8 60q0 20 3 43l30 209h119l-30 -215q-1 -7 -1.5 -13.5t-0.5 -12.5q0 -38 16.5 -58.5t36.5 -33.5q15 8 29 17.5t25.5 23t20 32.5t12.5 45l30 215h115l-30 -209q-6 -43 -21 -77t-36 -61t-46.5 -47.5t-53.5 -36.5
l-32 -233h-117zM218 706l8 57l244 119l-11 -83z" />
    <glyph glyph-name="Thorn" unicode="&#xde;" horiz-adv-x="427" 
d="M39 0l93 664h117l-16 -113h102q71 0 98.5 -33.5t27.5 -96.5q0 -18 -2 -38t-5 -43q-7 -51 -19 -90t-32 -66t-51 -41t-76 -14h-102l-18 -129h-117zM277 222q28 0 42 26.5t23 91.5q6 39 6 64q0 29 -9 41.5t-29 12.5h-90l-33 -236h90z" />
    <glyph glyph-name="germandbls" unicode="&#xdf;" horiz-adv-x="546" 
d="M542 136q-10 -79 -49 -116t-120 -37q-78 0 -107.5 23t-29.5 80v9t2 9l8 57h91l-5 -35q-1 -3 -1 -11q0 -19 12 -27t39 -8q28 0 42 11.5t19 42.5l6 37q1 6 1 10.5v9.5q0 30 -16 42t-45 24q-42 17 -57 40t-15 60q0 18 3 41l17 120q1 5 1.5 10t0.5 10q0 23 -12.5 31t-40.5 8
q-21 0 -33.5 -2.5t-20 -9.5t-11 -18t-5.5 -28l-72 -519h-108l73 524q6 45 22.5 75t41.5 48t57 25.5t70 7.5q69 0 108.5 -29.5t39.5 -105.5v-10.5t-2 -10.5l-16 -113q-1 -7 -1.5 -13t-0.5 -12q0 -17 4 -28t12 -19t19.5 -13.5t25.5 -11.5q35 -14 48 -38.5t13 -56.5
q0 -20 -3 -42z" />
    <glyph glyph-name="agrave" unicode="&#xe0;" horiz-adv-x="410" 
d="M375 11q-25 -12 -62.5 -20t-104.5 -8q-83 0 -125.5 28.5t-42.5 99.5v9t2 9l5 39q5 40 22 65t40.5 39t52 19t56.5 5q31 0 53 -6t33 -13l9 63q1 3 1 12q0 49 -61 49q-44 0 -78 -6.5t-73 -20.5l15 106q27 11 64 18t92 7q33 0 60.5 -6t48 -20.5t32 -38t11.5 -58.5
q0 -8 -0.5 -16t-1.5 -17zM295 209q-11 8 -27 13t-36 5q-32 0 -48.5 -11.5t-21.5 -43.5l-5 -31q-1 -3 -1 -12q0 -44 60 -44q24 0 38.5 3t24.5 8zM159 627l11 83l212 -119l-8 -57z" />
    <glyph glyph-name="aacute" unicode="&#xe1;" horiz-adv-x="410" 
d="M375 11q-25 -12 -62.5 -20t-104.5 -8q-83 0 -125.5 28.5t-42.5 99.5v9t2 9l5 39q5 40 22 65t40.5 39t52 19t56.5 5q31 0 53 -6t33 -13l9 63q1 3 1 12q0 49 -61 49q-44 0 -78 -6.5t-73 -20.5l15 106q27 11 64 18t92 7q33 0 60.5 -6t48 -20.5t32 -38t11.5 -58.5
q0 -8 -0.5 -16t-1.5 -17zM295 209q-11 8 -27 13t-36 5q-32 0 -48.5 -11.5t-21.5 -43.5l-5 -31q-1 -3 -1 -12q0 -44 60 -44q24 0 38.5 3t24.5 8zM186 534l8 57l244 119l-11 -83z" />
    <glyph glyph-name="acircumflex" unicode="&#xe2;" horiz-adv-x="410" 
d="M375 11q-25 -12 -62.5 -20t-104.5 -8q-83 0 -125.5 28.5t-42.5 99.5v9t2 9l5 39q5 40 22 65t40.5 39t52 19t56.5 5q31 0 53 -6t33 -13l9 63q1 3 1 12q0 49 -61 49q-44 0 -78 -6.5t-73 -20.5l15 106q27 11 64 18t92 7q33 0 60.5 -6t48 -20.5t32 -38t11.5 -58.5
q0 -8 -0.5 -16t-1.5 -17zM295 209q-11 8 -27 13t-36 5q-32 0 -48.5 -11.5t-21.5 -43.5l-5 -31q-1 -3 -1 -12q0 -44 60 -44q24 0 38.5 3t24.5 8zM302 681l-159 -130l-31 41l155 144h85l114 -144l-43 -41z" />
    <glyph glyph-name="atilde" unicode="&#xe3;" horiz-adv-x="410" 
d="M375 11q-25 -12 -62.5 -20t-104.5 -8q-83 0 -125.5 28.5t-42.5 99.5v9t2 9l5 39q5 40 22 65t40.5 39t52 19t56.5 5q31 0 53 -6t33 -13l9 63q1 3 1 12q0 49 -61 49q-44 0 -78 -6.5t-73 -20.5l15 106q27 11 64 18t92 7q33 0 60.5 -6t48 -20.5t32 -38t11.5 -58.5
q0 -8 -0.5 -16t-1.5 -17zM295 209q-11 8 -27 13t-36 5q-32 0 -48.5 -11.5t-21.5 -43.5l-5 -31q-1 -3 -1 -12q0 -44 60 -44q24 0 38.5 3t24.5 8zM130 593l10 73h317l-10 -73h-317z" />
    <glyph glyph-name="adieresis" unicode="&#xe4;" horiz-adv-x="410" 
d="M375 11q-25 -12 -62.5 -20t-104.5 -8q-83 0 -125.5 28.5t-42.5 99.5v9t2 9l5 39q5 40 22 65t40.5 39t52 19t56.5 5q31 0 53 -6t33 -13l9 63q1 3 1 12q0 49 -61 49q-44 0 -78 -6.5t-73 -20.5l15 106q27 11 64 18t92 7q33 0 60.5 -6t48 -20.5t32 -38t11.5 -58.5
q0 -8 -0.5 -16t-1.5 -17zM295 209q-11 8 -27 13t-36 5q-32 0 -48.5 -11.5t-21.5 -43.5l-5 -31q-1 -3 -1 -12q0 -44 60 -44q24 0 38.5 3t24.5 8zM135 554l19 133h104l-19 -133h-104zM327 554l19 133h105l-19 -133h-105z" />
    <glyph glyph-name="aring" unicode="&#xe5;" horiz-adv-x="410" 
d="M375 11q-25 -12 -62.5 -20t-104.5 -8q-83 0 -125.5 28.5t-42.5 99.5v9t2 9l5 39q5 40 22 65t40.5 39t52 19t56.5 5q31 0 53 -6t33 -13l9 63q1 3 1 12q0 49 -61 49q-44 0 -78 -6.5t-73 -20.5l15 106q27 11 64 18t92 7q33 0 60.5 -6t48 -20.5t32 -38t11.5 -58.5
q0 -8 -0.5 -16t-1.5 -17zM295 209q-11 8 -27 13t-36 5q-32 0 -48.5 -11.5t-21.5 -43.5l-5 -31q-1 -3 -1 -12q0 -44 60 -44q24 0 38.5 3t24.5 8zM393 620q-7 -48 -33 -72t-83 -24q-89 0 -89 74q0 57 29.5 87.5t86.5 30.5q49 0 69.5 -19.5t20.5 -55.5v-10.5t-1 -10.5zM351 620
q0 3 0.5 6.5t0.5 6.5q0 45 -53 45q-30 0 -47.5 -18t-17.5 -54q0 -43 49 -43q59 0 68 57z" />
    <glyph glyph-name="ae" unicode="&#xe6;" horiz-adv-x="640" 
d="M604 8q-26 -10 -69.5 -17.5t-97.5 -7.5q-53 0 -93 17q-23 -6 -56 -11.5t-81 -5.5q-40 0 -71 6.5t-52.5 21.5t-32.5 40t-11 62v8.5t2 9.5l5 37q5 40 22 65t40.5 39t51.5 19t56 5q31 0 53 -6t34 -14l9 64q0 2 0.5 5t0.5 5q0 23 -15.5 37t-46.5 14q-44 0 -78 -7t-73 -21
l15 107q28 11 64 18t93 7q35 0 64 -7.5t49 -24.5q47 32 121 32q33 0 60.5 -6t48 -20.5t32 -38.5t11.5 -59q0 -8 -0.5 -16t-1.5 -16l-20 -142h-234l-9 -61q-1 -3 -1 -13q0 -30 22 -35.5t57 -5.5q49 0 82 6.5t65 17.5zM295 208q-11 8 -27.5 13t-36.5 5q-32 0 -49.5 -13
t-21.5 -45l-3 -24q-1 -3 -1 -15q0 -44 59 -44q24 0 38.5 2.5t25.5 7.5zM548 340q1 5 1 8.5v8.5q0 22 -12.5 33.5t-43.5 11.5q-36 0 -52 -16t-20 -46l-8 -59h127z" />
    <glyph glyph-name="ccedilla" unicode="&#xe7;" horiz-adv-x="396" 
d="M387 139q-6 -45 -23 -75t-42 -48t-56.5 -25.5t-67.5 -7.5q-33 0 -61 6t-48 20t-31 37t-11 57q0 16 3 36l30 210q6 45 22.5 75t41.5 48t57 25.5t70 7.5q32 0 59.5 -6t47 -20.5t30.5 -38t11 -58.5q0 -8 -0.5 -16t-1.5 -17l-9 -63h-104l8 58q1 3 1 6.5v6.5q0 25 -15 34
t-41 9q-29 0 -47.5 -12t-23.5 -44l-28 -200q-1 -3 -1 -13q0 -25 15 -34t41 -9q29 0 47.5 12t23.5 44l8 62h104zM136 -34h111l-8 -52q-5 -32 -17 -60t-29.5 -49t-40 -34t-47.5 -14z" />
    <glyph glyph-name="egrave" unicode="&#xe8;" horiz-adv-x="404" 
d="M368 8q-26 -10 -69.5 -17.5t-100.5 -7.5q-32 0 -60 6t-48 20t-31.5 37.5t-11.5 58.5q0 16 3 34l30 210q6 45 22.5 75t41.5 48t57 25.5t70 7.5q33 0 60.5 -6t48 -20.5t32 -38.5t11.5 -59q0 -8 -0.5 -16t-1.5 -16l-20 -142h-234l-9 -58q-1 -3 -1 -13q0 -29 20.5 -36.5
t54.5 -7.5q50 0 84 6.5t67 17.5zM313 342q1 4 1 7.5v6.5q0 23 -12.5 34.5t-44.5 11.5q-38 0 -52.5 -17t-19.5 -48l-8 -56h127zM156 627l11 83l212 -119l-8 -57z" />
    <glyph glyph-name="eacute" unicode="&#xe9;" horiz-adv-x="404" 
d="M368 8q-26 -10 -69.5 -17.5t-100.5 -7.5q-32 0 -60 6t-48 20t-31.5 37.5t-11.5 58.5q0 16 3 34l30 210q6 45 22.5 75t41.5 48t57 25.5t70 7.5q33 0 60.5 -6t48 -20.5t32 -38.5t11.5 -59q0 -8 -0.5 -16t-1.5 -16l-20 -142h-234l-9 -58q-1 -3 -1 -13q0 -29 20.5 -36.5
t54.5 -7.5q50 0 84 6.5t67 17.5zM313 342q1 4 1 7.5v6.5q0 23 -12.5 34.5t-44.5 11.5q-38 0 -52.5 -17t-19.5 -48l-8 -56h127zM178 534l8 57l244 119l-11 -83z" />
    <glyph glyph-name="ecircumflex" unicode="&#xea;" horiz-adv-x="404" 
d="M368 8q-26 -10 -69.5 -17.5t-100.5 -7.5q-32 0 -60 6t-48 20t-31.5 37.5t-11.5 58.5q0 16 3 34l30 210q6 45 22.5 75t41.5 48t57 25.5t70 7.5q33 0 60.5 -6t48 -20.5t32 -38.5t11.5 -59q0 -8 -0.5 -16t-1.5 -16l-20 -142h-234l-9 -58q-1 -3 -1 -13q0 -29 20.5 -36.5
t54.5 -7.5q50 0 84 6.5t67 17.5zM313 342q1 4 1 7.5v6.5q0 23 -12.5 34.5t-44.5 11.5q-38 0 -52.5 -17t-19.5 -48l-8 -56h127zM299 681l-159 -130l-31 41l155 144h85l114 -144l-43 -41z" />
    <glyph glyph-name="edieresis" unicode="&#xeb;" horiz-adv-x="404" 
d="M368 8q-26 -10 -69.5 -17.5t-100.5 -7.5q-32 0 -60 6t-48 20t-31.5 37.5t-11.5 58.5q0 16 3 34l30 210q6 45 22.5 75t41.5 48t57 25.5t70 7.5q33 0 60.5 -6t48 -20.5t32 -38.5t11.5 -59q0 -8 -0.5 -16t-1.5 -16l-20 -142h-234l-9 -58q-1 -3 -1 -13q0 -29 20.5 -36.5
t54.5 -7.5q50 0 84 6.5t67 17.5zM313 342q1 4 1 7.5v6.5q0 23 -12.5 34.5t-44.5 11.5q-38 0 -52.5 -17t-19.5 -48l-8 -56h127zM132 554l19 133h104l-19 -133h-104zM324 554l19 133h105l-19 -133h-105z" />
    <glyph glyph-name="igrave" unicode="&#xec;" horiz-adv-x="193" 
d="M42 0l69 492h108l-69 -492h-108zM52 627l11 83l212 -119l-8 -57z" />
    <glyph glyph-name="iacute" unicode="&#xed;" horiz-adv-x="193" 
d="M42 0l69 492h108l-69 -492h-108zM79 534l8 57l244 119l-11 -83z" />
    <glyph glyph-name="icircumflex" unicode="&#xee;" horiz-adv-x="193" 
d="M42 0l69 492h108l-69 -492h-108zM194 681l-159 -130l-31 41l155 144h85l114 -144l-43 -41z" />
    <glyph glyph-name="idieresis" unicode="&#xef;" horiz-adv-x="193" 
d="M42 0l69 492h108l-69 -492h-108zM26 554l19 133h104l-19 -133h-104zM218 554l19 133h105l-19 -133h-105z" />
    <glyph glyph-name="eth" unicode="&#xf0;" horiz-adv-x="417" 
d="M399 139q-6 -45 -23 -75t-42.5 -48t-58.5 -25.5t-70 -7.5q-32 0 -60.5 6t-49.5 20.5t-33.5 38.5t-12.5 59q0 14 3 32l23 160q7 49 24.5 79.5t41 47.5t51 23t54.5 6q30 0 47 -8t30 -23q1 6 1.5 12.5t0.5 12.5q0 22 -5 44t-13 42l-134 -36l-8 57l115 30q-19 28 -45 50
t-55 36h115q57 -15 92 -57l66 17l9 -56l-45 -12q22 -51 22 -113q0 -15 -1.5 -30t-3.5 -30zM316 314q-11 16 -25 23.5t-38 7.5q-28 0 -46 -12.5t-23 -45.5l-19 -132q-1 -4 -1 -7.5v-6.5q0 -50 57 -50q29 0 47.5 13t23.5 45z" />
    <glyph glyph-name="ntilde" unicode="&#xf1;" horiz-adv-x="417" 
d="M274 0l47 341q1 3 1 15q0 24 -14.5 34t-39.5 10q-24 0 -40 -3t-27 -8l-54 -389h-108l67 477q26 9 68 18.5t109 9.5q33 0 60.5 -6t47.5 -20.5t31 -38t11 -58.5q0 -8 -0.5 -16t-1.5 -17l-49 -349h-108zM133 593l10 73h317l-10 -73h-317z" />
    <glyph glyph-name="ograve" unicode="&#xf2;" horiz-adv-x="404" 
d="M392 139q-6 -45 -23.5 -75t-43 -48t-58 -25.5t-68.5 -7.5q-34 0 -62 6t-48 20t-31 37t-11 57q0 16 3 36l30 210q6 45 22.5 75t41.5 48t57.5 25.5t70.5 7.5q33 0 60.5 -6t48 -20.5t32 -38.5t11.5 -59q0 -8 -0.5 -16t-1.5 -16zM314 344q0 3 0.5 6t0.5 6q0 25 -15.5 34.5
t-41.5 9.5q-29 0 -48 -12t-24 -44l-28 -200q-1 -3 -1 -13q0 -25 15.5 -34t41.5 -9q29 0 48 12t24 44zM156 627l11 83l212 -119l-8 -57z" />
    <glyph glyph-name="oacute" unicode="&#xf3;" horiz-adv-x="404" 
d="M392 139q-6 -45 -23.5 -75t-43 -48t-58 -25.5t-68.5 -7.5q-34 0 -62 6t-48 20t-31 37t-11 57q0 16 3 36l30 210q6 45 22.5 75t41.5 48t57.5 25.5t70.5 7.5q33 0 60.5 -6t48 -20.5t32 -38.5t11.5 -59q0 -8 -0.5 -16t-1.5 -16zM314 344q0 3 0.5 6t0.5 6q0 25 -15.5 34.5
t-41.5 9.5q-29 0 -48 -12t-24 -44l-28 -200q-1 -3 -1 -13q0 -25 15.5 -34t41.5 -9q29 0 48 12t24 44zM183 534l8 57l244 119l-11 -83z" />
    <glyph glyph-name="ocircumflex" unicode="&#xf4;" horiz-adv-x="404" 
d="M392 139q-6 -45 -23.5 -75t-43 -48t-58 -25.5t-68.5 -7.5q-34 0 -62 6t-48 20t-31 37t-11 57q0 16 3 36l30 210q6 45 22.5 75t41.5 48t57.5 25.5t70.5 7.5q33 0 60.5 -6t48 -20.5t32 -38.5t11.5 -59q0 -8 -0.5 -16t-1.5 -16zM314 344q0 3 0.5 6t0.5 6q0 25 -15.5 34.5
t-41.5 9.5q-29 0 -48 -12t-24 -44l-28 -200q-1 -3 -1 -13q0 -25 15.5 -34t41.5 -9q29 0 48 12t24 44zM299 681l-159 -130l-31 41l155 144h85l114 -144l-43 -41z" />
    <glyph glyph-name="otilde" unicode="&#xf5;" horiz-adv-x="404" 
d="M392 139q-6 -45 -23.5 -75t-43 -48t-58 -25.5t-68.5 -7.5q-34 0 -62 6t-48 20t-31 37t-11 57q0 16 3 36l30 210q6 45 22.5 75t41.5 48t57.5 25.5t70.5 7.5q33 0 60.5 -6t48 -20.5t32 -38.5t11.5 -59q0 -8 -0.5 -16t-1.5 -16zM314 344q0 3 0.5 6t0.5 6q0 25 -15.5 34.5
t-41.5 9.5q-29 0 -48 -12t-24 -44l-28 -200q-1 -3 -1 -13q0 -25 15.5 -34t41.5 -9q29 0 48 12t24 44zM128 593l10 73h317l-10 -73h-317z" />
    <glyph glyph-name="odieresis" unicode="&#xf6;" horiz-adv-x="404" 
d="M392 139q-6 -45 -23.5 -75t-43 -48t-58 -25.5t-68.5 -7.5q-34 0 -62 6t-48 20t-31 37t-11 57q0 16 3 36l30 210q6 45 22.5 75t41.5 48t57.5 25.5t70.5 7.5q33 0 60.5 -6t48 -20.5t32 -38.5t11.5 -59q0 -8 -0.5 -16t-1.5 -16zM314 344q0 3 0.5 6t0.5 6q0 25 -15.5 34.5
t-41.5 9.5q-29 0 -48 -12t-24 -44l-28 -200q-1 -3 -1 -13q0 -25 15.5 -34t41.5 -9q29 0 48 12t24 44zM132 554l19 133h104l-19 -133h-104zM324 554l19 133h105l-19 -133h-105z" />
    <glyph glyph-name="divide" unicode="&#xf7;" horiz-adv-x="556" 
d="M87 304l11 80h466l-11 -80h-466zM282 454l21 151h117l-21 -151h-117zM230 83l21 151h117l-21 -151h-117z" />
    <glyph glyph-name="oslash" unicode="&#xf8;" horiz-adv-x="404" 
d="M27 -27l39 59q-19 26 -19 70q0 17 3 37l30 210q6 45 22.5 75t41.5 48t57.5 25.5t70.5 7.5q27 0 51 -4t43 -14l35 53l44 -21l-41 -63q20 -29 20 -75q0 -8 -0.5 -16t-1.5 -16l-30 -210q-6 -45 -23.5 -75t-43 -48t-58 -25.5t-68.5 -7.5q-61 0 -98 19l-34 -51zM310 316
l-143 -215q7 -8 19 -10.5t28 -2.5q29 0 48 12t24 44zM301 389q-14 11 -43 11t-48 -12t-24 -44l-23 -166z" />
    <glyph glyph-name="ugrave" unicode="&#xf9;" horiz-adv-x="419" 
d="M339 492h107l-68 -481q-26 -9 -68.5 -18.5t-109.5 -9.5q-32 0 -59.5 6t-47.5 20t-31 37t-11 58q0 15 3 35l50 353h108l-49 -345q-1 -3 -1 -14q0 -25 14.5 -35t39.5 -10q23 0 39.5 3t27.5 8zM163 627l11 83l212 -119l-8 -57z" />
    <glyph glyph-name="uacute" unicode="&#xfa;" horiz-adv-x="419" 
d="M339 492h107l-68 -481q-26 -9 -68.5 -18.5t-109.5 -9.5q-32 0 -59.5 6t-47.5 20t-31 37t-11 58q0 15 3 35l50 353h108l-49 -345q-1 -3 -1 -14q0 -25 14.5 -35t39.5 -10q23 0 39.5 3t27.5 8zM190 534l8 57l244 119l-11 -83z" />
    <glyph glyph-name="ucircumflex" unicode="&#xfb;" horiz-adv-x="419" 
d="M339 492h107l-68 -481q-26 -9 -68.5 -18.5t-109.5 -9.5q-32 0 -59.5 6t-47.5 20t-31 37t-11 58q0 15 3 35l50 353h108l-49 -345q-1 -3 -1 -14q0 -25 14.5 -35t39.5 -10q23 0 39.5 3t27.5 8zM307 681l-159 -130l-31 41l155 144h85l114 -144l-43 -41z" />
    <glyph glyph-name="udieresis" unicode="&#xfc;" horiz-adv-x="419" 
d="M339 492h107l-68 -481q-26 -9 -68.5 -18.5t-109.5 -9.5q-32 0 -59.5 6t-47.5 20t-31 37t-11 58q0 15 3 35l50 353h108l-49 -345q-1 -3 -1 -14q0 -25 14.5 -35t39.5 -10q23 0 39.5 3t27.5 8zM139 554l19 133h104l-19 -133h-104zM331 554l19 133h105l-19 -133h-105z" />
    <glyph glyph-name="yacute" unicode="&#xfd;" horiz-adv-x="406" 
d="M267 17q-16 -8 -37.5 -14t-54.5 -6q-25 0 -48 4.5t-40 17.5t-27.5 35t-10.5 58q0 17 3 40l48 340h107l-47 -333q-1 -4 -1 -7.5v-6.5q0 -26 14 -35t39 -9q24 0 41 5.5t28 12.5l53 373h107l-83 -587q-6 -43 -23 -72t-42.5 -46.5t-57.5 -25t-69 -7.5q-31 0 -57 6t-44.5 19.5
t-29 36t-10.5 55.5q0 16 3 34l6 39h100l-5 -35q-1 -3 -1 -12q0 -22 14 -31.5t38 -9.5q29 0 48 12t24 41zM184 534l8 57l244 119l-11 -83z" />
    <glyph glyph-name="thorn" unicode="&#xfe;" horiz-adv-x="413" 
d="M6 -233l127 905h108l-26 -188q14 8 36 14.5t55 6.5q25 0 48 -5t41 -17.5t28.5 -35.5t10.5 -59q0 -18 -3 -39l-30 -210q-7 -48 -24 -78.5t-40 -48t-50 -23.5t-54 -6q-33 0 -53 6t-33 14l-33 -236h-108zM321 337q1 4 1 7.5v6.5q0 26 -14 35.5t-39 9.5q-24 0 -41 -5.5
t-28 -12.5l-38 -268q9 -7 24.5 -12.5t39.5 -5.5q26 0 45 12t24 46z" />
    <glyph glyph-name="ydieresis" unicode="&#xff;" horiz-adv-x="406" 
d="M267 17q-16 -8 -37.5 -14t-54.5 -6q-25 0 -48 4.5t-40 17.5t-27.5 35t-10.5 58q0 17 3 40l48 340h107l-47 -333q-1 -4 -1 -7.5v-6.5q0 -26 14 -35t39 -9q24 0 41 5.5t28 12.5l53 373h107l-83 -587q-6 -43 -23 -72t-42.5 -46.5t-57.5 -25t-69 -7.5q-31 0 -57 6t-44.5 19.5
t-29 36t-10.5 55.5q0 16 3 34l6 39h100l-5 -35q-1 -3 -1 -12q0 -22 14 -31.5t38 -9.5q29 0 48 12t24 41zM133 554l19 133h104l-19 -133h-104zM325 554l19 133h105l-19 -133h-105z" />
    <glyph glyph-name="Amacron" unicode="&#x100;" 
d="M287 0l32 231h-139l-32 -231h-115l59 426q7 55 28 95t51 69.5t67 50.5t76 39q29 -16 57 -34.5t49.5 -43.5t34.5 -57.5t13 -75.5q0 -21 -3 -43l-59 -426h-119zM347 434q1 7 1.5 13.5t0.5 12.5q0 38 -16.5 57t-37.5 32q-14 -8 -28 -17t-26 -22t-21 -31.5t-12 -44.5
l-14 -105h139zM168 765l10 73h317l-10 -73h-317z" />
    <glyph glyph-name="amacron" unicode="&#x101;" horiz-adv-x="410" 
d="M375 11q-25 -12 -62.5 -20t-104.5 -8q-83 0 -125.5 28.5t-42.5 99.5v9t2 9l5 39q5 40 22 65t40.5 39t52 19t56.5 5q31 0 53 -6t33 -13l9 63q1 3 1 12q0 49 -61 49q-44 0 -78 -6.5t-73 -20.5l15 106q27 11 64 18t92 7q33 0 60.5 -6t48 -20.5t32 -38t11.5 -58.5
q0 -8 -0.5 -16t-1.5 -17zM295 209q-11 8 -27 13t-36 5q-32 0 -48.5 -11.5t-21.5 -43.5l-5 -31q-1 -3 -1 -12q0 -44 60 -44q24 0 38.5 3t24.5 8zM130 593l10 73h317l-10 -73h-317z" />
    <glyph glyph-name="Abreve" unicode="&#x102;" 
d="M287 0l32 231h-139l-32 -231h-115l59 426q7 55 28 95t51 69.5t67 50.5t76 39q29 -16 57 -34.5t49.5 -43.5t34.5 -57.5t13 -75.5q0 -21 -3 -43l-59 -426h-119zM347 434q1 7 1.5 13.5t0.5 12.5q0 38 -16.5 57t-37.5 32q-14 -8 -28 -17t-26 -22t-21 -31.5t-12 -44.5
l-14 -105h139zM502 888q-6 -42 -23.5 -73t-42.5 -51.5t-55 -31t-61 -10.5q-60 0 -98.5 36.5t-38.5 111.5v8.5t2 9.5h66q-1 -5 -1 -8.5v-7.5q0 -86 79 -86q42 0 70 25.5t36 76.5h67z" />
    <glyph glyph-name="abreve" unicode="&#x103;" horiz-adv-x="410" 
d="M375 11q-25 -12 -62.5 -20t-104.5 -8q-83 0 -125.5 28.5t-42.5 99.5v9t2 9l5 39q5 40 22 65t40.5 39t52 19t56.5 5q31 0 53 -6t33 -13l9 63q1 3 1 12q0 49 -61 49q-44 0 -78 -6.5t-73 -20.5l15 106q27 11 64 18t92 7q33 0 60.5 -6t48 -20.5t32 -38t11.5 -58.5
q0 -8 -0.5 -16t-1.5 -17zM295 209q-11 8 -27 13t-36 5q-32 0 -48.5 -11.5t-21.5 -43.5l-5 -31q-1 -3 -1 -12q0 -44 60 -44q24 0 38.5 3t24.5 8zM465 716q-6 -42 -23.5 -73t-42.5 -51.5t-55 -31t-61 -10.5q-60 0 -98.5 36.5t-38.5 111.5v8.5t2 9.5h66q-1 -5 -1 -8.5v-7.5
q0 -86 79 -86q42 0 70 25.5t36 76.5h67z" />
    <glyph glyph-name="Aogonek" unicode="&#x104;" 
d="M373 -229q-5 -2 -17 -3t-35 -1q-35 0 -57 6t-35 16.5t-18 24.5t-5 31q0 53 22 84t76 51l54 20h-71l32 231h-139l-32 -231h-115l59 426q7 55 28 95t51 69.5t67 50.5t76 39q29 -16 57 -34.5t49.5 -43.5t34.5 -57.5t13 -75.5q0 -21 -3 -43l-59 -426l-60 -27q-30 -14 -41 -32
t-11 -42q0 -17 11 -26.5t40 -9.5q24 0 42 5zM347 434q1 7 1.5 13.5t0.5 12.5q0 38 -16.5 57t-37.5 32q-14 -8 -28 -17t-26 -22t-21 -31.5t-12 -44.5l-14 -105h139z" />
    <glyph glyph-name="aogonek" unicode="&#x105;" horiz-adv-x="410" 
d="M314 -229q-5 -2 -17 -3t-35 -1q-35 0 -57 6t-35 16.5t-18 24.5t-5 31q0 54 22 85t76 50l11 4q-11 -1 -22.5 -1h-25.5q-83 0 -125.5 28.5t-42.5 99.5v9t2 9l5 39q5 40 22 65t40.5 39t52 19t56.5 5q31 0 53 -6t33 -13l9 63q1 3 1 12q0 49 -61 49q-44 0 -78 -6.5t-73 -20.5
l15 106q27 11 64 18t92 7q33 0 60.5 -6t48 -20.5t32 -38t11.5 -58.5q0 -8 -0.5 -16t-1.5 -17l-48 -338q-4 -2 -8.5 -4t-13.5 -5.5t-25 -10.5t-41 -18q-30 -14 -41 -31.5t-11 -42.5q0 -17 11 -26.5t40 -9.5q24 0 42 5zM295 209q-11 8 -27 13t-36 5q-32 0 -48.5 -11.5
t-21.5 -43.5l-5 -31q-1 -3 -1 -12q0 -44 60 -44q24 0 38.5 3t24.5 8z" />
    <glyph glyph-name="Cacute" unicode="&#x106;" horiz-adv-x="417" 
d="M319 276h105l-18 -131q-6 -47 -23 -78t-42 -49.5t-57.5 -26.5t-69.5 -8q-35 0 -65 6.5t-52 21t-34.5 39t-12.5 60.5q0 17 3 35l52 373q6 46 24.5 77.5t46.5 50t63 26.5t73 8q33 0 60.5 -6t47 -20.5t30.5 -38t11 -58.5q0 -18 -3 -39l-19 -139h-105l19 134q1 4 1 8v8
q0 23 -12.5 34.5t-44.5 11.5q-37 0 -53.5 -14.5t-21.5 -47.5l-49 -347q-3 -17 -3 -29q0 -24 12 -36t47 -12q38 0 52.5 14.5t19.5 45.5zM213 706l8 57l244 119l-11 -83z" />
    <glyph glyph-name="cacute" unicode="&#x107;" horiz-adv-x="396" 
d="M387 139q-6 -45 -23 -75t-42 -48t-56.5 -25.5t-67.5 -7.5q-33 0 -61 6t-48 20t-31 37t-11 57q0 16 3 36l30 210q6 45 22.5 75t41.5 48t57 25.5t70 7.5q32 0 59.5 -6t47 -20.5t30.5 -38t11 -58.5q0 -8 -0.5 -16t-1.5 -17l-9 -63h-104l8 58q1 3 1 6.5v6.5q0 25 -15 34
t-41 9q-29 0 -47.5 -12t-23.5 -44l-28 -200q-1 -3 -1 -13q0 -25 15 -34t41 -9q29 0 47.5 12t23.5 44l8 62h104zM179 534l8 57l244 119l-11 -83z" />
    <glyph glyph-name="Ccircumflex" unicode="&#x108;" horiz-adv-x="417" 
d="M319 276h105l-18 -131q-6 -47 -23 -78t-42 -49.5t-57.5 -26.5t-69.5 -8q-35 0 -65 6.5t-52 21t-34.5 39t-12.5 60.5q0 17 3 35l52 373q6 46 24.5 77.5t46.5 50t63 26.5t73 8q33 0 60.5 -6t47 -20.5t30.5 -38t11 -58.5q0 -18 -3 -39l-19 -139h-105l19 134q1 4 1 8v8
q0 23 -12.5 34.5t-44.5 11.5q-37 0 -53.5 -14.5t-21.5 -47.5l-49 -347q-3 -17 -3 -29q0 -24 12 -36t47 -12q38 0 52.5 14.5t19.5 45.5zM331 853l-159 -130l-31 41l155 144h85l114 -144l-43 -41z" />
    <glyph glyph-name="ccircumflex" unicode="&#x109;" horiz-adv-x="396" 
d="M387 139q-6 -45 -23 -75t-42 -48t-56.5 -25.5t-67.5 -7.5q-33 0 -61 6t-48 20t-31 37t-11 57q0 16 3 36l30 210q6 45 22.5 75t41.5 48t57 25.5t70 7.5q32 0 59.5 -6t47 -20.5t30.5 -38t11 -58.5q0 -8 -0.5 -16t-1.5 -17l-9 -63h-104l8 58q1 3 1 6.5v6.5q0 25 -15 34
t-41 9q-29 0 -47.5 -12t-23.5 -44l-28 -200q-1 -3 -1 -13q0 -25 15 -34t41 -9q29 0 47.5 12t23.5 44l8 62h104zM295 681l-159 -130l-31 41l155 144h85l114 -144l-43 -41z" />
    <glyph glyph-name="Cdotaccent" unicode="&#x10a;" horiz-adv-x="417" 
d="M319 276h105l-18 -131q-6 -47 -23 -78t-42 -49.5t-57.5 -26.5t-69.5 -8q-35 0 -65 6.5t-52 21t-34.5 39t-12.5 60.5q0 17 3 35l52 373q6 46 24.5 77.5t46.5 50t63 26.5t73 8q33 0 60.5 -6t47 -20.5t30.5 -38t11 -58.5q0 -18 -3 -39l-19 -139h-105l19 134q1 4 1 8v8
q0 23 -12.5 34.5t-44.5 11.5q-37 0 -53.5 -14.5t-21.5 -47.5l-49 -347q-3 -17 -3 -29q0 -24 12 -36t47 -12q38 0 52.5 14.5t19.5 45.5zM260 726l19 133h104l-19 -133h-104z" />
    <glyph glyph-name="cdotaccent" unicode="&#x10b;" horiz-adv-x="396" 
d="M387 139q-6 -45 -23 -75t-42 -48t-56.5 -25.5t-67.5 -7.5q-33 0 -61 6t-48 20t-31 37t-11 57q0 16 3 36l30 210q6 45 22.5 75t41.5 48t57 25.5t70 7.5q32 0 59.5 -6t47 -20.5t30.5 -38t11 -58.5q0 -8 -0.5 -16t-1.5 -17l-9 -63h-104l8 58q1 3 1 6.5v6.5q0 25 -15 34
t-41 9q-29 0 -47.5 -12t-23.5 -44l-28 -200q-1 -3 -1 -13q0 -25 15 -34t41 -9q29 0 47.5 12t23.5 44l8 62h104zM223 554l19 133h104l-19 -133h-104z" />
    <glyph glyph-name="Ccaron" unicode="&#x10c;" horiz-adv-x="417" 
d="M319 276h105l-18 -131q-6 -47 -23 -78t-42 -49.5t-57.5 -26.5t-69.5 -8q-35 0 -65 6.5t-52 21t-34.5 39t-12.5 60.5q0 17 3 35l52 373q6 46 24.5 77.5t46.5 50t63 26.5t73 8q33 0 60.5 -6t47 -20.5t30.5 -38t11 -58.5q0 -18 -3 -39l-19 -139h-105l19 134q1 4 1 8v8
q0 23 -12.5 34.5t-44.5 11.5q-37 0 -53.5 -14.5t-21.5 -47.5l-49 -347q-3 -17 -3 -29q0 -24 12 -36t47 -12q38 0 52.5 14.5t19.5 45.5zM308 703l-155 153l40 42l126 -117l162 117l27 -42z" />
    <glyph glyph-name="ccaron" unicode="&#x10d;" horiz-adv-x="396" 
d="M387 139q-6 -45 -23 -75t-42 -48t-56.5 -25.5t-67.5 -7.5q-33 0 -61 6t-48 20t-31 37t-11 57q0 16 3 36l30 210q6 45 22.5 75t41.5 48t57 25.5t70 7.5q32 0 59.5 -6t47 -20.5t30.5 -38t11 -58.5q0 -8 -0.5 -16t-1.5 -17l-9 -63h-104l8 58q1 3 1 6.5v6.5q0 25 -15 34
t-41 9q-29 0 -47.5 -12t-23.5 -44l-28 -200q-1 -3 -1 -13q0 -25 15 -34t41 -9q29 0 47.5 12t23.5 44l8 62h104zM273 531l-155 153l40 42l126 -117l162 117l27 -42z" />
    <glyph glyph-name="Dcaron" unicode="&#x10e;" horiz-adv-x="445" 
d="M39 0l93 664h187q33 0 62.5 -7t51.5 -24t35 -45.5t13 -71.5q0 -11 -1 -23t-3 -25l-39 -279q-8 -52 -27.5 -88t-48 -58.5t-63.5 -32.5t-73 -10h-187zM363 484q1 6 1.5 12t0.5 11q0 32 -15.5 45t-44.5 13h-70l-65 -463h70q34 0 53.5 17.5t26.5 62.5zM312 703l-155 153
l40 42l126 -117l162 117l27 -42z" />
    <glyph glyph-name="dcaron" unicode="&#x10f;" horiz-adv-x="552" 
d="M80 349q7 48 23 78.5t38.5 48t49 23.5t55.5 6q33 0 53.5 -6.5t34.5 -14.5l26 188h107l-93 -661q-27 -9 -69 -18.5t-109 -9.5q-33 0 -60 6t-47 20t-31 37t-11 58q0 15 3 35zM319 382q-10 7 -25 12.5t-40 5.5q-28 0 -46 -12t-23 -47l-27 -194q-1 -3 -1 -13q0 -26 15 -36
t40 -10q24 0 40 3t27 8zM515 672h117l-19 -135q-5 -32 -17.5 -60t-31 -49t-42 -34t-49.5 -14z" />
    <glyph glyph-name="Dcroat" unicode="&#x110;" horiz-adv-x="447" 
d="M41 0l41 298h-26l14 99h26l38 267h187q33 0 62.5 -7t51.5 -24t35 -45.5t13 -71.5q0 -11 -1 -23t-3 -25l-39 -279q-8 -52 -27.5 -88t-48 -58.5t-63.5 -32.5t-73 -10h-187zM365 484q1 6 1.5 12t0.5 11q0 32 -15.5 45t-44.5 13h-70l-24 -168h74l-14 -99h-74l-27 -196h70
q34 0 53.5 17.5t26.5 62.5z" />
    <glyph glyph-name="dcroat" unicode="&#x111;" horiz-adv-x="413" 
d="M449 543l-75 -532q-27 -9 -69 -18.5t-109 -9.5q-33 0 -60 6t-47 20t-31 37t-11 58q0 15 3 35l30 210q7 48 23 78.5t38.5 48t49 23.5t55.5 6q33 0 53.5 -6.5t34.5 -14.5l8 59h-170l10 73h170l8 56h107l-8 -56h40l-10 -73h-40zM319 382q-10 7 -25 12.5t-40 5.5
q-28 0 -46 -12t-23 -47l-27 -194q-1 -3 -1 -13q0 -26 15 -36t40 -10q24 0 40 3t27 8z" />
    <glyph glyph-name="Emacron" unicode="&#x112;" horiz-adv-x="333" 
d="M39 0l93 664h262l-14 -99h-145l-24 -168h132l-14 -99h-132l-27 -196h151l-14 -102h-268zM117 765l10 73h317l-10 -73h-317z" />
    <glyph glyph-name="emacron" unicode="&#x113;" horiz-adv-x="404" 
d="M368 8q-26 -10 -69.5 -17.5t-100.5 -7.5q-32 0 -60 6t-48 20t-31.5 37.5t-11.5 58.5q0 16 3 34l30 210q6 45 22.5 75t41.5 48t57 25.5t70 7.5q33 0 60.5 -6t48 -20.5t32 -38.5t11.5 -59q0 -8 -0.5 -16t-1.5 -16l-20 -142h-234l-9 -58q-1 -3 -1 -13q0 -29 20.5 -36.5
t54.5 -7.5q50 0 84 6.5t67 17.5zM313 342q1 4 1 7.5v6.5q0 23 -12.5 34.5t-44.5 11.5q-38 0 -52.5 -17t-19.5 -48l-8 -56h127zM128 593l10 73h317l-10 -73h-317z" />
    <glyph glyph-name="Ebreve" unicode="&#x114;" horiz-adv-x="333" 
d="M39 0l93 664h262l-14 -99h-145l-24 -168h132l-14 -99h-132l-27 -196h151l-14 -102h-268zM451 888q-6 -42 -23.5 -73t-42.5 -51.5t-55 -31t-61 -10.5q-60 0 -98.5 36.5t-38.5 111.5v8.5t2 9.5h66q-1 -5 -1 -8.5v-7.5q0 -86 79 -86q42 0 70 25.5t36 76.5h67z" />
    <glyph glyph-name="ebreve" unicode="&#x115;" horiz-adv-x="404" 
d="M368 8q-26 -10 -69.5 -17.5t-100.5 -7.5q-32 0 -60 6t-48 20t-31.5 37.5t-11.5 58.5q0 16 3 34l30 210q6 45 22.5 75t41.5 48t57 25.5t70 7.5q33 0 60.5 -6t48 -20.5t32 -38.5t11.5 -59q0 -8 -0.5 -16t-1.5 -16l-20 -142h-234l-9 -58q-1 -3 -1 -13q0 -29 20.5 -36.5
t54.5 -7.5q50 0 84 6.5t67 17.5zM313 342q1 4 1 7.5v6.5q0 23 -12.5 34.5t-44.5 11.5q-38 0 -52.5 -17t-19.5 -48l-8 -56h127zM462 716q-6 -42 -23.5 -73t-42.5 -51.5t-55 -31t-61 -10.5q-60 0 -98.5 36.5t-38.5 111.5v8.5t2 9.5h66q-1 -5 -1 -8.5v-7.5q0 -86 79 -86
q42 0 70 25.5t36 76.5h67z" />
    <glyph glyph-name="Edotaccent" unicode="&#x116;" horiz-adv-x="333" 
d="M39 0l93 664h262l-14 -99h-145l-24 -168h132l-14 -99h-132l-27 -196h151l-14 -102h-268zM215 726l19 133h104l-19 -133h-104z" />
    <glyph glyph-name="edotaccent" unicode="&#x117;" horiz-adv-x="404" 
d="M368 8q-26 -10 -69.5 -17.5t-100.5 -7.5q-32 0 -60 6t-48 20t-31.5 37.5t-11.5 58.5q0 16 3 34l30 210q6 45 22.5 75t41.5 48t57 25.5t70 7.5q33 0 60.5 -6t48 -20.5t32 -38.5t11.5 -59q0 -8 -0.5 -16t-1.5 -16l-20 -142h-234l-9 -58q-1 -3 -1 -13q0 -29 20.5 -36.5
t54.5 -7.5q50 0 84 6.5t67 17.5zM313 342q1 4 1 7.5v6.5q0 23 -12.5 34.5t-44.5 11.5q-38 0 -52.5 -17t-19.5 -48l-8 -56h127zM227 554l19 133h104l-19 -133h-104z" />
    <glyph glyph-name="Eogonek" unicode="&#x118;" horiz-adv-x="333" 
d="M274 -229q-5 -2 -17 -3t-35 -1q-35 0 -57 6t-35 16.5t-18 24.5t-5 31q0 53 22 84t76 51l54 20h-220l93 664h262l-14 -99h-145l-24 -168h132l-14 -99h-132l-27 -196h151l-14 -102l-60 -27q-30 -14 -41 -32t-11 -42q0 -17 11 -26.5t40 -9.5q24 0 42 5z" />
    <glyph glyph-name="eogonek" unicode="&#x119;" horiz-adv-x="404" 
d="M309 -229q-5 -2 -17 -3t-35 -1q-35 0 -57 6t-35 16.5t-18 24.5t-5 31q0 54 22 85t76 50l14 6q-27 -3 -56 -3q-32 0 -60 6t-48 20t-31.5 37.5t-11.5 58.5q0 16 3 34l30 210q6 45 22.5 75t41.5 48t57 25.5t70 7.5q33 0 60.5 -6t48 -20.5t32 -38.5t11.5 -59q0 -8 -0.5 -16
t-1.5 -16l-20 -142h-234l-9 -58q-1 -3 -1 -13q0 -29 20.5 -36.5t54.5 -7.5q50 0 84 6.5t67 17.5l-15 -108q-3 -2 -7 -3.5t-13.5 -5t-25 -9.5t-40.5 -17q-30 -13 -41 -31t-11 -43q0 -17 11 -26.5t40 -9.5q24 0 42 5zM313 342q1 4 1 7.5v6.5q0 23 -12.5 34.5t-44.5 11.5
q-38 0 -52.5 -17t-19.5 -48l-8 -56h127z" />
    <glyph glyph-name="Ecaron" unicode="&#x11a;" horiz-adv-x="333" 
d="M39 0l93 664h262l-14 -99h-145l-24 -168h132l-14 -99h-132l-27 -196h151l-14 -102h-268zM266 703l-155 153l40 42l126 -117l162 117l27 -42z" />
    <glyph glyph-name="ecaron" unicode="&#x11b;" horiz-adv-x="404" 
d="M368 8q-26 -10 -69.5 -17.5t-100.5 -7.5q-32 0 -60 6t-48 20t-31.5 37.5t-11.5 58.5q0 16 3 34l30 210q6 45 22.5 75t41.5 48t57 25.5t70 7.5q33 0 60.5 -6t48 -20.5t32 -38.5t11.5 -59q0 -8 -0.5 -16t-1.5 -16l-20 -142h-234l-9 -58q-1 -3 -1 -13q0 -29 20.5 -36.5
t54.5 -7.5q50 0 84 6.5t67 17.5zM313 342q1 4 1 7.5v6.5q0 23 -12.5 34.5t-44.5 11.5q-38 0 -52.5 -17t-19.5 -48l-8 -56h127zM277 531l-155 153l40 42l126 -117l162 117l27 -42z" />
    <glyph glyph-name="Gcircumflex" unicode="&#x11c;" horiz-adv-x="431" 
d="M333 340h109l-46 -328q-26 -9 -69 -19t-114 -10q-34 0 -63.5 6t-51.5 21t-35 39.5t-13 60.5q0 16 3 34l52 374q6 46 24.5 77.5t46.5 50t63 26.5t73 8q33 0 60.5 -6t47 -20.5t30.5 -38t11 -58.5q0 -18 -3 -39l-13 -92h-105l13 88q1 5 1 9.5v8.5q0 23 -12.5 34t-43.5 11
q-36 0 -53 -15t-22 -48l-51 -364q-1 -4 -1 -7.5v-6.5q0 -26 16 -36t44 -10q24 0 40 3t29 8zM338 853l-159 -130l-31 41l155 144h85l114 -144l-43 -41z" />
    <glyph glyph-name="gcircumflex" unicode="&#x11d;" horiz-adv-x="406" 
d="M268 17q-16 -8 -38 -14.5t-55 -6.5q-25 0 -47.5 5t-40 17.5t-28 35t-10.5 58.5q0 17 3 40l28 197q6 45 23 75t42.5 48t57.5 25.5t68 7.5q34 0 62 -6t48.5 -20.5t31.5 -38t11 -58.5q0 -8 -0.5 -16t-1.5 -17l-63 -444q-6 -43 -23 -72t-42.5 -46.5t-57.5 -25t-69 -7.5
q-31 0 -57 6t-45 19.5t-29.5 36t-10.5 55.5q0 16 3 34l6 39h101l-5 -36q-1 -3 -1 -12q0 -22 14 -31t38 -9q28 0 48 11.5t24 40.5zM314 344q1 3 1 6.5v6.5q0 25 -15.5 34t-41.5 9q-29 0 -48 -12t-24 -44l-26 -184q-1 -4 -1 -7.5v-6.5q0 -26 14 -35t39 -9t42 5t28 13zM300 681
l-159 -130l-31 41l155 144h85l114 -144l-43 -41z" />
    <glyph glyph-name="Gbreve" unicode="&#x11e;" horiz-adv-x="431" 
d="M333 340h109l-46 -328q-26 -9 -69 -19t-114 -10q-34 0 -63.5 6t-51.5 21t-35 39.5t-13 60.5q0 16 3 34l52 374q6 46 24.5 77.5t46.5 50t63 26.5t73 8q33 0 60.5 -6t47 -20.5t30.5 -38t11 -58.5q0 -18 -3 -39l-13 -92h-105l13 88q1 5 1 9.5v8.5q0 23 -12.5 34t-43.5 11
q-36 0 -53 -15t-22 -48l-51 -364q-1 -4 -1 -7.5v-6.5q0 -26 16 -36t44 -10q24 0 40 3t29 8zM498 888q-6 -42 -23.5 -73t-42.5 -51.5t-55 -31t-61 -10.5q-60 0 -98.5 36.5t-38.5 111.5v8.5t2 9.5h66q-1 -5 -1 -8.5v-7.5q0 -86 79 -86q42 0 70 25.5t36 76.5h67z" />
    <glyph glyph-name="gbreve" unicode="&#x11f;" horiz-adv-x="406" 
d="M268 17q-16 -8 -38 -14.5t-55 -6.5q-25 0 -47.5 5t-40 17.5t-28 35t-10.5 58.5q0 17 3 40l28 197q6 45 23 75t42.5 48t57.5 25.5t68 7.5q34 0 62 -6t48.5 -20.5t31.5 -38t11 -58.5q0 -8 -0.5 -16t-1.5 -17l-63 -444q-6 -43 -23 -72t-42.5 -46.5t-57.5 -25t-69 -7.5
q-31 0 -57 6t-45 19.5t-29.5 36t-10.5 55.5q0 16 3 34l6 39h101l-5 -36q-1 -3 -1 -12q0 -22 14 -31t38 -9q28 0 48 11.5t24 40.5zM314 344q1 3 1 6.5v6.5q0 25 -15.5 34t-41.5 9q-29 0 -48 -12t-24 -44l-26 -184q-1 -4 -1 -7.5v-6.5q0 -26 14 -35t39 -9t42 5t28 13zM463 716
q-6 -42 -23.5 -73t-42.5 -51.5t-55 -31t-61 -10.5q-60 0 -98.5 36.5t-38.5 111.5v8.5t2 9.5h66q-1 -5 -1 -8.5v-7.5q0 -86 79 -86q42 0 70 25.5t36 76.5h67z" />
    <glyph glyph-name="Gdotaccent" unicode="&#x120;" horiz-adv-x="431" 
d="M333 340h109l-46 -328q-26 -9 -69 -19t-114 -10q-34 0 -63.5 6t-51.5 21t-35 39.5t-13 60.5q0 16 3 34l52 374q6 46 24.5 77.5t46.5 50t63 26.5t73 8q33 0 60.5 -6t47 -20.5t30.5 -38t11 -58.5q0 -18 -3 -39l-13 -92h-105l13 88q1 5 1 9.5v8.5q0 23 -12.5 34t-43.5 11
q-36 0 -53 -15t-22 -48l-51 -364q-1 -4 -1 -7.5v-6.5q0 -26 16 -36t44 -10q24 0 40 3t29 8zM264 726l19 133h104l-19 -133h-104z" />
    <glyph glyph-name="gdotaccent" unicode="&#x121;" horiz-adv-x="406" 
d="M268 17q-16 -8 -38 -14.5t-55 -6.5q-25 0 -47.5 5t-40 17.5t-28 35t-10.5 58.5q0 17 3 40l28 197q6 45 23 75t42.5 48t57.5 25.5t68 7.5q34 0 62 -6t48.5 -20.5t31.5 -38t11 -58.5q0 -8 -0.5 -16t-1.5 -17l-63 -444q-6 -43 -23 -72t-42.5 -46.5t-57.5 -25t-69 -7.5
q-31 0 -57 6t-45 19.5t-29.5 36t-10.5 55.5q0 16 3 34l6 39h101l-5 -36q-1 -3 -1 -12q0 -22 14 -31t38 -9q28 0 48 11.5t24 40.5zM314 344q1 3 1 6.5v6.5q0 25 -15.5 34t-41.5 9q-29 0 -48 -12t-24 -44l-26 -184q-1 -4 -1 -7.5v-6.5q0 -26 14 -35t39 -9t42 5t28 13zM228 554
l19 133h104l-19 -133h-104z" />
    <glyph glyph-name="uni0122" unicode="&#x122;" horiz-adv-x="431" 
d="M333 340h109l-46 -328q-26 -9 -69 -19t-114 -10q-34 0 -63.5 6t-51.5 21t-35 39.5t-13 60.5q0 16 3 34l52 374q6 46 24.5 77.5t46.5 50t63 26.5t73 8q33 0 60.5 -6t47 -20.5t30.5 -38t11 -58.5q0 -18 -3 -39l-13 -92h-105l13 88q1 5 1 9.5v8.5q0 23 -12.5 34t-43.5 11
q-36 0 -53 -15t-22 -48l-51 -364q-1 -4 -1 -7.5v-6.5q0 -26 16 -36t44 -10q24 0 40 3t29 8zM155 -34h111l-8 -52q-5 -32 -17 -60t-29.5 -49t-40 -34t-47.5 -14z" />
    <glyph glyph-name="uni0123" unicode="&#x123;" horiz-adv-x="406" 
d="M268 17q-16 -8 -38 -14.5t-55 -6.5q-25 0 -47.5 5t-40 17.5t-28 35t-10.5 58.5q0 17 3 40l28 197q6 45 23 75t42.5 48t57.5 25.5t68 7.5q34 0 62 -6t48.5 -20.5t31.5 -38t11 -58.5q0 -8 -0.5 -16t-1.5 -17l-63 -444q-6 -43 -23 -72t-42.5 -46.5t-57.5 -25t-69 -7.5
q-31 0 -57 6t-45 19.5t-29.5 36t-10.5 55.5q0 16 3 34l6 39h101l-5 -36q-1 -3 -1 -12q0 -22 14 -31t38 -9q28 0 48 11.5t24 40.5zM314 344q1 3 1 6.5v6.5q0 25 -15.5 34t-41.5 9q-29 0 -48 -12t-24 -44l-26 -184q-1 -4 -1 -7.5v-6.5q0 -26 14 -35t39 -9t42 5t28 13z
M333.003 538.998h-110.993l8 51.9971q4.99902 31.998 16.999 59.9961q11.999 27.998 29.498 48.9971q17.499 20.998 39.9971 33.998q22.499 12.999 47.4971 13.999z" />
    <glyph glyph-name="Hcircumflex" unicode="&#x124;" horiz-adv-x="452" 
d="M295 0l40 287h-139l-40 -287h-117l93 664h117l-39 -279h139l39 279h117l-93 -664h-117zM346 853l-159 -130l-31 41l155 144h85l114 -144l-43 -41z" />
    <glyph glyph-name="hcircumflex" unicode="&#x125;" horiz-adv-x="417" 
d="M274 0l47 341q1 5 1 8.5v7.5q0 25 -14 34t-38 9t-41.5 -5.5t-28.5 -12.5l-53 -382h-108l94 672h108l-26 -188q14 8 36 14.5t55 6.5q25 0 48 -5t41 -17.5t28.5 -35.5t10.5 -59q0 -18 -3 -39l-49 -349h-108zM338 853l-159 -130l-31 41l155 144h85l114 -144l-43 -41z" />
    <glyph glyph-name="Hbar" unicode="&#x126;" horiz-adv-x="452" 
d="M295 0l40 287h-139l-40 -287h-117l93 664h117l-15 -106h139l15 106h117l-93 -664h-117zM349 385l14 100h-139l-14 -100h139z" />
    <glyph glyph-name="hbar" unicode="&#x127;" horiz-adv-x="417" 
d="M223 543l-8 -59q14 8 36 14.5t55 6.5q25 0 48 -5t41 -17.5t28.5 -35.5t10.5 -59q0 -18 -3 -39l-49 -349h-108l47 341q1 5 1 8.5v7.5q0 25 -14 34t-38 9t-41.5 -5.5t-28.5 -12.5l-53 -382h-108l76 543h-39l10 73h39l8 56h108l-8 -56h170l-10 -73h-170z" />
    <glyph glyph-name="Itilde" unicode="&#x128;" horiz-adv-x="195" 
d="M39 0l93 664h117l-93 -664h-117zM48 765l10 73h317l-10 -73h-317z" />
    <glyph glyph-name="itilde" unicode="&#x129;" horiz-adv-x="193" 
d="M42 0l69 492h108l-69 -492h-108zM22 593l10 73h317l-10 -73h-317z" />
    <glyph glyph-name="Imacron" unicode="&#x12a;" horiz-adv-x="195" 
d="M39 0l93 664h117l-93 -664h-117zM48 765l10 73h317l-10 -73h-317z" />
    <glyph glyph-name="imacron" unicode="&#x12b;" horiz-adv-x="193" 
d="M42 0l69 492h108l-69 -492h-108zM22 593l10 73h317l-10 -73h-317z" />
    <glyph glyph-name="Ibreve" unicode="&#x12c;" horiz-adv-x="195" 
d="M39 0l93 664h117l-93 -664h-117zM382 888q-6 -42 -23.5 -73t-42.5 -51.5t-55 -31t-61 -10.5q-60 0 -98.5 36.5t-38.5 111.5v8.5t2 9.5h66q-1 -5 -1 -8.5v-7.5q0 -86 79 -86q42 0 70 25.5t36 76.5h67z" />
    <glyph glyph-name="ibreve" unicode="&#x12d;" horiz-adv-x="193" 
d="M42 0l69 492h108l-69 -492h-108zM356 716q-6 -42 -23.5 -73t-42.5 -51.5t-55 -31t-61 -10.5q-60 0 -98.5 36.5t-38.5 111.5v8.5t2 9.5h66q-1 -5 -1 -8.5v-7.5q0 -86 79 -86q42 0 70 25.5t36 76.5h67z" />
    <glyph glyph-name="Iogonek" unicode="&#x12e;" horiz-adv-x="195" 
d="M123 -229q-5 -2 -17 -3t-35 -1q-34 0 -56 6t-35 16.5t-18 24.5t-5 31q0 53 22.5 84t74.5 51l54 20h-69l93 664h117l-93 -664l-60 -27q-30 -14 -41 -32t-11 -42q0 -17 11 -26.5t40 -9.5q24 0 42 5z" />
    <glyph glyph-name="iogonek" unicode="&#x12f;" horiz-adv-x="193" 
d="M117 -229q-5 -2 -17 -3t-35 -1q-34 0 -56 6t-35 16.5t-18 24.5t-5 31q0 53 22.5 84t74.5 51l54 20h-60l69 492h108l-69 -492l-60 -27q-30 -14 -41 -32t-11 -42q0 -17 11 -26.5t40 -9.5q24 0 42 5zM119 551l17 121h109l-17 -121h-109z" />
    <glyph glyph-name="Idotaccent" unicode="&#x130;" horiz-adv-x="195" 
d="M39 0l93 664h117l-93 -664h-117zM147 726l19 133h104l-19 -133h-104z" />
    <glyph glyph-name="dotlessi" unicode="&#x131;" horiz-adv-x="193" 
d="M42 0l69 492h108l-69 -492h-108z" />
    <glyph glyph-name="IJ" unicode="&#x132;" horiz-adv-x="465" 
d="M39 0l93 664h117l-93 -664h-117zM232 90q8 -4 22 -4q32 0 51.5 14t24.5 46l73 518h118l-74 -525q-7 -47 -26 -77.5t-46.5 -49.5t-62 -26.5t-71.5 -7.5q-7 0 -13 0.5t-11 1.5z" />
    <glyph glyph-name="ij" unicode="&#x133;" horiz-adv-x="418" 
d="M42 0l69 492h108l-69 -492h-108zM119 551l17 121h109l-17 -121h-109zM179 -132q9 -3 20 -3q23 0 38.5 12t19.5 39l81 576h106l-83 -586q-6 -41 -22 -67.5t-39 -42.5t-52.5 -22.5t-60.5 -6.5q-7 0 -12 0.5t-10 1.5zM345 551l17 121h108l-17 -121h-108z" />
    <glyph glyph-name="Jcircumflex" unicode="&#x134;" horiz-adv-x="270" 
d="M37 90q8 -4 22 -4q32 0 51.5 14t24.5 46l73 518h118l-74 -525q-7 -47 -26 -77.5t-46.5 -49.5t-62 -26.5t-71.5 -7.5q-7 0 -13 0.5t-11 1.5zM237 853l-159 -130l-31 41l155 144h85l114 -144l-43 -41z" />
    <glyph glyph-name="jcircumflex" unicode="&#x135;" horiz-adv-x="225" 
d="M-14 -132q9 -3 20 -3q23 0 38.5 12t19.5 39l81 576h106l-83 -586q-6 -41 -22 -67.5t-39 -42.5t-52.5 -22.5t-60.5 -6.5q-7 0 -12 0.5t-10 1.5zM190 681l-159 -130l-31 41l155 144h85l114 -144l-43 -41z" />
    <glyph glyph-name="uni0136" unicode="&#x136;" horiz-adv-x="452" 
d="M310 0l-110 334l-46 -334h-115l93 664h115l-41 -289l190 289h126l-211 -295l131 -369h-132zM166 -34h111l-8 -52q-5 -32 -17 -60t-29.5 -49t-40 -34t-47.5 -14z" />
    <glyph glyph-name="uni0137" unicode="&#x137;" horiz-adv-x="425" 
d="M286 0l-104 250l-35 -250h-108l94 672h108l-55 -388l157 208h126l-178 -215l123 -277h-128zM152 -34h111l-8 -52q-5 -32 -17 -60t-29.5 -49t-40 -34t-47.5 -14z" />
    <glyph glyph-name="Lacute" unicode="&#x139;" horiz-adv-x="327" 
d="M39 0l93 664h117l-79 -562h149l-14 -102h-266zM107 706l8 57l244 119l-11 -83z" />
    <glyph glyph-name="lacute" unicode="&#x13a;" horiz-adv-x="186" 
d="M39 0l94 672h108l-94 -672h-108zM100 706l8 57l244 119l-11 -83z" />
    <glyph glyph-name="uni013B" unicode="&#x13b;" horiz-adv-x="327" 
d="M39 0l93 664h117l-79 -562h149l-14 -102h-266zM113 -34h111l-8 -52q-5 -32 -17 -60t-29.5 -49t-40 -34t-47.5 -14z" />
    <glyph glyph-name="uni013C" unicode="&#x13c;" horiz-adv-x="186" 
d="M39 0l94 672h108l-94 -672h-108zM34 -34h111l-8 -52q-5 -32 -17 -60t-29.5 -49t-40 -34t-47.5 -14z" />
    <glyph glyph-name="Lcaron" unicode="&#x13d;" horiz-adv-x="327" 
d="M39 0l93 664h117l-79 -562h149l-14 -102h-266zM314 806h117l-19 -135q-5 -32 -17.5 -60t-31 -49t-42 -34t-49.5 -14z" />
    <glyph glyph-name="lcaron" unicode="&#x13e;" horiz-adv-x="304" 
d="M39 0l94 672h108l-94 -672h-108zM281 673h117l-19 -135q-5 -32 -17.5 -60t-31 -49t-42 -34t-49.5 -14z" />
    <glyph glyph-name="Ldot" unicode="&#x13f;" horiz-adv-x="327" 
d="M39 0l93 664h117l-79 -562h149l-14 -102h-266zM227 297l19 133h104l-19 -133h-104z" />
    <glyph glyph-name="ldot" unicode="&#x140;" horiz-adv-x="290" 
d="M39 0l94 672h108l-94 -672h-108zM224 279l19 133h104l-19 -133h-104z" />
    <glyph glyph-name="Lslash" unicode="&#x141;" horiz-adv-x="327" 
d="M39 0l93 664h117l-42 -298l132 67l-10 -76l-133 -67l-26 -188h149l-14 -102h-266z" />
    <glyph glyph-name="lslash" unicode="&#x142;" horiz-adv-x="199" 
d="M45 0l37 269l-52 -28l11 76l52 29l46 326h108l-37 -264l53 30l-11 -78l-53 -30l-46 -330h-108z" />
    <glyph glyph-name="Nacute" unicode="&#x143;" horiz-adv-x="448" 
d="M295 0l72 515q0 3 0.5 6t0.5 6q0 27 -17 37.5t-44 10.5q-25 0 -42 -3t-30 -8l-79 -564h-117l91 651q28 9 75 19t119 10q37 0 67 -7t51 -23t32.5 -43t11.5 -67v-10.5t-2 -10.5l-72 -519h-117zM229 706l8 57l244 119l-11 -83z" />
    <glyph glyph-name="nacute" unicode="&#x144;" horiz-adv-x="417" 
d="M274 0l47 341q1 3 1 15q0 24 -14.5 34t-39.5 10q-24 0 -40 -3t-27 -8l-54 -389h-108l67 477q26 9 68 18.5t109 9.5q33 0 60.5 -6t47.5 -20.5t31 -38t11 -58.5q0 -8 -0.5 -16t-1.5 -17l-49 -349h-108zM189 534l8 57l244 119l-11 -83z" />
    <glyph glyph-name="uni0145" unicode="&#x145;" horiz-adv-x="448" 
d="M295 0l72 515q0 3 0.5 6t0.5 6q0 27 -17 37.5t-44 10.5q-25 0 -42 -3t-30 -8l-79 -564h-117l91 651q28 9 75 19t119 10q37 0 67 -7t51 -23t32.5 -43t11.5 -67v-10.5t-2 -10.5l-72 -519h-117zM164 -34h111l-8 -52q-5 -32 -17 -60t-29.5 -49t-40 -34t-47.5 -14z" />
    <glyph glyph-name="uni0146" unicode="&#x146;" horiz-adv-x="417" 
d="M274 0l47 341q1 3 1 15q0 24 -14.5 34t-39.5 10q-24 0 -40 -3t-27 -8l-54 -389h-108l67 477q26 9 68 18.5t109 9.5q33 0 60.5 -6t47.5 -20.5t31 -38t11 -58.5q0 -8 -0.5 -16t-1.5 -17l-49 -349h-108zM148 -34h111l-8 -52q-5 -32 -17 -60t-29.5 -49t-40 -34t-47.5 -14z
" />
    <glyph glyph-name="Ncaron" unicode="&#x147;" horiz-adv-x="448" 
d="M295 0l72 515q0 3 0.5 6t0.5 6q0 27 -17 37.5t-44 10.5q-25 0 -42 -3t-30 -8l-79 -564h-117l91 651q28 9 75 19t119 10q37 0 67 -7t51 -23t32.5 -43t11.5 -67v-10.5t-2 -10.5l-72 -519h-117zM322 703l-155 153l40 42l126 -117l162 117l27 -42z" />
    <glyph glyph-name="ncaron" unicode="&#x148;" horiz-adv-x="417" 
d="M274 0l47 341q1 3 1 15q0 24 -14.5 34t-39.5 10q-24 0 -40 -3t-27 -8l-54 -389h-108l67 477q26 9 68 18.5t109 9.5q33 0 60.5 -6t47.5 -20.5t31 -38t11 -58.5q0 -8 -0.5 -16t-1.5 -17l-49 -349h-108zM283 531l-155 153l40 42l126 -117l162 117l27 -42z" />
    <glyph glyph-name="Eng" unicode="&#x14a;" horiz-adv-x="448" 
d="M203 -142q7 -3 20 -3q23 0 38.5 12t19.5 39l86 609q0 3 0.5 6t0.5 6q0 27 -17 37.5t-44 10.5q-25 0 -42 -3t-30 -8l-79 -564h-117l91 651q28 9 75 19t119 10q37 0 67 -7t51 -23t32.5 -43t11.5 -67v-10.5t-2 -10.5l-87 -623q-6 -41 -24 -67.5t-43.5 -42.5t-57 -22.5
t-62.5 -6.5q-5 0 -10.5 0.5t-10.5 1.5z" />
    <glyph glyph-name="eng" unicode="&#x14b;" horiz-adv-x="417" 
d="M184 -142q7 -3 20 -3q23 0 37.5 12t18.5 39l61 435q1 3 1 15q0 24 -14.5 34t-39.5 10q-24 0 -40 -3t-27 -8l-54 -389h-108l67 477q26 9 68 18.5t109 9.5q33 0 60.5 -6t47.5 -20.5t31 -38t11 -58.5q0 -8 -0.5 -16t-1.5 -17l-64 -453q-6 -41 -22 -67.5t-39.5 -42.5
t-53 -22.5t-61.5 -6.5q-5 0 -10.5 0.5t-10.5 1.5z" />
    <glyph glyph-name="Omacron" unicode="&#x14c;" 
d="M105 518q7 46 26 77.5t46.5 50t62.5 26.5t74 8q37 0 67.5 -7t52 -23.5t33.5 -44t12 -67.5v-10t-2 -10l-52 -373q-6 -47 -25.5 -78t-48 -49.5t-63.5 -26.5t-72 -8q-35 0 -65 6.5t-52.5 21.5t-35.5 39.5t-13 60.5q0 16 3 34zM358 512q1 5 1 9.5v9.5q0 26 -14 34.5t-46 8.5
q-35 0 -54 -13t-24 -49l-50 -362q-1 -5 -1.5 -9t-0.5 -9q0 -24 15 -33t47 -9q35 0 53.5 12.5t23.5 47.5zM168 765l10 73h317l-10 -73h-317z" />
    <glyph glyph-name="omacron" unicode="&#x14d;" horiz-adv-x="404" 
d="M392 139q-6 -45 -23.5 -75t-43 -48t-58 -25.5t-68.5 -7.5q-34 0 -62 6t-48 20t-31 37t-11 57q0 16 3 36l30 210q6 45 22.5 75t41.5 48t57.5 25.5t70.5 7.5q33 0 60.5 -6t48 -20.5t32 -38.5t11.5 -59q0 -8 -0.5 -16t-1.5 -16zM314 344q0 3 0.5 6t0.5 6q0 25 -15.5 34.5
t-41.5 9.5q-29 0 -48 -12t-24 -44l-28 -200q-1 -3 -1 -13q0 -25 15.5 -34t41.5 -9q29 0 48 12t24 44zM128 593l10 73h317l-10 -73h-317z" />
    <glyph glyph-name="Obreve" unicode="&#x14e;" 
d="M105 518q7 46 26 77.5t46.5 50t62.5 26.5t74 8q37 0 67.5 -7t52 -23.5t33.5 -44t12 -67.5v-10t-2 -10l-52 -373q-6 -47 -25.5 -78t-48 -49.5t-63.5 -26.5t-72 -8q-35 0 -65 6.5t-52.5 21.5t-35.5 39.5t-13 60.5q0 16 3 34zM358 512q1 5 1 9.5v9.5q0 26 -14 34.5t-46 8.5
q-35 0 -54 -13t-24 -49l-50 -362q-1 -5 -1.5 -9t-0.5 -9q0 -24 15 -33t47 -9q35 0 53.5 12.5t23.5 47.5zM502 888q-6 -42 -23.5 -73t-42.5 -51.5t-55 -31t-61 -10.5q-60 0 -98.5 36.5t-38.5 111.5v8.5t2 9.5h66q-1 -5 -1 -8.5v-7.5q0 -86 79 -86q42 0 70 25.5t36 76.5h67z
" />
    <glyph glyph-name="obreve" unicode="&#x14f;" horiz-adv-x="404" 
d="M392 139q-6 -45 -23.5 -75t-43 -48t-58 -25.5t-68.5 -7.5q-34 0 -62 6t-48 20t-31 37t-11 57q0 16 3 36l30 210q6 45 22.5 75t41.5 48t57.5 25.5t70.5 7.5q33 0 60.5 -6t48 -20.5t32 -38.5t11.5 -59q0 -8 -0.5 -16t-1.5 -16zM314 344q0 3 0.5 6t0.5 6q0 25 -15.5 34.5
t-41.5 9.5q-29 0 -48 -12t-24 -44l-28 -200q-1 -3 -1 -13q0 -25 15.5 -34t41.5 -9q29 0 48 12t24 44zM462 716q-6 -42 -23.5 -73t-42.5 -51.5t-55 -31t-61 -10.5q-60 0 -98.5 36.5t-38.5 111.5v8.5t2 9.5h66q-1 -5 -1 -8.5v-7.5q0 -86 79 -86q42 0 70 25.5t36 76.5h67z" />
    <glyph glyph-name="Ohungarumlaut" unicode="&#x150;" 
d="M105 518q7 46 26 77.5t46.5 50t62.5 26.5t74 8q37 0 67.5 -7t52 -23.5t33.5 -44t12 -67.5v-10t-2 -10l-52 -373q-6 -47 -25.5 -78t-48 -49.5t-63.5 -26.5t-72 -8q-35 0 -65 6.5t-52.5 21.5t-35.5 39.5t-13 60.5q0 16 3 34zM358 512q1 5 1 9.5v9.5q0 26 -14 34.5t-46 8.5
q-35 0 -54 -13t-24 -49l-50 -362q-1 -5 -1.5 -9t-0.5 -9q0 -24 15 -33t47 -9q35 0 53.5 12.5t23.5 47.5zM183 740l144 150l32 -31l-148 -146zM337 740l148 147l33 -30l-154 -144z" />
    <glyph glyph-name="ohungarumlaut" unicode="&#x151;" horiz-adv-x="404" 
d="M392 139q-6 -45 -23.5 -75t-43 -48t-58 -25.5t-68.5 -7.5q-34 0 -62 6t-48 20t-31 37t-11 57q0 16 3 36l30 210q6 45 22.5 75t41.5 48t57.5 25.5t70.5 7.5q33 0 60.5 -6t48 -20.5t32 -38.5t11.5 -59q0 -8 -0.5 -16t-1.5 -16zM314 344q0 3 0.5 6t0.5 6q0 25 -15.5 34.5
t-41.5 9.5q-29 0 -48 -12t-24 -44l-28 -200q-1 -3 -1 -13q0 -25 15.5 -34t41.5 -9q29 0 48 12t24 44zM143 568l144 150l32 -31l-148 -146zM297 568l148 147l33 -30l-154 -144z" />
    <glyph glyph-name="OE" unicode="&#x152;" horiz-adv-x="575" 
d="M318 0q-23 -9 -49 -13t-53 -4q-35 0 -65 6.5t-52.5 21.5t-35.5 39.5t-13 60.5q0 16 3 34l52 373q6 46 25 77.5t47.5 50t63.5 26.5t73 8q56 0 94 -16h228l-14 -99h-139l-24 -168h126l-14 -99h-126l-27 -196h145l-14 -102h-231zM359 512q1 5 1 9.5v8.5q0 26 -14.5 35.5
t-46.5 9.5q-37 0 -54.5 -12.5t-22.5 -50.5l-50 -361q-1 -5 -1.5 -9.5t-0.5 -9.5q0 -25 14.5 -33.5t46.5 -8.5q35 0 54 12.5t24 47.5z" />
    <glyph glyph-name="oe" unicode="&#x153;" horiz-adv-x="644" 
d="M603 8q-25 -8 -64 -16t-88 -8q-42 0 -75 6.5t-57 23.5q-24 -16 -55 -23.5t-66 -7.5q-33 0 -61 6t-48 20t-31 37t-11 57q0 16 3 36l30 210q12 84 59 119.5t116 35.5q39 0 72 -6.5t56 -24.5q25 17 56 24.5t67 7.5q33 0 60.5 -6t48 -20.5t32 -38.5t11.5 -59q0 -8 -0.5 -16
t-1.5 -16l-20 -142h-235l-9 -61q-1 -3 -1 -12q0 -30 23 -36t57 -6q50 0 82.5 6.5t64.5 17.5zM312 335q1 5 1 9.5v8.5q0 26 -14 36t-42 10q-32 0 -49.5 -13t-22.5 -51l-26 -183q-1 -5 -1.5 -9.5t-0.5 -9.5q0 -26 14.5 -35.5t41.5 -9.5q29 0 48 12t24 44zM547 340q1 5 1 8.5
v7.5q0 23 -13 34.5t-43 11.5q-37 0 -53 -15.5t-20 -46.5l-8 -59h128z" />
    <glyph glyph-name="Racute" unicode="&#x154;" horiz-adv-x="435" 
d="M288 375q19 0 33 12.5t22 32.5t12 44t4 48q0 26 -10 40.5t-38 14.5h-79l-27 -192h83zM286 0l31 226q1 5 1 9v8q0 19 -9 31.5t-34 12.5h-82l-40 -287h-114l93 664h234q32 0 53 -9t33 -25t17 -36.5t5 -43.5q0 -29 -5 -63t-17 -65t-32 -54.5t-50 -31.5q36 -8 49 -33t13 -58
q0 -21 -3 -43l-28 -202h-115zM222 706l8 57l244 119l-11 -83z" />
    <glyph glyph-name="racute" unicode="&#x155;" horiz-adv-x="388" 
d="M39 0l67 477q25 9 64.5 18.5t102.5 9.5q31 0 58 -5.5t46.5 -18t30.5 -33.5t11 -52q0 -6 -0.5 -12.5t-1.5 -13.5l-9 -63h-96l6 42q0 2 0.5 5t0.5 5q0 23 -15 32t-40 9q-22 0 -37 -3t-26 -8l-54 -389h-108zM175 534l8 57l244 119l-11 -83z" />
    <glyph glyph-name="uni0156" unicode="&#x156;" horiz-adv-x="435" 
d="M288 375q19 0 33 12.5t22 32.5t12 44t4 48q0 26 -10 40.5t-38 14.5h-79l-27 -192h83zM286 0l31 226q1 5 1 9v8q0 19 -9 31.5t-34 12.5h-82l-40 -287h-114l93 664h234q32 0 53 -9t33 -25t17 -36.5t5 -43.5q0 -29 -5 -63t-17 -65t-32 -54.5t-50 -31.5q36 -8 49 -33t13 -58
q0 -21 -3 -43l-28 -202h-115zM157 -34h111l-8 -52q-5 -32 -17 -60t-29.5 -49t-40 -34t-47.5 -14z" />
    <glyph glyph-name="uni0157" unicode="&#x157;" horiz-adv-x="388" 
d="M39 0l67 477q25 9 64.5 18.5t102.5 9.5q31 0 58 -5.5t46.5 -18t30.5 -33.5t11 -52q0 -6 -0.5 -12.5t-1.5 -13.5l-9 -63h-96l6 42q0 2 0.5 5t0.5 5q0 23 -15 32t-40 9q-22 0 -37 -3t-26 -8l-54 -389h-108zM35 -34h111l-8 -52q-5 -32 -17 -60t-29.5 -49t-40 -34t-47.5 -14z
" />
    <glyph glyph-name="Rcaron" unicode="&#x158;" horiz-adv-x="435" 
d="M288 375q19 0 33 12.5t22 32.5t12 44t4 48q0 26 -10 40.5t-38 14.5h-79l-27 -192h83zM286 0l31 226q1 5 1 9v8q0 19 -9 31.5t-34 12.5h-82l-40 -287h-114l93 664h234q32 0 53 -9t33 -25t17 -36.5t5 -43.5q0 -29 -5 -63t-17 -65t-32 -54.5t-50 -31.5q36 -8 49 -33t13 -58
q0 -21 -3 -43l-28 -202h-115zM317 703l-155 153l40 42l126 -117l162 117l27 -42z" />
    <glyph glyph-name="rcaron" unicode="&#x159;" horiz-adv-x="388" 
d="M39 0l67 477q25 9 64.5 18.5t102.5 9.5q31 0 58 -5.5t46.5 -18t30.5 -33.5t11 -52q0 -6 -0.5 -12.5t-1.5 -13.5l-9 -63h-96l6 42q0 2 0.5 5t0.5 5q0 23 -15 32t-40 9q-22 0 -37 -3t-26 -8l-54 -389h-108zM269 531l-155 153l40 42l126 -117l162 117l27 -42z" />
    <glyph glyph-name="Sacute" unicode="&#x15a;" horiz-adv-x="406" 
d="M339 466l6 41q1 8 1.5 14.5t0.5 12.5q0 29 -13 39t-40 10q-22 0 -36 -3.5t-22 -13t-13 -26.5t-9 -43q-3 -18 -3 -30q0 -14 4 -24.5t13.5 -18.5t25.5 -15.5t41 -15.5q35 -12 58 -26t36 -31t18 -37t5 -44q0 -18 -2 -38t-5 -43q-6 -45 -19.5 -80.5t-38 -60t-61.5 -37.5
t-91 -13q-72 0 -111.5 27.5t-39.5 96.5q0 18 3 39l13 90h104l-12 -86q-1 -5 -1.5 -10t-0.5 -10q0 -26 15.5 -34.5t45.5 -8.5q20 0 33 4t21.5 13.5t13.5 26.5t9 44q2 17 3.5 30t1.5 24q0 19 -5 32t-15.5 22t-27.5 16t-41 16q-58 21 -84.5 52.5t-26.5 86.5q0 18 3 41
q6 43 19 77t37.5 58t62 37t92.5 13q69 0 106.5 -27.5t37.5 -100.5v-10t-2 -10l-9 -66h-101zM208 706l8 57l244 119l-11 -83z" />
    <glyph glyph-name="sacute" unicode="&#x15b;" horiz-adv-x="403" 
d="M317 347l4 30q0 2 0.5 5t0.5 5q0 17 -14 22.5t-44 5.5q-37 0 -56 -10t-19 -45q0 -12 13.5 -23t33 -20t41.5 -17t40 -15q48 -19 65.5 -45.5t17.5 -61.5q0 -16 -3 -34q-6 -45 -21.5 -76t-40.5 -50t-60.5 -27t-81.5 -8q-32 0 -60.5 4t-50.5 15.5t-34.5 30.5t-12.5 49
q0 5 0.5 10.5t1.5 11.5l8 57h104l-4 -29q-1 -5 -1 -8.5v-6.5q0 -23 14.5 -31.5t46.5 -8.5q34 0 54 12.5t20 55.5q0 20 -11 33t-27.5 22t-36.5 15t-37 12q-42 15 -68.5 40t-26.5 72q0 50 16.5 82t44 51t64.5 26t78 7q28 0 55.5 -3.5t48.5 -13.5t34 -28t13 -47v-9.5t-1 -9.5
l-7 -47h-101zM182 534l8 57l244 119l-11 -83z" />
    <glyph glyph-name="Scircumflex" unicode="&#x15c;" horiz-adv-x="406" 
d="M339 466l6 41q1 8 1.5 14.5t0.5 12.5q0 29 -13 39t-40 10q-22 0 -36 -3.5t-22 -13t-13 -26.5t-9 -43q-3 -18 -3 -30q0 -14 4 -24.5t13.5 -18.5t25.5 -15.5t41 -15.5q35 -12 58 -26t36 -31t18 -37t5 -44q0 -18 -2 -38t-5 -43q-6 -45 -19.5 -80.5t-38 -60t-61.5 -37.5
t-91 -13q-72 0 -111.5 27.5t-39.5 96.5q0 18 3 39l13 90h104l-12 -86q-1 -5 -1.5 -10t-0.5 -10q0 -26 15.5 -34.5t45.5 -8.5q20 0 33 4t21.5 13.5t13.5 26.5t9 44q2 17 3.5 30t1.5 24q0 19 -5 32t-15.5 22t-27.5 16t-41 16q-58 21 -84.5 52.5t-26.5 86.5q0 18 3 41
q6 43 19 77t37.5 58t62 37t92.5 13q69 0 106.5 -27.5t37.5 -100.5v-10t-2 -10l-9 -66h-101zM325 853l-159 -130l-31 41l155 144h85l114 -144l-43 -41z" />
    <glyph glyph-name="scircumflex" unicode="&#x15d;" horiz-adv-x="403" 
d="M317 347l4 30q0 2 0.5 5t0.5 5q0 17 -14 22.5t-44 5.5q-37 0 -56 -10t-19 -45q0 -12 13.5 -23t33 -20t41.5 -17t40 -15q48 -19 65.5 -45.5t17.5 -61.5q0 -16 -3 -34q-6 -45 -21.5 -76t-40.5 -50t-60.5 -27t-81.5 -8q-32 0 -60.5 4t-50.5 15.5t-34.5 30.5t-12.5 49
q0 5 0.5 10.5t1.5 11.5l8 57h104l-4 -29q-1 -5 -1 -8.5v-6.5q0 -23 14.5 -31.5t46.5 -8.5q34 0 54 12.5t20 55.5q0 20 -11 33t-27.5 22t-36.5 15t-37 12q-42 15 -68.5 40t-26.5 72q0 50 16.5 82t44 51t64.5 26t78 7q28 0 55.5 -3.5t48.5 -13.5t34 -28t13 -47v-9.5t-1 -9.5
l-7 -47h-101zM299 681l-159 -130l-31 41l155 144h85l114 -144l-43 -41z" />
    <glyph glyph-name="Scedilla" unicode="&#x15e;" horiz-adv-x="406" 
d="M339 466l6 41q1 8 1.5 14.5t0.5 12.5q0 29 -13 39t-40 10q-22 0 -36 -3.5t-22 -13t-13 -26.5t-9 -43q-3 -18 -3 -30q0 -14 4 -24.5t13.5 -18.5t25.5 -15.5t41 -15.5q35 -12 58 -26t36 -31t18 -37t5 -44q0 -18 -2 -38t-5 -43q-6 -45 -19.5 -80.5t-38 -60t-61.5 -37.5
t-91 -13q-72 0 -111.5 27.5t-39.5 96.5q0 18 3 39l13 90h104l-12 -86q-1 -5 -1.5 -10t-0.5 -10q0 -26 15.5 -34.5t45.5 -8.5q20 0 33 4t21.5 13.5t13.5 26.5t9 44q2 17 3.5 30t1.5 24q0 19 -5 32t-15.5 22t-27.5 16t-41 16q-58 21 -84.5 52.5t-26.5 86.5q0 18 3 41
q6 43 19 77t37.5 58t62 37t92.5 13q69 0 106.5 -27.5t37.5 -100.5v-10t-2 -10l-9 -66h-101zM143 -34h111l-8 -52q-5 -32 -17 -60t-29.5 -49t-40 -34t-47.5 -14z" />
    <glyph glyph-name="scedilla" unicode="&#x15f;" horiz-adv-x="403" 
d="M317 347l4 30q0 2 0.5 5t0.5 5q0 17 -14 22.5t-44 5.5q-37 0 -56 -10t-19 -45q0 -12 13.5 -23t33 -20t41.5 -17t40 -15q48 -19 65.5 -45.5t17.5 -61.5q0 -16 -3 -34q-6 -45 -21.5 -76t-40.5 -50t-60.5 -27t-81.5 -8q-32 0 -60.5 4t-50.5 15.5t-34.5 30.5t-12.5 49
q0 5 0.5 10.5t1.5 11.5l8 57h104l-4 -29q-1 -5 -1 -8.5v-6.5q0 -23 14.5 -31.5t46.5 -8.5q34 0 54 12.5t20 55.5q0 20 -11 33t-27.5 22t-36.5 15t-37 12q-42 15 -68.5 40t-26.5 72q0 50 16.5 82t44 51t64.5 26t78 7q28 0 55.5 -3.5t48.5 -13.5t34 -28t13 -47v-9.5t-1 -9.5
l-7 -47h-101zM141 -34h111l-8 -52q-5 -32 -17 -60t-29.5 -49t-40 -34t-47.5 -14z" />
    <glyph glyph-name="Scaron" unicode="&#x160;" horiz-adv-x="406" 
d="M339 466l6 41q1 8 1.5 14.5t0.5 12.5q0 29 -13 39t-40 10q-22 0 -36 -3.5t-22 -13t-13 -26.5t-9 -43q-3 -18 -3 -30q0 -14 4 -24.5t13.5 -18.5t25.5 -15.5t41 -15.5q35 -12 58 -26t36 -31t18 -37t5 -44q0 -18 -2 -38t-5 -43q-6 -45 -19.5 -80.5t-38 -60t-61.5 -37.5
t-91 -13q-72 0 -111.5 27.5t-39.5 96.5q0 18 3 39l13 90h104l-12 -86q-1 -5 -1.5 -10t-0.5 -10q0 -26 15.5 -34.5t45.5 -8.5q20 0 33 4t21.5 13.5t13.5 26.5t9 44q2 17 3.5 30t1.5 24q0 19 -5 32t-15.5 22t-27.5 16t-41 16q-58 21 -84.5 52.5t-26.5 86.5q0 18 3 41
q6 43 19 77t37.5 58t62 37t92.5 13q69 0 106.5 -27.5t37.5 -100.5v-10t-2 -10l-9 -66h-101zM303 703l-155 153l40 42l126 -117l162 117l27 -42z" />
    <glyph glyph-name="scaron" unicode="&#x161;" horiz-adv-x="403" 
d="M317 347l4 30q0 2 0.5 5t0.5 5q0 17 -14 22.5t-44 5.5q-37 0 -56 -10t-19 -45q0 -12 13.5 -23t33 -20t41.5 -17t40 -15q48 -19 65.5 -45.5t17.5 -61.5q0 -16 -3 -34q-6 -45 -21.5 -76t-40.5 -50t-60.5 -27t-81.5 -8q-32 0 -60.5 4t-50.5 15.5t-34.5 30.5t-12.5 49
q0 5 0.5 10.5t1.5 11.5l8 57h104l-4 -29q-1 -5 -1 -8.5v-6.5q0 -23 14.5 -31.5t46.5 -8.5q34 0 54 12.5t20 55.5q0 20 -11 33t-27.5 22t-36.5 15t-37 12q-42 15 -68.5 40t-26.5 72q0 50 16.5 82t44 51t64.5 26t78 7q28 0 55.5 -3.5t48.5 -13.5t34 -28t13 -47v-9.5t-1 -9.5
l-7 -47h-101zM276 531l-155 153l40 42l126 -117l162 117l27 -42z" />
    <glyph glyph-name="uni0162" unicode="&#x162;" horiz-adv-x="366" 
d="M124 0l79 565h-111l14 99h341l-14 -99h-113l-79 -565h-117zM123 -34h111l-8 -52q-5 -32 -17 -60t-29.5 -49t-40 -34t-47.5 -14z" />
    <glyph glyph-name="uni0163" unicode="&#x163;" horiz-adv-x="260" 
d="M74 0l58 414h-55l11 78h55l15 112h108l-15 -112h59l-11 -78h-59l-58 -414h-108zM70 -34h111l-8 -52q-5 -32 -17 -60t-29.5 -49t-40 -34t-47.5 -14z" />
    <glyph glyph-name="Tcaron" unicode="&#x164;" horiz-adv-x="366" 
d="M124 0l79 565h-111l14 99h341l-14 -99h-113l-79 -565h-117zM283 703l-155 153l40 42l126 -117l162 117l27 -42z" />
    <glyph glyph-name="tcaron" unicode="&#x165;" horiz-adv-x="378" 
d="M74 0l58 414h-55l11 78h55l15 112h108l-15 -112h59l-11 -78h-59l-58 -414h-108zM355 672h117l-19 -135q-5 -32 -17.5 -60t-31 -49t-42 -34t-49.5 -14z" />
    <glyph glyph-name="Tbar" unicode="&#x166;" horiz-adv-x="366" 
d="M124 0l37 267h-54l12 85h54l30 213h-111l14 99h341l-14 -99h-113l-30 -213h54l-12 -85h-54l-37 -267h-117z" />
    <glyph glyph-name="tbar" unicode="&#x167;" horiz-adv-x="260" 
d="M74 0l26 186h-38l12 85h38l20 143h-55l11 78h55l15 112h108l-15 -112h59l-11 -78h-59l-20 -143h39l-12 -85h-39l-26 -186h-108z" />
    <glyph glyph-name="Utilde" unicode="&#x168;" horiz-adv-x="448" 
d="M385 664h117l-92 -652q-26 -9 -73.5 -19t-119.5 -10q-34 0 -64 6t-52 21t-35 39.5t-13 60.5q0 16 3 34l73 520h118l-72 -514q-1 -4 -1 -7.5v-6.5q0 -26 16.5 -36t43.5 -10q47 0 72 11zM172 765l10 73h317l-10 -73h-317z" />
    <glyph glyph-name="utilde" unicode="&#x169;" horiz-adv-x="419" 
d="M339 492h107l-68 -481q-26 -9 -68.5 -18.5t-109.5 -9.5q-32 0 -59.5 6t-47.5 20t-31 37t-11 58q0 15 3 35l50 353h108l-49 -345q-1 -3 -1 -14q0 -25 14.5 -35t39.5 -10q23 0 39.5 3t27.5 8zM134 593l10 73h317l-10 -73h-317z" />
    <glyph glyph-name="Umacron" unicode="&#x16a;" horiz-adv-x="448" 
d="M385 664h117l-92 -652q-26 -9 -73.5 -19t-119.5 -10q-34 0 -64 6t-52 21t-35 39.5t-13 60.5q0 16 3 34l73 520h118l-72 -514q-1 -4 -1 -7.5v-6.5q0 -26 16.5 -36t43.5 -10q47 0 72 11zM172 765l10 73h317l-10 -73h-317z" />
    <glyph glyph-name="umacron" unicode="&#x16b;" horiz-adv-x="419" 
d="M339 492h107l-68 -481q-26 -9 -68.5 -18.5t-109.5 -9.5q-32 0 -59.5 6t-47.5 20t-31 37t-11 58q0 15 3 35l50 353h108l-49 -345q-1 -3 -1 -14q0 -25 14.5 -35t39.5 -10q23 0 39.5 3t27.5 8zM134 593l10 73h317l-10 -73h-317z" />
    <glyph glyph-name="Ubreve" unicode="&#x16c;" horiz-adv-x="448" 
d="M385 664h117l-92 -652q-26 -9 -73.5 -19t-119.5 -10q-34 0 -64 6t-52 21t-35 39.5t-13 60.5q0 16 3 34l73 520h118l-72 -514q-1 -4 -1 -7.5v-6.5q0 -26 16.5 -36t43.5 -10q47 0 72 11zM507 888q-6 -42 -23.5 -73t-42.5 -51.5t-55 -31t-61 -10.5q-60 0 -98.5 36.5
t-38.5 111.5v8.5t2 9.5h66q-1 -5 -1 -8.5v-7.5q0 -86 79 -86q42 0 70 25.5t36 76.5h67z" />
    <glyph glyph-name="ubreve" unicode="&#x16d;" horiz-adv-x="419" 
d="M339 492h107l-68 -481q-26 -9 -68.5 -18.5t-109.5 -9.5q-32 0 -59.5 6t-47.5 20t-31 37t-11 58q0 15 3 35l50 353h108l-49 -345q-1 -3 -1 -14q0 -25 14.5 -35t39.5 -10q23 0 39.5 3t27.5 8zM469 716q-6 -42 -23.5 -73t-42.5 -51.5t-55 -31t-61 -10.5q-60 0 -98.5 36.5
t-38.5 111.5v8.5t2 9.5h66q-1 -5 -1 -8.5v-7.5q0 -86 79 -86q42 0 70 25.5t36 76.5h67z" />
    <glyph glyph-name="Uring" unicode="&#x16e;" horiz-adv-x="448" 
d="M385 664h117l-92 -652q-26 -9 -73.5 -19t-119.5 -10q-34 0 -64 6t-52 21t-35 39.5t-13 60.5q0 16 3 34l73 520h118l-72 -514q-1 -4 -1 -7.5v-6.5q0 -26 16.5 -36t43.5 -10q47 0 72 11zM436 792q-7 -48 -33 -72t-83 -24q-89 0 -89 74q0 57 29.5 87.5t86.5 30.5
q49 0 69.5 -19.5t20.5 -55.5v-10.5t-1 -10.5zM394 792q0 3 0.5 6.5t0.5 6.5q0 45 -53 45q-30 0 -47.5 -18t-17.5 -54q0 -43 49 -43q59 0 68 57z" />
    <glyph glyph-name="uring" unicode="&#x16f;" horiz-adv-x="419" 
d="M339 492h107l-68 -481q-26 -9 -68.5 -18.5t-109.5 -9.5q-32 0 -59.5 6t-47.5 20t-31 37t-11 58q0 15 3 35l50 353h108l-49 -345q-1 -3 -1 -14q0 -25 14.5 -35t39.5 -10q23 0 39.5 3t27.5 8zM398 620q-7 -48 -33 -72t-83 -24q-89 0 -89 74q0 57 29.5 87.5t86.5 30.5
q49 0 69.5 -19.5t20.5 -55.5v-10.5t-1 -10.5zM356 620q0 3 0.5 6.5t0.5 6.5q0 45 -53 45q-30 0 -47.5 -18t-17.5 -54q0 -43 49 -43q59 0 68 57z" />
    <glyph glyph-name="Uhungarumlaut" unicode="&#x170;" horiz-adv-x="448" 
d="M385 664h117l-92 -652q-26 -9 -73.5 -19t-119.5 -10q-34 0 -64 6t-52 21t-35 39.5t-13 60.5q0 16 3 34l73 520h118l-72 -514q-1 -4 -1 -7.5v-6.5q0 -26 16.5 -36t43.5 -10q47 0 72 11zM188 740l144 150l32 -31l-148 -146zM342 740l148 147l33 -30l-154 -144z" />
    <glyph glyph-name="uhungarumlaut" unicode="&#x171;" horiz-adv-x="419" 
d="M339 492h107l-68 -481q-26 -9 -68.5 -18.5t-109.5 -9.5q-32 0 -59.5 6t-47.5 20t-31 37t-11 58q0 15 3 35l50 353h108l-49 -345q-1 -3 -1 -14q0 -25 14.5 -35t39.5 -10q23 0 39.5 3t27.5 8zM149 568l144 150l32 -31l-148 -146zM303 568l148 147l33 -30l-154 -144z" />
    <glyph glyph-name="Uogonek" unicode="&#x172;" horiz-adv-x="448" 
d="M337 -229q-5 -2 -17 -3t-35 -1q-35 0 -57 6t-35 16.5t-18 24.5t-5 31q0 53 23 84t75 51l16 6q-32 -3 -67 -3q-34 0 -64 6t-52 21t-35 39.5t-13 60.5q0 16 3 34l73 520h118l-72 -514q-1 -4 -1 -7.5v-6.5q0 -26 16.5 -36t43.5 -10q47 0 72 11l79 563h117l-92 -652
q-5 -2 -10.5 -4t-16 -6t-28 -10.5t-45.5 -18.5q-30 -13 -41 -31t-11 -43q0 -17 11 -26.5t40 -9.5q24 0 42 5z" />
    <glyph glyph-name="uogonek" unicode="&#x173;" horiz-adv-x="419" 
d="M310 -229q-5 -2 -17 -3t-35 -1q-35 0 -57 6t-35 16.5t-18 24.5t-5 31q0 54 22 85t76 50l12 5q-12 -1 -25.5 -1.5t-27.5 -0.5q-32 0 -59.5 6t-47.5 20t-31 37t-11 58q0 15 3 35l50 353h108l-49 -345q-1 -3 -1 -14q0 -25 14.5 -35t39.5 -10q23 0 39.5 3t27.5 8l56 393h107
l-68 -481l-10 -4t-15 -5.5t-26.5 -10t-43.5 -18.5q-30 -14 -41 -31.5t-11 -42.5q0 -17 11 -26.5t40 -9.5q24 0 42 5z" />
    <glyph glyph-name="Wcircumflex" unicode="&#x174;" horiz-adv-x="650" 
d="M594 664h116l-60 -427q-8 -56 -28 -95.5t-48.5 -68.5t-63 -50t-71.5 -39q-34 22 -60.5 49.5t-40.5 61.5q-21 -34 -56.5 -61.5t-77.5 -49.5q-27 16 -53 34t-45.5 42t-31.5 55.5t-12 74.5q0 12 1 24t3 23l60 427h119l-60 -427q-3 -17 -3 -31q0 -35 13 -55.5t32 -34.5
q28 16 48.5 43t28.5 78l60 427h111l-60 -427q-2 -5 -2 -9.5v-9.5q0 -42 11.5 -65t33.5 -37q29 16 48.5 43t27.5 78zM445 853l-159 -130l-31 41l155 144h85l114 -144l-43 -41z" />
    <glyph glyph-name="wcircumflex" unicode="&#x175;" horiz-adv-x="594" 
d="M525 492h107l-39 -276q-8 -53 -26 -91t-43.5 -66.5t-57 -49t-65.5 -37.5q-35 17 -58.5 42.5t-36.5 53.5q-21 -28 -51.5 -53.5t-70.5 -42.5q-25 15 -48 32.5t-40.5 40.5t-28 53t-10.5 70q0 13 1 25t3 23l39 276h107l-42 -294q-1 -8 -1.5 -14.5t-0.5 -12.5
q0 -32 11.5 -50.5t28.5 -30.5q22 13 41 35.5t27 72.5l42 294h107l-42 -295q-2 -5 -2 -9.5v-9.5q0 -39 9.5 -57t29.5 -31q22 13 41.5 36.5t26.5 71.5zM393 681l-159 -130l-31 41l155 144h85l114 -144l-43 -41z" />
    <glyph glyph-name="Ycircumflex" unicode="&#x176;" horiz-adv-x="426" 
d="M155 0l32 233q-21 15 -39.5 32t-32 38.5t-21.5 48.5t-8 60q0 20 3 43l30 209h119l-30 -215q-1 -7 -1.5 -13.5t-0.5 -12.5q0 -38 16.5 -58.5t36.5 -33.5q15 8 29 17.5t25.5 23t20 32.5t12.5 45l30 215h115l-30 -209q-6 -43 -21 -77t-36 -61t-46.5 -47.5t-53.5 -36.5
l-32 -233h-117zM335 853l-159 -130l-31 41l155 144h85l114 -144l-43 -41z" />
    <glyph glyph-name="ycircumflex" unicode="&#x177;" horiz-adv-x="406" 
d="M267 17q-16 -8 -37.5 -14t-54.5 -6q-25 0 -48 4.5t-40 17.5t-27.5 35t-10.5 58q0 17 3 40l48 340h107l-47 -333q-1 -4 -1 -7.5v-6.5q0 -26 14 -35t39 -9q24 0 41 5.5t28 12.5l53 373h107l-83 -587q-6 -43 -23 -72t-42.5 -46.5t-57.5 -25t-69 -7.5q-31 0 -57 6t-44.5 19.5
t-29 36t-10.5 55.5q0 16 3 34l6 39h100l-5 -35q-1 -3 -1 -12q0 -22 14 -31.5t38 -9.5q29 0 48 12t24 41zM300 681l-159 -130l-31 41l155 144h85l114 -144l-43 -41z" />
    <glyph glyph-name="Ydieresis" unicode="&#x178;" horiz-adv-x="426" 
d="M155 0l32 233q-21 15 -39.5 32t-32 38.5t-21.5 48.5t-8 60q0 20 3 43l30 209h119l-30 -215q-1 -7 -1.5 -13.5t-0.5 -12.5q0 -38 16.5 -58.5t36.5 -33.5q15 8 29 17.5t25.5 23t20 32.5t12.5 45l30 215h115l-30 -209q-6 -43 -21 -77t-36 -61t-46.5 -47.5t-53.5 -36.5
l-32 -233h-117zM166 726l19 133h104l-19 -133h-104zM358 726l19 133h105l-19 -133h-105z" />
    <glyph glyph-name="Zacute" unicode="&#x179;" horiz-adv-x="395" 
d="M24 0l15 113l278 452h-204l14 99h330l-12 -84l-275 -478h208l-14 -102h-340zM202 706l8 57l244 119l-11 -83z" />
    <glyph glyph-name="zacute" unicode="&#x17a;" horiz-adv-x="373" 
d="M23 0l12 91l235 314h-175l13 87h304l-11 -77l-235 -325h196l-12 -90h-327zM167 534l8 57l244 119l-11 -83z" />
    <glyph glyph-name="Zdotaccent" unicode="&#x17b;" horiz-adv-x="395" 
d="M24 0l15 113l278 452h-204l14 99h330l-12 -84l-275 -478h208l-14 -102h-340zM246 726l19 133h104l-19 -133h-104z" />
    <glyph glyph-name="zdotaccent" unicode="&#x17c;" horiz-adv-x="373" 
d="M23 0l12 91l235 314h-175l13 87h304l-11 -77l-235 -325h196l-12 -90h-327zM211 554l19 133h104l-19 -133h-104z" />
    <glyph glyph-name="Zcaron" unicode="&#x17d;" horiz-adv-x="395" 
d="M24 0l15 113l278 452h-204l14 99h330l-12 -84l-275 -478h208l-14 -102h-340zM297 703l-155 153l40 42l126 -117l162 117l27 -42z" />
    <glyph glyph-name="zcaron" unicode="&#x17e;" horiz-adv-x="373" 
d="M23 0l12 91l235 314h-175l13 87h304l-11 -77l-235 -325h196l-12 -90h-327zM261 531l-155 153l40 42l126 -117l162 117l27 -42z" />
    <glyph glyph-name="florin" unicode="&#x192;" horiz-adv-x="454" 
d="M-36 -173l14 98h20q48 0 76.5 19.5t43.5 73.5l100 354h-79l12 86h91l12 39q16 51 38 84.5t52 53.5t69 28.5t89 8.5h25l-14 -97h-30q-42 0 -70 -20.5t-38 -58.5l-10 -38h93l-12 -86h-105l-103 -362q-15 -54 -36.5 -89.5t-51.5 -56t-70 -29t-93 -8.5h-23z" />
    <glyph glyph-name="uni0218" unicode="&#x218;" horiz-adv-x="406" 
d="M339 466l6 41q1 8 1.5 14.5t0.5 12.5q0 29 -13 39t-40 10q-22 0 -36 -3.5t-22 -13t-13 -26.5t-9 -43q-3 -18 -3 -30q0 -14 4 -24.5t13.5 -18.5t25.5 -15.5t41 -15.5q35 -12 58 -26t36 -31t18 -37t5 -44q0 -18 -2 -38t-5 -43q-6 -45 -19.5 -80.5t-38 -60t-61.5 -37.5
t-91 -13q-72 0 -111.5 27.5t-39.5 96.5q0 18 3 39l13 90h104l-12 -86q-1 -5 -1.5 -10t-0.5 -10q0 -26 15.5 -34.5t45.5 -8.5q20 0 33 4t21.5 13.5t13.5 26.5t9 44q2 17 3.5 30t1.5 24q0 19 -5 32t-15.5 22t-27.5 16t-41 16q-58 21 -84.5 52.5t-26.5 86.5q0 18 3 41
q6 43 19 77t37.5 58t62 37t92.5 13q69 0 106.5 -27.5t37.5 -100.5v-10t-2 -10l-9 -66h-101zM143 -34h111l-8 -52q-5 -32 -17 -60t-29.5 -49t-40 -34t-47.5 -14z" />
    <glyph glyph-name="uni0219" unicode="&#x219;" horiz-adv-x="403" 
d="M317 347l4 30q0 2 0.5 5t0.5 5q0 17 -14 22.5t-44 5.5q-37 0 -56 -10t-19 -45q0 -12 13.5 -23t33 -20t41.5 -17t40 -15q48 -19 65.5 -45.5t17.5 -61.5q0 -16 -3 -34q-6 -45 -21.5 -76t-40.5 -50t-60.5 -27t-81.5 -8q-32 0 -60.5 4t-50.5 15.5t-34.5 30.5t-12.5 49
q0 5 0.5 10.5t1.5 11.5l8 57h104l-4 -29q-1 -5 -1 -8.5v-6.5q0 -23 14.5 -31.5t46.5 -8.5q34 0 54 12.5t20 55.5q0 20 -11 33t-27.5 22t-36.5 15t-37 12q-42 15 -68.5 40t-26.5 72q0 50 16.5 82t44 51t64.5 26t78 7q28 0 55.5 -3.5t48.5 -13.5t34 -28t13 -47v-9.5t-1 -9.5
l-7 -47h-101zM141 -34h111l-8 -52q-5 -32 -17 -60t-29.5 -49t-40 -34t-47.5 -14z" />
    <glyph glyph-name="uni021A" unicode="&#x21a;" horiz-adv-x="366" 
d="M124 0l79 565h-111l14 99h341l-14 -99h-113l-79 -565h-117zM123 -34h111l-8 -52q-5 -32 -17 -60t-29.5 -49t-40 -34t-47.5 -14z" />
    <glyph glyph-name="uni021B" unicode="&#x21b;" horiz-adv-x="260" 
d="M74 0l58 414h-55l11 78h55l15 112h108l-15 -112h59l-11 -78h-59l-58 -414h-108zM70 -34h111l-8 -52q-5 -32 -17 -60t-29.5 -49t-40 -34t-47.5 -14z" />
    <glyph glyph-name="uni0237" unicode="&#x237;" horiz-adv-x="225" 
d="M-14 -132q9 -3 20 -3q23 0 38.5 12t19.5 39l81 576h106l-83 -586q-6 -41 -22 -67.5t-39 -42.5t-52.5 -22.5t-60.5 -6.5q-7 0 -12 0.5t-10 1.5z" />
    <glyph glyph-name="circumflex" unicode="&#x2c6;" horiz-adv-x="487" 
d="M339 681l-159 -130l-31 41l155 144h85l114 -144l-43 -41z" />
    <glyph glyph-name="caron" unicode="&#x2c7;" horiz-adv-x="487" 
d="M317 531l-155 153l40 42l126 -117l162 117l27 -42z" />
    <glyph glyph-name="breve" unicode="&#x2d8;" horiz-adv-x="449" 
d="M483 716q-6 -42 -23.5 -73t-42.5 -51.5t-55 -31t-61 -10.5q-60 0 -98.5 36.5t-38.5 111.5v8.5t2 9.5h66q-1 -5 -1 -8.5v-7.5q0 -86 79 -86q42 0 70 25.5t36 76.5h67z" />
    <glyph glyph-name="dotaccent" unicode="&#x2d9;" horiz-adv-x="237" 
d="M143 554l19 133h104l-19 -133h-104z" />
    <glyph glyph-name="ring" unicode="&#x2da;" horiz-adv-x="335" 
d="M356 620q-7 -48 -33 -72t-83 -24q-89 0 -89 74q0 57 29.5 87.5t86.5 30.5q49 0 69.5 -19.5t20.5 -55.5v-10.5t-1 -10.5zM314 620q0 3 0.5 6.5t0.5 6.5q0 45 -53 45q-30 0 -47.5 -18t-17.5 -54q0 -43 49 -43q59 0 68 57z" />
    <glyph glyph-name="ogonek" unicode="&#x2db;" horiz-adv-x="273" 
d="M193 -229q-5 -2 -17 -3t-35 -1q-35 0 -57 6t-35 16.5t-18 24.5t-5 31q0 53 22 84t76 51l54 20h48l-60 -27q-30 -14 -41 -32t-11 -42q0 -17 11 -26.5t40 -9.5q24 0 42 5z" />
    <glyph glyph-name="tilde" unicode="&#x2dc;" horiz-adv-x="412" 
d="M130 593l10 73h317l-10 -73h-317z" />
    <glyph glyph-name="hungarumlaut" unicode="&#x2dd;" horiz-adv-x="450" 
d="M145 568l144 150l32 -31l-148 -146zM299 568l148 147l33 -30l-154 -144z" />
    <glyph glyph-name="uni0394" unicode="&#x394;" horiz-adv-x="427" 
d="M9 0l306 733l103 -733h-409zM269 410l-120 -308h154z" />
    <glyph glyph-name="uni0394" unicode="&#x2206;" horiz-adv-x="427" 
d="M9 0l306 733l103 -733h-409zM269 410l-120 -308h154z" />
    <glyph glyph-name="uni03A9" unicode="&#x3a9;" horiz-adv-x="450" 
d="M244 0l15 112q23 16 42 46t27 84l38 272q0 3 0.5 6t0.5 6q0 29 -17.5 39t-44.5 10q-32 0 -52 -12.5t-25 -48.5l-38 -272q-2 -12 -3.5 -23t-0.5 -21q0 -33 9.5 -53.5t24.5 -32.5l-15 -112h-169l14 102h93q-35 23 -51 59.5t-16 87.5q0 14 1.5 30t3.5 33l29 206
q6 46 25.5 77.5t48 50t63.5 26.5t73 8q37 0 67.5 -7t52 -23.5t33.5 -44t12 -67.5v-10t-2 -10l-29 -206q-11 -75 -38.5 -128t-81.5 -82h93l-14 -102h-169z" />
    <glyph glyph-name="uni03A9" unicode="&#x2126;" horiz-adv-x="450" 
d="M244 0l15 112q23 16 42 46t27 84l38 272q0 3 0.5 6t0.5 6q0 29 -17.5 39t-44.5 10q-32 0 -52 -12.5t-25 -48.5l-38 -272q-2 -12 -3.5 -23t-0.5 -21q0 -33 9.5 -53.5t24.5 -32.5l-15 -112h-169l14 102h93q-35 23 -51 59.5t-16 87.5q0 14 1.5 30t3.5 33l29 206
q6 46 25.5 77.5t48 50t63.5 26.5t73 8q37 0 67.5 -7t52 -23.5t33.5 -44t12 -67.5v-10t-2 -10l-29 -206q-11 -75 -38.5 -128t-81.5 -82h93l-14 -102h-169z" />
    <glyph glyph-name="pi" unicode="&#x3c0;" horiz-adv-x="424" 
d="M275 0l54 391h-128l-54 -391h-108l69 492h346l-69 -492h-110z" />
    <glyph glyph-name="Wgrave" unicode="&#x1e80;" horiz-adv-x="650" 
d="M594 664h116l-60 -427q-8 -56 -28 -95.5t-48.5 -68.5t-63 -50t-71.5 -39q-34 22 -60.5 49.5t-40.5 61.5q-21 -34 -56.5 -61.5t-77.5 -49.5q-27 16 -53 34t-45.5 42t-31.5 55.5t-12 74.5q0 12 1 24t3 23l60 427h119l-60 -427q-3 -17 -3 -31q0 -35 13 -55.5t32 -34.5
q28 16 48.5 43t28.5 78l60 427h111l-60 -427q-2 -5 -2 -9.5v-9.5q0 -42 11.5 -65t33.5 -37q29 16 48.5 43t27.5 78zM303 799l11 83l212 -119l-8 -57z" />
    <glyph glyph-name="wgrave" unicode="&#x1e81;" horiz-adv-x="594" 
d="M525 492h107l-39 -276q-8 -53 -26 -91t-43.5 -66.5t-57 -49t-65.5 -37.5q-35 17 -58.5 42.5t-36.5 53.5q-21 -28 -51.5 -53.5t-70.5 -42.5q-25 15 -48 32.5t-40.5 40.5t-28 53t-10.5 70q0 13 1 25t3 23l39 276h107l-42 -294q-1 -8 -1.5 -14.5t-0.5 -12.5
q0 -32 11.5 -50.5t28.5 -30.5q22 13 41 35.5t27 72.5l42 294h107l-42 -295q-2 -5 -2 -9.5v-9.5q0 -39 9.5 -57t29.5 -31q22 13 41.5 36.5t26.5 71.5zM251 627l11 83l212 -119l-8 -57z" />
    <glyph glyph-name="Wacute" unicode="&#x1e82;" horiz-adv-x="650" 
d="M594 664h116l-60 -427q-8 -56 -28 -95.5t-48.5 -68.5t-63 -50t-71.5 -39q-34 22 -60.5 49.5t-40.5 61.5q-21 -34 -56.5 -61.5t-77.5 -49.5q-27 16 -53 34t-45.5 42t-31.5 55.5t-12 74.5q0 12 1 24t3 23l60 427h119l-60 -427q-3 -17 -3 -31q0 -35 13 -55.5t32 -34.5
q28 16 48.5 43t28.5 78l60 427h111l-60 -427q-2 -5 -2 -9.5v-9.5q0 -42 11.5 -65t33.5 -37q29 16 48.5 43t27.5 78zM330 706l8 57l244 119l-11 -83z" />
    <glyph glyph-name="wacute" unicode="&#x1e83;" horiz-adv-x="594" 
d="M525 492h107l-39 -276q-8 -53 -26 -91t-43.5 -66.5t-57 -49t-65.5 -37.5q-35 17 -58.5 42.5t-36.5 53.5q-21 -28 -51.5 -53.5t-70.5 -42.5q-25 15 -48 32.5t-40.5 40.5t-28 53t-10.5 70q0 13 1 25t3 23l39 276h107l-42 -294q-1 -8 -1.5 -14.5t-0.5 -12.5
q0 -32 11.5 -50.5t28.5 -30.5q22 13 41 35.5t27 72.5l42 294h107l-42 -295q-2 -5 -2 -9.5v-9.5q0 -39 9.5 -57t29.5 -31q22 13 41.5 36.5t26.5 71.5zM278 534l8 57l244 119l-11 -83z" />
    <glyph glyph-name="Wdieresis" unicode="&#x1e84;" horiz-adv-x="650" 
d="M594 664h116l-60 -427q-8 -56 -28 -95.5t-48.5 -68.5t-63 -50t-71.5 -39q-34 22 -60.5 49.5t-40.5 61.5q-21 -34 -56.5 -61.5t-77.5 -49.5q-27 16 -53 34t-45.5 42t-31.5 55.5t-12 74.5q0 12 1 24t3 23l60 427h119l-60 -427q-3 -17 -3 -31q0 -35 13 -55.5t32 -34.5
q28 16 48.5 43t28.5 78l60 427h111l-60 -427q-2 -5 -2 -9.5v-9.5q0 -42 11.5 -65t33.5 -37q29 16 48.5 43t27.5 78zM277 726l19 133h104l-19 -133h-104zM469 726l19 133h105l-19 -133h-105z" />
    <glyph glyph-name="wdieresis" unicode="&#x1e85;" horiz-adv-x="594" 
d="M525 492h107l-39 -276q-8 -53 -26 -91t-43.5 -66.5t-57 -49t-65.5 -37.5q-35 17 -58.5 42.5t-36.5 53.5q-21 -28 -51.5 -53.5t-70.5 -42.5q-25 15 -48 32.5t-40.5 40.5t-28 53t-10.5 70q0 13 1 25t3 23l39 276h107l-42 -294q-1 -8 -1.5 -14.5t-0.5 -12.5
q0 -32 11.5 -50.5t28.5 -30.5q22 13 41 35.5t27 72.5l42 294h107l-42 -295q-2 -5 -2 -9.5v-9.5q0 -39 9.5 -57t29.5 -31q22 13 41.5 36.5t26.5 71.5zM225 554l19 133h104l-19 -133h-104zM417 554l19 133h105l-19 -133h-105z" />
    <glyph glyph-name="Ygrave" unicode="&#x1ef2;" horiz-adv-x="426" 
d="M155 0l32 233q-21 15 -39.5 32t-32 38.5t-21.5 48.5t-8 60q0 20 3 43l30 209h119l-30 -215q-1 -7 -1.5 -13.5t-0.5 -12.5q0 -38 16.5 -58.5t36.5 -33.5q15 8 29 17.5t25.5 23t20 32.5t12.5 45l30 215h115l-30 -209q-6 -43 -21 -77t-36 -61t-46.5 -47.5t-53.5 -36.5
l-32 -233h-117zM191 799l11 83l212 -119l-8 -57z" />
    <glyph glyph-name="ygrave" unicode="&#x1ef3;" horiz-adv-x="406" 
d="M267 17q-16 -8 -37.5 -14t-54.5 -6q-25 0 -48 4.5t-40 17.5t-27.5 35t-10.5 58q0 17 3 40l48 340h107l-47 -333q-1 -4 -1 -7.5v-6.5q0 -26 14 -35t39 -9q24 0 41 5.5t28 12.5l53 373h107l-83 -587q-6 -43 -23 -72t-42.5 -46.5t-57.5 -25t-69 -7.5q-31 0 -57 6t-44.5 19.5
t-29 36t-10.5 55.5q0 16 3 34l6 39h100l-5 -35q-1 -3 -1 -12q0 -22 14 -31.5t38 -9.5q29 0 48 12t24 41zM157 627l11 83l212 -119l-8 -57z" />
    <glyph glyph-name="endash" unicode="&#x2013;" horiz-adv-x="486" 
d="M80 267l12 85h401l-12 -85h-401z" />
    <glyph glyph-name="emdash" unicode="&#x2014;" horiz-adv-x="623" 
d="M58 267l12 85h581l-12 -85h-581z" />
    <glyph glyph-name="quoteleft" unicode="&#x2018;" horiz-adv-x="208" 
d="M139 672h117l-40 -292q-26 1 -44.5 12t-30.5 29.5t-17.5 43t-5.5 53.5v9.5t2 9.5z" />
    <glyph glyph-name="quoteright" unicode="&#x2019;" horiz-adv-x="208" 
d="M140 672h117l-19 -135q-5 -32 -17.5 -60t-31 -49t-42 -34t-49.5 -14z" />
    <glyph glyph-name="quotesinglbase" unicode="&#x201a;" horiz-adv-x="208" 
d="M67 151h117l-19 -135q-5 -32 -17.5 -60t-31 -49t-42 -34t-49.5 -14z" />
    <glyph glyph-name="quotedblleft" unicode="&#x201c;" horiz-adv-x="416" 
d="M139 672h117l-40 -292q-26 1 -44.5 12t-30.5 29.5t-17.5 43t-5.5 53.5v9.5t2 9.5zM347 672h117l-40 -292q-26 1 -44.5 12t-30.5 29.5t-17.5 43t-5.5 53.5v9.5t2 9.5z" />
    <glyph glyph-name="quotedblright" unicode="&#x201d;" horiz-adv-x="416" 
d="M140 672h117l-19 -135q-5 -32 -17.5 -60t-31 -49t-42 -34t-49.5 -14zM348 672h117l-19 -135q-5 -32 -17.5 -60t-31 -49t-42 -34t-49.5 -14z" />
    <glyph glyph-name="quotedblbase" unicode="&#x201e;" horiz-adv-x="416" 
d="M67 151h117l-19 -135q-5 -32 -17.5 -60t-31 -49t-42 -34t-49.5 -14zM275 151h117l-19 -135q-5 -32 -17.5 -60t-31 -49t-42 -34t-49.5 -14z" />
    <glyph glyph-name="dagger" unicode="&#x2020;" horiz-adv-x="351" 
d="M135 0l62 446h-96l10 69h96l21 149h87l-21 -149h88l-10 -69h-88l-62 -446h-87z" />
    <glyph glyph-name="daggerdbl" unicode="&#x2021;" horiz-adv-x="351" 
d="M135 0l20 149h-96l10 68h96l32 229h-96l10 69h96l21 149h87l-21 -149h88l-10 -69h-88l-32 -229h88l-10 -68h-88l-20 -149h-87z" />
    <glyph glyph-name="bullet" unicode="&#x2022;" horiz-adv-x="405" 
d="M404 343q-4 -29 -19.5 -53.5t-39 -42.5t-53 -28t-60.5 -10q-60 0 -98 32.5t-38 83.5q0 33 14 61t38 48.5t55.5 32t66.5 11.5q28 0 53 -8.5t43 -24t28.5 -37t10.5 -47.5v-9t-1 -9z" />
    <glyph glyph-name="ellipsis" unicode="&#x2026;" horiz-adv-x="1215" 
d="M63 0l21 151h117l-21 -151h-117zM549 0l21 151h117l-21 -151h-117zM1035 0l21 151h117l-21 -151h-117z" />
    <glyph glyph-name="perthousand" unicode="&#x2030;" horiz-adv-x="724" 
d="M296 415q-6 -46 -37 -63.5t-69 -17.5q-36 0 -60 14t-24 51v7.5t1 8.5l26 187q7 47 36.5 64t69.5 17q35 0 59.5 -14t24.5 -51v-7.5t-1 -8.5zM250 596v5q0 14 -21 14t-24 -19l-25 -175q0 -2 -0.5 -3t-0.5 -2q0 -14 20 -14q23 0 26 19zM33 -20l469 704h86l-471 -704h-84z
M489 62q-6 -46 -37 -63.5t-69 -17.5q-36 0 -60 14t-24 51v7.5t1 8.5l26 187q7 47 36.5 64t69.5 17q35 0 59.5 -14t24.5 -51v-7.5t-1 -8.5zM443 243v5q0 14 -21 14t-24 -19l-25 -175q0 -2 -0.5 -3t-0.5 -2q0 -14 20 -14q23 0 26 19zM700 62q-6 -46 -37 -63.5t-69 -17.5
q-36 0 -60 14t-24 51v7.5t1 8.5l26 187q7 47 36.5 64t69.5 17q35 0 59.5 -14t24.5 -51v-7.5t-1 -8.5zM654 243v5q0 14 -21 14t-24 -19l-25 -175q0 -2 -0.5 -3t-0.5 -2q0 -14 20 -14q23 0 26 19z" />
    <glyph glyph-name="guilsinglleft" unicode="&#x2039;" horiz-adv-x="233" 
d="M65 317l164 174l43 -55l-117 -119l83 -118l-58 -54z" />
    <glyph glyph-name="guilsinglright" unicode="&#x203a;" horiz-adv-x="233" 
d="M48 199l118 118l-84 119l58 55l115 -174l-164 -172z" />
    <glyph glyph-name="fraction" unicode="&#x2044;" horiz-adv-x="129" 
d="M-166 -20l469 704h86l-471 -704h-84z" />
    <glyph glyph-name="uni2070" unicode="&#x2070;" horiz-adv-x="251" 
d="M277 415q-6 -46 -37 -63.5t-69 -17.5q-36 0 -60 14t-24 51v7.5t1 8.5l26 187q7 47 36.5 64t69.5 17q35 0 59.5 -14t24.5 -51v-7.5t-1 -8.5zM231 596v5q0 14 -21 14t-24 -19l-25 -175q0 -2 -0.5 -3t-0.5 -2q0 -14 20 -14q23 0 26 19z" />
    <glyph glyph-name="uni2074" unicode="&#x2074;" horiz-adv-x="247" 
d="M193 343l8 59h-120l10 68l118 205h69l-116 -210h50l9 61h65l-26 -183h-67z" />
    <glyph glyph-name="uni2075" unicode="&#x2075;" horiz-adv-x="244" 
d="M268 415q-8 -47 -35.5 -64t-68.5 -17q-35 0 -55.5 13.5t-20.5 49.5v8.5t1 9.5l4 30h64l-3 -24q0 -2 -0.5 -3.5t-0.5 -2.5q0 -14 20 -14q16 0 19.5 8t5.5 22l5 35q1 3 1 10q0 15 -19 15q-8 0 -11 -1.5t-5 -3.5h-65l38 189h154l-9 -62h-89l-15 -76q10 4 18.5 6t19.5 2
q56 0 56 -57v-10.5t-1 -10.5z" />
    <glyph glyph-name="uni2076" unicode="&#x2076;" horiz-adv-x="251" 
d="M278 412q-3 -22 -12.5 -37t-24 -24t-32 -13t-36.5 -4q-37 0 -61.5 14t-24.5 50v6.5t1 7.5l26 189q7 47 36.5 64.5t70.5 17.5q35 0 57 -13.5t22 -49.5v-9.5t-1 -9.5l-2 -19h-69l2 22q0 13 -18 13q-11 0 -17.5 -4t-8.5 -15l-8 -57q6 4 15 7.5t25 3.5q12 0 24.5 -2.5
t22.5 -9t16 -18t6 -30.5v-9.5t-1 -9.5zM214 475v6q0 16 -19 16q-18 0 -25 -13l-10 -67q0 -9 3.5 -13t16.5 -4q23 0 25 17z" />
    <glyph glyph-name="uni2077" unicode="&#x2077;" horiz-adv-x="223" 
d="M106 343q6 40 17 80t25 75.5t30 65t32 48.5h-101l9 63h171l-8 -52q-36 -48 -63.5 -120t-41.5 -160h-70z" />
    <glyph glyph-name="uni2078" unicode="&#x2078;" horiz-adv-x="249" 
d="M276 415q-6 -46 -35 -63.5t-71 -17.5q-38 0 -61 14t-23 51v7.5t1 8.5l4 28q3 22 15 41.5t35 27.5q-17 6 -23 21t-6 33v9t1 9l2 18q5 46 34.5 63.5t69.5 17.5q38 0 60 -13.5t22 -49.5v-8.5t-1 -9.5l-2 -18q-2 -22 -14.5 -43t-33.5 -29q17 -7 24 -22t7 -33q0 -11 -1 -14z
M210 459q0 2 0.5 4.5t0.5 4.5q0 19 -20 19q-23 0 -26 -28l-5 -44q0 -13 19 -13q11 0 17.5 3.5t8.5 14.5zM230 597v4q0 9 -5 12t-16 3t-16.5 -4t-7.5 -15l-5 -33q0 -2 -0.5 -4t-0.5 -4q0 -19 19 -19q12 0 18.5 7.5t8.5 19.5z" />
    <glyph glyph-name="uni2079" unicode="&#x2079;" horiz-adv-x="250" 
d="M212 480q-5 -4 -14.5 -7.5t-25.5 -3.5q-12 0 -24.5 2.5t-22 9t-15.5 18.5t-6 31v9t1 9l8 57q6 44 36 61t68 17q36 0 61.5 -14t25.5 -50q0 -11 -1 -14l-27 -190q-7 -47 -35.5 -64t-70.5 -17q-36 0 -58.5 13.5t-22.5 50.5v8t1 9l4 25h69l-3 -20q0 -2 -0.5 -3t-0.5 -2
q0 -14 20 -14q22 0 25 19zM229 599v5q0 13 -19 13q-11 0 -17.5 -3.5t-8.5 -14.5l-7 -53q0 -2 -0.5 -3t-0.5 -3q0 -15 20 -15q16 0 24 12z" />
    <glyph glyph-name="uni2080" unicode="&#x2080;" horiz-adv-x="251" 
d="M228 62q-6 -46 -37 -63.5t-69 -17.5q-36 0 -60 14t-24 51v7.5t1 8.5l26 187q7 47 36.5 64t69.5 17q35 0 59.5 -14t24.5 -51v-7.5t-1 -8.5zM182 243v5q0 14 -21 14t-24 -19l-25 -175q0 -2 -0.5 -3t-0.5 -2q0 -14 20 -14q23 0 26 19z" />
    <glyph glyph-name="uni2081" unicode="&#x2081;" horiz-adv-x="165" 
d="M58 -10l35 253q0 14 -19 14q-6 0 -12 -2l10 70q3 0 6 0.5t6 0.5q35 0 59.5 -14t24.5 -51v-7.5t-1 -8.5l-36 -255h-73z" />
    <glyph glyph-name="uni2082" unicode="&#x2082;" horiz-adv-x="242" 
d="M30 -10l13 92q5 32 15 54t34 33t39 16t23.5 11t12.5 16.5t7 32.5q1 3 1 11q0 9 -4 12t-14 3q-22 0 -25 -15l-4 -31h-61l5 34q6 42 31.5 56.5t61.5 14.5q45 0 62 -15t17 -47q0 -60 -18.5 -89t-57.5 -43q-23 -9 -35.5 -16t-15.5 -29l-5 -39h102l-9 -62h-175z" />
    <glyph glyph-name="uni2083" unicode="&#x2083;" horiz-adv-x="238" 
d="M216 62q-7 -46 -35 -63.5t-70 -17.5q-35 0 -55.5 13.5t-20.5 48.5v9.5t1 9.5l4 30h65l-3 -25q0 -2 -0.5 -3.5t-0.5 -2.5q0 -13 19 -13q11 0 17 3.5t8 14.5l5 39q0 3 0.5 5.5t0.5 4.5q0 19 -19 19h-22l7 50h22q14 0 19 7.5t7 21.5l5 37q0 14 -19 14q-13 0 -17.5 -4
t-6.5 -16l-4 -24h-65l4 29q7 47 32 64t66 17q38 0 59.5 -13.5t21.5 -48.5v-9.5t-1 -9.5l-2 -18q-2 -22 -14 -43t-34 -29q17 -6 24 -21.5t7 -32.5q0 -12 -1 -15z" />
    <glyph glyph-name="uni2084" unicode="&#x2084;" horiz-adv-x="247" 
d="M144 -10l8 59h-120l10 68l118 205h69l-116 -210h50l9 61h65l-26 -183h-67z" />
    <glyph glyph-name="uni2085" unicode="&#x2085;" horiz-adv-x="244" 
d="M219 62q-8 -47 -35.5 -64t-68.5 -17q-35 0 -55.5 13.5t-20.5 49.5v8.5t1 9.5l4 30h64l-3 -24q0 -2 -0.5 -3.5t-0.5 -2.5q0 -14 20 -14q16 0 19.5 8t5.5 22l5 35q1 3 1 10q0 15 -19 15q-8 0 -11 -1.5t-5 -3.5h-65l38 189h154l-9 -62h-89l-15 -76q10 4 18.5 6t19.5 2
q56 0 56 -57v-10.5t-1 -10.5z" />
    <glyph glyph-name="uni2086" unicode="&#x2086;" horiz-adv-x="251" 
d="M229 59q-3 -22 -12.5 -37t-24 -24t-32 -13t-36.5 -4q-37 0 -61.5 14t-24.5 50v6.5t1 7.5l26 189q7 47 36.5 64.5t70.5 17.5q35 0 57 -13.5t22 -49.5v-9.5t-1 -9.5l-2 -19h-69l2 22q0 13 -18 13q-11 0 -17.5 -4t-8.5 -15l-8 -57q6 4 15 7.5t25 3.5q12 0 24.5 -2.5t22.5 -9
t16 -18t6 -30.5v-9.5t-1 -9.5zM165 122v6q0 16 -19 16q-18 0 -25 -13l-10 -67q0 -9 3.5 -13t16.5 -4q23 0 25 17z" />
    <glyph glyph-name="uni2087" unicode="&#x2087;" horiz-adv-x="223" 
d="M57 -10q6 40 17 80t25 75.5t30 65t32 48.5h-101l9 63h171l-8 -52q-36 -48 -63.5 -120t-41.5 -160h-70z" />
    <glyph glyph-name="uni2088" unicode="&#x2088;" horiz-adv-x="249" 
d="M227 62q-6 -46 -35 -63.5t-71 -17.5q-38 0 -61 14t-23 51v7.5t1 8.5l4 28q3 22 15 41.5t35 27.5q-17 6 -23 21t-6 33v9t1 9l2 18q5 46 34.5 63.5t69.5 17.5q38 0 60 -13.5t22 -49.5v-8.5t-1 -9.5l-2 -18q-2 -22 -14.5 -43t-33.5 -29q17 -7 24 -22t7 -33q0 -11 -1 -14z
M161 106q0 2 0.5 4.5t0.5 4.5q0 19 -20 19q-23 0 -26 -28l-5 -44q0 -13 19 -13q11 0 17.5 3.5t8.5 14.5zM181 244v4q0 9 -5 12t-16 3t-16.5 -4t-7.5 -15l-5 -33q0 -2 -0.5 -4t-0.5 -4q0 -19 19 -19q12 0 18.5 7.5t8.5 19.5z" />
    <glyph glyph-name="uni2089" unicode="&#x2089;" horiz-adv-x="250" 
d="M163 127q-5 -4 -14.5 -7.5t-25.5 -3.5q-12 0 -24.5 2.5t-22 9t-15.5 18.5t-6 31v9t1 9l8 57q6 44 36 61t68 17q36 0 61.5 -14t25.5 -50q0 -11 -1 -14l-27 -190q-7 -47 -35.5 -64t-70.5 -17q-36 0 -58.5 13.5t-22.5 50.5v8t1 9l4 25h69l-3 -20q0 -2 -0.5 -3t-0.5 -2
q0 -14 20 -14q22 0 25 19zM180 246v5q0 13 -19 13q-11 0 -17.5 -3.5t-8.5 -14.5l-7 -53q0 -2 -0.5 -3t-0.5 -3q0 -15 20 -15q16 0 24 12z" />
    <glyph glyph-name="Euro" unicode="&#x20ac;" horiz-adv-x="364" 
d="M330 -9q-11 -4 -34 -6t-52 -2q-36 0 -66.5 6.5t-52.5 21t-34.5 39t-12.5 60.5q0 15 3 35l14 98h-39l15 54h31l11 76h-39l15 53h31l13 92q6 46 24.5 77.5t46 50t63 26.5t75.5 8q37 0 76 -9l-32 -104q-13 5 -27.5 6.5t-31.5 1.5q-32 0 -51.5 -13t-24.5 -48l-13 -88h108
l-16 -53h-99l-11 -76h89l-16 -54h-80l-13 -92q-1 -4 -1 -7.5v-6.5q0 -26 16 -36.5t44 -10.5q29 0 50 3.5t37 8.5z" />
    <glyph glyph-name="trademark" unicode="&#x2122;" horiz-adv-x="549" 
d="M134 353l38 270h-53l7 49h165l-7 -49h-54l-38 -270h-58zM502 353l34 242v7q0 22 -25 22q-18 0 -28 -7l-37 -264h-55l37 262q-3 5 -11 7t-16 2q-9 0 -15.5 -1.5t-13.5 -3.5l-37 -266h-58l44 313q13 5 34 9.5t50 4.5q35 0 52 -16q8 7 24 11.5t39 4.5q33 0 55 -14t22 -49v-7
t-1 -8l-35 -249h-59z" />
    <glyph glyph-name="onethird" unicode="&#x2153;" horiz-adv-x="551" 
d="M152 343l35 253q0 14 -19 14q-6 0 -12 -2l10 70q3 0 6 0.5t6 0.5q35 0 59.5 -14t24.5 -51v-7.5t-1 -8.5l-36 -255h-73zM26 -20l469 704h86l-471 -704h-84zM527 62q-7 -46 -35 -63.5t-70 -17.5q-35 0 -55.5 13.5t-20.5 48.5v9.5t1 9.5l4 30h65l-3 -25q0 -2 -0.5 -3.5
t-0.5 -2.5q0 -13 19 -13q11 0 17 3.5t8 14.5l5 39q0 3 0.5 5.5t0.5 4.5q0 19 -19 19h-22l7 50h22q14 0 19 7.5t7 21.5l5 37q0 14 -19 14q-13 0 -17.5 -4t-6.5 -16l-4 -24h-65l4 29q7 47 32 64t66 17q38 0 59.5 -13.5t21.5 -48.5v-9.5t-1 -9.5l-2 -18q-2 -22 -14 -43t-34 -29
q17 -6 24 -21.5t7 -32.5q0 -12 -1 -15z" />
    <glyph glyph-name="twothirds" unicode="&#x2154;" horiz-adv-x="543" 
d="M79 343l13 92q5 32 15 54t34 33t39 16t23.5 11t12.5 16.5t7 32.5q1 3 1 11q0 9 -4 12t-14 3q-22 0 -25 -15l-4 -31h-61l5 34q6 42 31.5 56.5t61.5 14.5q45 0 62 -15t17 -47q0 -60 -18.5 -89t-57.5 -43q-23 -9 -35.5 -16t-15.5 -29l-5 -39h102l-9 -62h-175zM41 -20
l469 704h86l-471 -704h-84zM519 62q-7 -46 -35 -63.5t-70 -17.5q-35 0 -55.5 13.5t-20.5 48.5v9.5t1 9.5l4 30h65l-3 -25q0 -2 -0.5 -3.5t-0.5 -2.5q0 -13 19 -13q11 0 17 3.5t8 14.5l5 39q0 3 0.5 5.5t0.5 4.5q0 19 -19 19h-22l7 50h22q14 0 19 7.5t7 21.5l5 37
q0 14 -19 14q-13 0 -17.5 -4t-6.5 -16l-4 -24h-65l4 29q7 47 32 64t66 17q38 0 59.5 -13.5t21.5 -48.5v-9.5t-1 -9.5l-2 -18q-2 -22 -14 -43t-34 -29q17 -6 24 -21.5t7 -32.5q0 -12 -1 -15z" />
    <glyph glyph-name="oneeighth" unicode="&#x215b;" horiz-adv-x="552" 
d="M152 343l35 253q0 14 -19 14q-6 0 -12 -2l10 70q3 0 6 0.5t6 0.5q35 0 59.5 -14t24.5 -51v-7.5t-1 -8.5l-36 -255h-73zM29 -20l469 704h86l-471 -704h-84zM528 62q-6 -46 -35 -63.5t-71 -17.5q-38 0 -61 14t-23 51v7.5t1 8.5l4 28q3 22 15 41.5t35 27.5q-17 6 -23 21
t-6 33v9t1 9l2 18q5 46 34.5 63.5t69.5 17.5q38 0 60 -13.5t22 -49.5v-8.5t-1 -9.5l-2 -18q-2 -22 -14.5 -43t-33.5 -29q17 -7 24 -22t7 -33q0 -11 -1 -14zM462 106q0 2 0.5 4.5t0.5 4.5q0 19 -20 19q-23 0 -26 -28l-5 -44q0 -13 19 -13q11 0 17.5 3.5t8.5 14.5zM482 244v4
q0 9 -5 12t-16 3t-16.5 -4t-7.5 -15l-5 -33q0 -2 -0.5 -4t-0.5 -4q0 -19 19 -19q12 0 18.5 7.5t8.5 19.5z" />
    <glyph glyph-name="threeeighths" unicode="&#x215c;" horiz-adv-x="544" 
d="M269 415q-7 -46 -35 -63.5t-70 -17.5q-35 0 -55.5 13.5t-20.5 48.5v9.5t1 9.5l4 30h65l-3 -25q0 -2 -0.5 -3.5t-0.5 -2.5q0 -13 19 -13q11 0 17 3.5t8 14.5l5 39q0 3 0.5 5.5t0.5 4.5q0 19 -19 19h-22l7 50h22q14 0 19 7.5t7 21.5l5 37q0 14 -19 14q-13 0 -17.5 -4
t-6.5 -16l-4 -24h-65l4 29q7 47 32 64t66 17q38 0 59.5 -13.5t21.5 -48.5v-9.5t-1 -9.5l-2 -18q-2 -22 -14 -43t-34 -29q17 -6 24 -21.5t7 -32.5q0 -12 -1 -15zM34 -20l469 704h86l-471 -704h-84zM520 62q-6 -46 -35 -63.5t-71 -17.5q-38 0 -61 14t-23 51v7.5t1 8.5l4 28
q3 22 15 41.5t35 27.5q-17 6 -23 21t-6 33v9t1 9l2 18q5 46 34.5 63.5t69.5 17.5q38 0 60 -13.5t22 -49.5v-8.5t-1 -9.5l-2 -18q-2 -22 -14.5 -43t-33.5 -29q17 -7 24 -22t7 -33q0 -11 -1 -14zM454 106q0 2 0.5 4.5t0.5 4.5q0 19 -20 19q-23 0 -26 -28l-5 -44q0 -13 19 -13
q11 0 17.5 3.5t8.5 14.5zM474 244v4q0 9 -5 12t-16 3t-16.5 -4t-7.5 -15l-5 -33q0 -2 -0.5 -4t-0.5 -4q0 -19 19 -19q12 0 18.5 7.5t8.5 19.5z" />
    <glyph glyph-name="fiveeighths" unicode="&#x215d;" horiz-adv-x="532" 
d="M269 415q-8 -47 -35.5 -64t-68.5 -17q-35 0 -55.5 13.5t-20.5 49.5v8.5t1 9.5l4 30h64l-3 -24q0 -2 -0.5 -3.5t-0.5 -2.5q0 -14 20 -14q16 0 19.5 8t5.5 22l5 35q1 3 1 10q0 15 -19 15q-8 0 -11 -1.5t-5 -3.5h-65l38 189h154l-9 -62h-89l-15 -76q10 4 18.5 6t19.5 2
q56 0 56 -57v-10.5t-1 -10.5zM30 -20l469 704h86l-471 -704h-84zM508 62q-6 -46 -35 -63.5t-71 -17.5q-38 0 -61 14t-23 51v7.5t1 8.5l4 28q3 22 15 41.5t35 27.5q-17 6 -23 21t-6 33v9t1 9l2 18q5 46 34.5 63.5t69.5 17.5q38 0 60 -13.5t22 -49.5v-8.5t-1 -9.5l-2 -18
q-2 -22 -14.5 -43t-33.5 -29q17 -7 24 -22t7 -33q0 -11 -1 -14zM442 106q0 2 0.5 4.5t0.5 4.5q0 19 -20 19q-23 0 -26 -28l-5 -44q0 -13 19 -13q11 0 17.5 3.5t8.5 14.5zM462 244v4q0 9 -5 12t-16 3t-16.5 -4t-7.5 -15l-5 -33q0 -2 -0.5 -4t-0.5 -4q0 -19 19 -19
q12 0 18.5 7.5t8.5 19.5z" />
    <glyph glyph-name="seveneighths" unicode="&#x215e;" horiz-adv-x="542" 
d="M153 343q6 40 17 80t25 75.5t30 65t32 48.5h-101l9 63h171l-8 -52q-36 -48 -63.5 -120t-41.5 -160h-70zM30 -20l469 704h86l-471 -704h-84zM518 62q-6 -46 -35 -63.5t-71 -17.5q-38 0 -61 14t-23 51v7.5t1 8.5l4 28q3 22 15 41.5t35 27.5q-17 6 -23 21t-6 33v9t1 9l2 18
q5 46 34.5 63.5t69.5 17.5q38 0 60 -13.5t22 -49.5v-8.5t-1 -9.5l-2 -18q-2 -22 -14.5 -43t-33.5 -29q17 -7 24 -22t7 -33q0 -11 -1 -14zM452 106q0 2 0.5 4.5t0.5 4.5q0 19 -20 19q-23 0 -26 -28l-5 -44q0 -13 19 -13q11 0 17.5 3.5t8.5 14.5zM472 244v4q0 9 -5 12t-16 3
t-16.5 -4t-7.5 -15l-5 -33q0 -2 -0.5 -4t-0.5 -4q0 -19 19 -19q12 0 18.5 7.5t8.5 19.5z" />
    <glyph glyph-name="partialdiff" unicode="&#x2202;" horiz-adv-x="469" 
d="M285 675q12 2 23.5 3.5t23.5 1.5q34 0 64 -12t53 -37t36.5 -64t13.5 -93q0 -16 -1.5 -33.5t-3.5 -36.5q-12 -83 -33.5 -159t-55.5 -134t-82 -93t-113 -35q-85 0 -121 40t-36 115q0 70 17.5 125t48 93t71 58t85.5 20q18 0 38 -4.5t37.5 -15.5t30.5 -30t16 -48
q8 27 12.5 58t4.5 59q0 27 -5.5 51t-18.5 42t-34 28.5t-51 10.5q-15 0 -33 -3zM366 229q0 57 -23 84.5t-75 27.5q-25 0 -48 -11.5t-40 -34t-27.5 -54.5t-10.5 -74q0 -90 81 -90q51 0 86 37t57 115z" />
    <glyph glyph-name="product" unicode="&#x220f;" horiz-adv-x="463" 
d="M294 -233l115 819h-193l-115 -819h-95l126 897h385l-126 -897h-97z" />
    <glyph glyph-name="summation" unicode="&#x2211;" horiz-adv-x="440" 
d="M17 -182l9 67l248 356l-148 356l10 67h354l-13 -91h-233l128 -332l-221 -333h233l-13 -90h-354z" />
    <glyph glyph-name="minus" unicode="&#x2212;" horiz-adv-x="556" 
d="M87 304l11 80h466l-11 -80h-466z" />
    <glyph glyph-name="radical" unicode="&#x221a;" horiz-adv-x="498" 
d="M192 0l-61 299h-64l9 67h147l32 -226l223 524h100l-296 -664h-90z" />
    <glyph glyph-name="infinity" unicode="&#x221e;" horiz-adv-x="597" 
d="M336 270q-27 -46 -65.5 -70.5t-95.5 -24.5q-52 0 -86 32t-34 98q0 50 14.5 88t38 63.5t53.5 38t61 12.5q56 0 86.5 -24.5t47.5 -72.5q29 48 66.5 72.5t94.5 24.5q51 0 85 -32t34 -98q0 -50 -14 -87.5t-37.5 -63t-53.5 -38.5t-61 -13q-57 0 -88.5 24.5t-45.5 70.5z
M312 338q-12 42 -32 64.5t-56 22.5q-43 0 -69 -28.5t-26 -76.5q0 -66 71 -66q38 0 65 23.5t47 60.5zM379 338q8 -38 28.5 -61t58.5 -23q43 0 69 26.5t26 77.5q0 31 -18 49t-53 18q-36 0 -62 -22.5t-49 -64.5z" />
    <glyph glyph-name="integral" unicode="&#x222b;" horiz-adv-x="347" 
d="M-22 -233l13 94h28q32 0 55 17.5t29 60.5l79 561q13 91 69 131.5t152 40.5h29l-13 -95h-29q-32 0 -55.5 -17.5t-29.5 -59.5l-79 -561q-13 -91 -69.5 -131.5t-150.5 -40.5h-28z" />
    <glyph glyph-name="approxequal" unicode="&#x2248;" horiz-adv-x="585" 
d="M568 202q-35 -35 -71 -51t-84 -16q-30 0 -55.5 9.5t-50 20.5t-49 20.5t-51.5 9.5q-42 0 -75.5 -19t-68.5 -57l12 87q25 26 59 46.5t80 20.5q35 0 63.5 -9t54 -20.5t49 -20.5t48.5 -9q42 0 78.5 16t72.5 58zM597 421q-35 -35 -71 -51t-84 -16q-30 0 -55.5 9.5t-50 20.5
t-49 20.5t-51.5 9.5q-42 0 -75.5 -19t-68.5 -57l12 87q25 26 59 46.5t80 20.5q35 0 63.5 -9t54 -20.5t49 -20.5t48.5 -9q42 0 78.5 16t72.5 58z" />
    <glyph glyph-name="notequal" unicode="&#x2260;" horiz-adv-x="541" 
d="M241 203l-178 -223h-54l176 223h-118l11 80h170l96 120h-249l11 80h302l160 201h57l-161 -201h105l-11 -80h-158l-96 -120h237l-11 -80h-289z" />
    <glyph glyph-name="lessequal" unicode="&#x2264;" horiz-adv-x="556" 
d="M87 303l11 80l495 207l-12 -89l-399 -158l354 -159l-12 -88zM44 -9l11 80h466l-11 -80h-466z" />
    <glyph glyph-name="greaterequal" unicode="&#x2265;" horiz-adv-x="556" 
d="M58 96l12 88l398 159l-353 158l12 89l437 -207l-11 -80zM44 -9l11 80h466l-11 -80h-466z" />
    <glyph glyph-name="lozenge" unicode="&#x25ca;" horiz-adv-x="527" 
d="M209 0l-131 332l224 332h118l121 -332l-214 -332h-118zM430 332l-85 229l-153 -229l89 -228z" />
    <glyph glyph-name="uniF8FF" unicode="&#xf8ff;" horiz-adv-x="193" 
 />
    <glyph glyph-name="glyph398" horiz-adv-x="0" 
 />
    </font>
</defs>
</svg>
