<?xml version="1.0" standalone="no"?>
<!DOCTYPE svg PUBLIC "-//W3C//DTD SVG 1.1//EN" "http://www.w3.org/Graphics/SVG/1.1/DTD/svg11.dtd" >
<svg>
<metadata>
Created by FontForge 20120731 at Fri Mar 24 09:44:58 2023
 By www
Copyright (c) 2009 Typodermic Fonts. This font is not freely distributable. Visit typodermic.com for more information.
</metadata>
<defs>
<font id="MaquiW00-Bold" horiz-adv-x="439" >
  <font-face 
    font-family="MaquiW00-Bold"
    font-weight="700"
    font-stretch="normal"
    units-per-em="1000"
    panose-1="2 11 8 6 3 6 2 2 0 4"
    ascent="800"
    descent="-200"
    x-height="492"
    cap-height="664"
    bbox="-164 -246 1152 908"
    underline-thickness="50"
    underline-position="-125"
    unicode-range="U+0017-F8FF"
  />
<missing-glyph horiz-adv-x="678" 
d="M151 -241q-114 0 -114 99v799q0 100 114 100h374q116 0 116 -100v-799q0 -99 -116 -99h-374zM321 24l-187 50l-45 -167l188 -49zM336 130q4 16 13 25t20.5 15t25 9.5t26.5 7.5q29 9 50 21.5t37.5 34t29.5 54.5t27 83q8 29 12.5 55t4.5 49q0 49 -26 83t-64.5 55
t-83.5 30.5t-84 9.5q-54 0 -94 -28t-59 -97l-21 -77l175 -48l20 72q3 11 15 11t22.5 -6t10.5 -17l-24 -87q-4 -15 -12.5 -23.5t-21 -14t-27.5 -9.5t-33 -10q-48 -17 -70.5 -52t-35.5 -86l-12 -46l171 -44z" />
    <glyph glyph-name="copyright" unicode="&#x28;C&#x29;" horiz-adv-x="506" 
d="M472 145q0 -47 -18 -78t-48 -49.5t-70 -26.5t-85 -8q-47 0 -86.5 8t-69 26.5t-46 49.5t-16.5 78v373q0 46 16.5 77.5t46 50t69 26.5t86.5 8q45 0 85 -8t70 -26.5t48 -50t18 -77.5v-373zM416 518q0 30 -13.5 50t-36 32.5t-52.5 17.5t-63 5q-35 0 -64.5 -5t-51 -17.5
t-34 -32.5t-12.5 -50v-373q0 -31 12.5 -51.5t34 -32.5t51 -17t64.5 -5q33 0 63 5t52.5 17t36 32.5t13.5 51.5v373zM283 311h49v-58q0 -43 -20.5 -58.5t-55.5 -15.5t-59.5 15.5t-24.5 58.5v168q0 42 24.5 57.5t59.5 15.5t55.5 -15.5t20.5 -57.5v-60h-49v49q0 14 -5 22.5
t-22 8.5q-12 0 -20.5 -6.5t-8.5 -19.5v-158q0 -14 8 -20t21 -6q27 0 27 26v54z" />
    <glyph glyph-name="registered" unicode="&#x28;R&#x29;" horiz-adv-x="506" 
d="M473 145q0 -47 -18 -78t-48 -49.5t-70 -26.5t-85 -8q-47 0 -87 8t-69 26.5t-46 49.5t-17 78v373q0 46 17 77.5t46 50t69 26.5t87 8q45 0 85 -8t70 -26.5t48 -50t18 -77.5v-373zM416 518q0 30 -13 50t-35.5 32.5t-52.5 17.5t-63 5q-35 0 -64.5 -5t-51.5 -17.5t-34 -32.5
t-12 -50v-373q0 -30 12 -50.5t34 -32.5t51.5 -17t64.5 -5q33 0 63 5t52.5 17t35.5 32.5t13 50.5v373zM262 357q16 0 20.5 15t4.5 28q0 41 -21 41h-37v-84h33zM285 187v102q0 7 -4 16.5t-20 9.5h-32v-128h-53v300h108q16 0 27 -6.5t17 -16.5t8.5 -23t2.5 -26q0 -10 -1 -22
t-4.5 -23t-11 -19.5t-19.5 -11.5q23 -5 29.5 -23.5t6.5 -37.5v-91h-54z" />
    <glyph glyph-name="uni2117" unicode="&#x28;P&#x29;" horiz-adv-x="506" 
d="M473 145q0 -47 -18 -78t-48 -49.5t-70 -26.5t-85 -8q-47 0 -87 8t-69 26.5t-46 49.5t-17 78v373q0 46 17 77.5t46 50t69 26.5t87 8q45 0 85 -8t70 -26.5t48 -50t18 -77.5v-373zM416 518q0 30 -13 50t-35.5 32.5t-52.5 17.5t-63 5q-35 0 -64.5 -5t-51.5 -17.5t-34 -32.5
t-12 -50v-373q0 -30 12 -50.5t34 -32.5t51.5 -17t64.5 -5q33 0 63 5t52.5 17t35.5 32.5t13 50.5v373zM176 187v300h98q41 0 54.5 -22.5t13.5 -72.5q0 -51 -13.5 -73.5t-54.5 -22.5h-43v-109h-55zM265 340q15 0 20 13.5t5 37.5q0 28 -5 39t-20 11h-34v-101h34z" />
    <glyph glyph-name=".notdef" horiz-adv-x="678" 
d="M151 -241q-114 0 -114 99v799q0 100 114 100h374q116 0 116 -100v-799q0 -99 -116 -99h-374zM321 24l-187 50l-45 -167l188 -49zM336 130q4 16 13 25t20.5 15t25 9.5t26.5 7.5q29 9 50 21.5t37.5 34t29.5 54.5t27 83q8 29 12.5 55t4.5 49q0 49 -26 83t-64.5 55
t-83.5 30.5t-84 9.5q-54 0 -94 -28t-59 -97l-21 -77l175 -48l20 72q3 11 15 11t22.5 -6t10.5 -17l-24 -87q-4 -15 -12.5 -23.5t-21 -14t-27.5 -9.5t-33 -10q-48 -17 -70.5 -52t-35.5 -86l-12 -46l171 -44z" />
    <glyph glyph-name=".null" horiz-adv-x="0" 
 />
    <glyph glyph-name="nonmarkingreturn" horiz-adv-x="333" 
 />
    <glyph glyph-name="glyph397" horiz-adv-x="0" 
 />
    <glyph glyph-name="glyph397" horiz-adv-x="0" 
 />
    <glyph glyph-name="uni0017" horiz-adv-x="193" 
 />
    <glyph glyph-name="space" unicode=" " horiz-adv-x="193" 
 />
    <glyph glyph-name="exclam" unicode="!" horiz-adv-x="227" 
d="M56 0v146h115v-146h-115zM83 198q-9 61 -15.5 113.5t-10.5 101.5t-6 97t-2 99q0 17 1 30.5t4 24.5h120q3 -11 4 -24.5t1 -30.5q0 -51 -2 -99t-6.5 -97t-11 -101.5t-15.5 -113.5h-61z" />
    <glyph glyph-name="quotedbl" unicode="&#x22;" horiz-adv-x="336" 
d="M41 414v250h84v-250h-84zM209 414v250h84v-250h-84z" />
    <glyph glyph-name="numbersign" unicode="#" horiz-adv-x="509" 
d="M312 396h-97l-21 -127h97zM249 0l31 196h-96l-31 -196h-72l30 196h-89l8 73h92l20 127h-94l9 73h96l32 195h71l-31 -195h97l31 195h74l-31 -195h90l-10 -73h-91l-20 -127h95l-8 -73h-98l-31 -196h-74z" />
    <glyph glyph-name="dollar" unicode="$" horiz-adv-x="420" 
d="M168 0v76q-28 2 -52.5 9t-43 22.5t-29 40t-10.5 61.5v43h104v-34q0 -29 17 -41t51 -12q37 0 51 13t14 49q0 21 -12 34.5t-30 23.5t-40 18t-42 16q-25 10 -45.5 21t-35.5 27t-23.5 37.5t-8.5 51.5q0 69 36 100t99 37v71h87v-70q25 -2 47.5 -8.5t40 -20t27.5 -36.5t10 -57
v-34h-101v25q0 29 -16 40t-48 11q-39 0 -53 -13t-14 -37q0 -23 16.5 -37.5t41.5 -24.5t54.5 -19t56.5 -21q44 -20 57 -53.5t13 -72.5q0 -78 -32.5 -115t-99.5 -45v-76h-87z" />
    <glyph glyph-name="percent" unicode="%" horiz-adv-x="535" 
d="M221 415q0 -46 -28 -63.5t-67 -17.5q-40 0 -67 17.5t-27 63.5v187q0 46 27 63.5t67 17.5q39 0 67 -17.5t28 -63.5v-187zM149 596q0 11 -5 15t-18 4q-22 0 -22 -19v-175q0 -19 22 -19q23 0 23 19v175zM34 -20l371 704h86l-373 -704h-84zM503 62q0 -46 -28 -63.5t-67 -17.5
q-40 0 -67 17.5t-27 63.5v187q0 46 27 63.5t67 17.5q39 0 67 -17.5t28 -63.5v-187zM431 243q0 11 -5 15t-18 4q-22 0 -22 -19v-175q0 -19 22 -19q23 0 23 19v175z" />
    <glyph glyph-name="ampersand" unicode="&#x26;" horiz-adv-x="501" 
d="M380 0l-40 48q-26 -35 -63 -50t-95 -15q-29 0 -56 8.5t-48 27t-34 49t-13 74.5v32q0 47 17 89.5t62 66.5q-18 21 -29.5 38.5t-18.5 36t-9.5 39.5t-2.5 48v26q0 46 8.5 77t27.5 50t49.5 27t74.5 8t73.5 -8t47.5 -27.5t25.5 -51t7.5 -77.5v-27q0 -33 -4.5 -59t-17.5 -47.5
t-36 -40t-60 -36.5l76 -90l54 104h114l-100 -187l112 -133h-122zM267 507q0 35 -9.5 52.5t-44.5 17.5q-21 0 -32.5 -4.5t-17.5 -13.5t-7.5 -22t-1.5 -29v-46q0 -29 8 -48.5t33 -44.5q24 11 38 20.5t21.5 19t10 20t2.5 22.5v56zM170 255q-17 -13 -23.5 -31.5t-6.5 -44.5v-26
q0 -38 15 -52.5t46 -14.5q26 0 42.5 10t30.5 34z" />
    <glyph glyph-name="quotesingle" unicode="'" horiz-adv-x="168" 
d="M41 414v250h84v-250h-84z" />
    <glyph glyph-name="parenleft" unicode="(" horiz-adv-x="307" 
d="M240 -143q-85 94 -128.5 208.5t-43.5 235.5q0 115 40.5 224t131.5 203h81q-72 -103 -106.5 -209.5t-34.5 -218.5q0 -115 35 -226t107 -217h-82z" />
    <glyph glyph-name="parenright" unicode=")" horiz-adv-x="307" 
d="M-14 -143q72 106 106.5 217t34.5 226q0 112 -34 218.5t-107 209.5h81q91 -94 131.5 -203t40.5 -224q0 -121 -42.5 -235.5t-129.5 -208.5h-81z" />
    <glyph glyph-name="asterisk" unicode="*" horiz-adv-x="416" 
d="M289 326l-82 112l-81 -112l-48 34l82 115l-128 40l17 54l126 -41v141h62v-141l127 41l19 -54l-128 -40l82 -115z" />
    <glyph glyph-name="plus" unicode="+" horiz-adv-x="556" 
d="M237 110v194h-192v80h192v193h80v-193h194v-80h-194v-194h-80z" />
    <glyph glyph-name="comma" unicode="," horiz-adv-x="298" 
d="M92 151h117v-135q0 -32 -8.5 -60t-24 -49t-37 -34t-47.5 -14v292z" />
    <glyph glyph-name="hyphen" unicode="-" horiz-adv-x="331" 
d="M43 267v85h245v-85h-245z" />
    <glyph glyph-name="period" unicode="." horiz-adv-x="243" 
d="M63 0v151h117v-151h-117z" />
    <glyph glyph-name="slash" unicode="/" horiz-adv-x="295" 
d="M0 0l202 664h93l-204 -664h-91z" />
    <glyph glyph-name="zero" unicode="0" 
d="M33 518q0 46 14.5 77.5t40 50t59 26.5t72.5 8q37 0 71 -8t59.5 -26.5t40.5 -50t15 -77.5v-373q0 -47 -15 -78t-40.5 -49.5t-59.5 -26.5t-71 -8q-39 0 -72.5 8t-59 26.5t-40 49.5t-14.5 78v373zM287 512q0 38 -15.5 50t-52.5 12q-35 0 -52 -13t-17 -49v-362
q0 -35 16 -47.5t53 -12.5t52.5 12.5t15.5 47.5v362z" />
    <glyph glyph-name="one" unicode="1" horiz-adv-x="270" 
d="M115 0v502q0 34 -18.5 47t-49.5 13q-12 0 -22 -3v111q5 1 11 1.5t14 0.5q37 0 70.5 -7.5t58.5 -26.5t39.5 -50t14.5 -77v-511h-118z" />
    <glyph glyph-name="two" unicode="2" horiz-adv-x="420" 
d="M36 0v176q0 45 5.5 76.5t21 55t45 41t77.5 35.5q30 11 47 19t26 19.5t11.5 29t2.5 47.5q0 25 -1.5 41t-8 25.5t-19 13.5t-34.5 4q-40 0 -53 -10t-13 -36v-61h-100v65q0 41 12.5 68t34.5 42.5t52 22t65 6.5q52 0 86.5 -10t54 -32t27.5 -55.5t8 -81.5q0 -44 -5.5 -75.5
t-20.5 -54.5t-40.5 -39.5t-65.5 -29.5q-28 -10 -46.5 -19t-30 -20.5t-16 -28.5t-4.5 -43v-89h225v-102h-343z" />
    <glyph glyph-name="three" unicode="3" horiz-adv-x="413" 
d="M382 145q0 -45 -13 -76t-37 -50t-57.5 -27.5t-75.5 -8.5q-41 0 -73 8t-54 26.5t-33 49.5t-11 78v60h105v-51q0 -39 15 -52t51 -13q35 0 50.5 12.5t15.5 47.5v74q0 42 -13.5 57.5t-48.5 15.5h-50v86h50q33 0 46.5 18t13.5 56v57q0 39 -14.5 51.5t-49.5 12.5q-36 0 -51 -13
t-15 -55v-49h-105v58q0 47 11 78t33 50t54 26.5t73 7.5q42 0 75 -8t56 -26.5t35 -50t12 -77.5v-44q0 -22 -4 -43.5t-14 -39.5t-25.5 -32t-37.5 -21q45 -12 65.5 -48t20.5 -81v-64z" />
    <glyph glyph-name="four" unicode="4" horiz-adv-x="423" 
d="M272 0v125h-249v111l192 428h112l-187 -437h134v140h107v-367h-109z" />
    <glyph glyph-name="five" unicode="5" horiz-adv-x="425" 
d="M388 145q0 -47 -13 -78t-36.5 -49.5t-57 -26.5t-73.5 -8t-72 8t-54.5 26.5t-34.5 49.5t-12 78v60h104v-51q0 -38 16 -51.5t52 -13.5q38 0 51 16t13 60v77q0 38 -14 53t-49 15q-30 0 -41.5 -5t-18.5 -14h-103l21 373h303v-100h-195l-12 -187q37 24 86 24q76 0 108 -40
t32 -118v-98z" />
    <glyph glyph-name="six" unicode="6" 
d="M407 139q0 -45 -14.5 -75t-39 -48t-58 -25.5t-71.5 -7.5t-73 7.5t-61 25.5t-41.5 48t-15.5 75v378q0 47 13.5 78.5t38.5 50t59.5 26.5t75.5 8q40 0 73 -8t56 -26.5t35.5 -50t12.5 -78.5v-39h-112v36q0 38 -14.5 50.5t-50.5 12.5t-52.5 -12.5t-16.5 -50.5v-129
q11 11 35 23t64 12q29 0 57.5 -6.5t50.5 -24t35.5 -48.5t13.5 -80v-122zM289 256q0 38 -16 55t-53 17q-53 0 -69 -46v-138q0 -32 15.5 -44t52.5 -12q32 0 51 12t19 44v112z" />
    <glyph glyph-name="seven" unicode="7" horiz-adv-x="382" 
d="M100 0q1 83 12.5 166t30.5 157t44.5 136t54.5 103h-222v102h336v-86q-31 -48 -56 -111.5t-43.5 -138t-29.5 -158t-13 -170.5h-114z" />
    <glyph glyph-name="eight" unicode="8" horiz-adv-x="435" 
d="M404 145q0 -45 -13.5 -76t-38 -50t-59 -27.5t-76.5 -8.5t-76 8.5t-58.5 27.5t-38 50t-13.5 76v64q0 45 20.5 81t66.5 48q-23 7 -38.5 21t-25.5 32t-14 39.5t-4 43.5v44q0 46 12.5 77.5t36 50t57 26.5t75.5 8t75.5 -8t57.5 -26.5t36.5 -50t12.5 -77.5v-44q0 -44 -18.5 -83
t-63.5 -53q45 -12 66 -48t21 -81v-64zM286 224q0 42 -15 57t-54 15q-38 0 -53 -15t-15 -57v-74q0 -35 16.5 -47.5t51.5 -12.5q36 0 52.5 12.5t16.5 47.5v74zM285 512q0 39 -16 51.5t-52 12.5q-35 0 -51 -12.5t-16 -51.5v-58q0 -37 14.5 -54.5t52.5 -17.5t53 17.5t15 54.5v58
z" />
    <glyph glyph-name="nine" unicode="9" horiz-adv-x="436" 
d="M285 287q-11 -11 -35.5 -23t-64.5 -12q-29 0 -57 6.5t-50 24t-35.5 48.5t-13.5 80v113q0 45 14.5 75t39 48t57.5 25.5t71 7.5t73 -7.5t61.5 -25.5t42 -48t15.5 -75v-378q0 -47 -14 -78.5t-38.5 -50.5t-59 -26.5t-75.5 -7.5t-73.5 7.5t-56 26.5t-36 50.5t-12.5 78.5v48
h112v-44q0 -36 14.5 -48.5t51.5 -12.5q36 0 52.5 12.5t16.5 48.5v137zM285 519q0 34 -16 46t-53 12q-32 0 -50.5 -12t-18.5 -46v-103q0 -38 15.5 -55t52.5 -17q54 0 70 46v129z" />
    <glyph glyph-name="colon" unicode=":" horiz-adv-x="289" 
d="M85 0v151h117v-151h-117zM85 339v150h117v-150h-117z" />
    <glyph glyph-name="semicolon" unicode=";" horiz-adv-x="297" 
d="M95 339v150h117v-150h-117zM95 151h117v-135q0 -32 -8.5 -60t-24 -49t-37 -34t-47.5 -14v292z" />
    <glyph glyph-name="less" unicode="&#x3c;" horiz-adv-x="556" 
d="M45 303v80l466 207v-89l-377 -158l377 -159v-88z" />
    <glyph glyph-name="equal" unicode="=" horiz-adv-x="556" 
d="M45 402v81h466v-81h-466zM45 203v81h466v-81h-466z" />
    <glyph glyph-name="greater" unicode="&#x3e;" horiz-adv-x="556" 
d="M45 96v88l375 159l-375 158v89l466 -207v-80z" />
    <glyph glyph-name="question" unicode="?" horiz-adv-x="386" 
d="M113 0v146h115v-146h-115zM116 209v35q0 22 3 40.5t10.5 34t21 29.5t35.5 29q20 13 33.5 23t21.5 20t11.5 22t3.5 30q0 29 -1 50t-6.5 34.5t-18.5 20t-37 6.5q-22 0 -35 -3.5t-20 -12.5t-9 -23t-2 -35v-43h-106v56q0 45 10 75.5t31.5 49t54 26t77.5 7.5q51 0 84.5 -9.5
t53 -31t27.5 -56.5t8 -85q0 -42 -4 -69t-13 -45t-23 -30.5t-34 -24.5q-41 -26 -56.5 -47.5t-15.5 -45.5v-27h-105z" />
    <glyph glyph-name="at" unicode="@" horiz-adv-x="529" 
d="M177 -102q-30 0 -56 6t-45.5 20.5t-31 38.5t-11.5 60v461q0 36 11.5 60t31 38.5t45.5 20.5t56 6h175q29 0 55.5 -6t46 -20.5t31 -38.5t11.5 -60v-374q-22 -8 -56 -15.5t-91 -7.5q-31 0 -57 6.5t-45 21.5t-29.5 40.5t-10.5 63.5v76q0 42 10.5 67.5t27.5 40t39 19.5t46 5
q29 0 45.5 -5t29.5 -13v66q0 26 -15 36t-38 10h-175q-23 0 -38 -10t-15 -36v-443q0 -26 15 -36t38 -10h318v-88h-318zM405 320q-10 7 -22.5 10.5t-32.5 3.5q-24 0 -38 -9.5t-14 -39.5v-56q0 -28 14 -38.5t38 -10.5q20 0 32.5 2t22.5 6v132z" />
    <glyph glyph-name="A" unicode="A" 
d="M287 0v231h-139v-231h-115v426q0 55 15.5 95t41 69.5t59.5 50.5t70 39q35 -18 68.5 -39.5t60 -50.5t42.5 -69t16 -95v-426h-119zM287 434q0 26 -6 44.5t-15.5 31.5t-22 22t-25.5 17q-13 -8 -25.5 -17t-22.5 -22t-16 -31.5t-6 -44.5v-105h139v105z" />
    <glyph glyph-name="B" unicode="B" horiz-adv-x="438" 
d="M39 0v664h233q39 0 63.5 -14t38 -36.5t18.5 -51t5 -57.5q0 -26 -3 -52.5t-11 -49t-23 -40t-40 -25.5q27 -8 44 -25.5t27.5 -41.5t14.5 -51.5t4 -54.5q0 -30 -6 -59.5t-22 -53t-42.5 -38t-66.5 -14.5h-234zM232 99q38 0 49.5 24.5t11.5 72.5q0 20 -2.5 38.5t-9.5 32
t-19.5 21.5t-31.5 8h-77v-197h79zM230 382q18 0 29.5 7.5t18 20.5t9 30t2.5 35q0 43 -10.5 67.5t-46.5 24.5h-79v-185h77z" />
    <glyph glyph-name="C" unicode="C" horiz-adv-x="417" 
d="M281 276h105v-131q0 -47 -12.5 -78t-34.5 -49.5t-53.5 -26.5t-68.5 -8q-39 0 -72.5 8t-58 26.5t-39 49.5t-14.5 78v373q0 46 14.5 77.5t39 50t58 26.5t72.5 8q37 0 68.5 -8t53.5 -26.5t34.5 -50t12.5 -77.5v-139h-105v134q0 31 -13.5 46.5t-50.5 15.5t-52 -14.5
t-15 -47.5v-347q0 -19 2.5 -33.5t9.5 -24t20 -14.5t35 -5q37 0 50.5 14.5t13.5 45.5v127z" />
    <glyph glyph-name="D" unicode="D" horiz-adv-x="445" 
d="M39 0v664h187q37 0 71 -9t59.5 -31.5t40.5 -60t15 -95.5v-279q0 -52 -15 -88t-40.5 -58.5t-59.5 -32.5t-71 -10h-187zM295 484q0 46 -17.5 63.5t-51.5 17.5h-70v-463h70q34 0 51.5 17.5t17.5 62.5v302z" />
    <glyph glyph-name="E" unicode="E" horiz-adv-x="333" 
d="M39 0v664h262v-99h-145v-168h132v-99h-132v-196h151v-102h-268z" />
    <glyph glyph-name="F" unicode="F" horiz-adv-x="342" 
d="M39 0v664h280v-99h-163v-175h158v-99h-158v-291h-117z" />
    <glyph glyph-name="G" unicode="G" horiz-adv-x="431" 
d="M286 340h109v-328q-26 -10 -67 -19.5t-112 -9.5q-38 0 -71 7.5t-58 26.5t-39.5 49.5t-14.5 77.5v374q0 46 14.5 77.5t39.5 50t58.5 26.5t71.5 8t69 -8t53.5 -26.5t34.5 -50t12 -77.5v-92h-105v88q0 33 -13.5 48t-50.5 15t-51.5 -15t-14.5 -48v-364q0 -34 18.5 -47
t49.5 -13q24 0 39.5 3t27.5 8v239z" />
    <glyph glyph-name="H" unicode="H" horiz-adv-x="452" 
d="M295 0v287h-139v-287h-117v664h117v-279h139v279h117v-664h-117z" />
    <glyph glyph-name="I" unicode="I" horiz-adv-x="195" 
d="M39 0v664h117v-664h-117z" />
    <glyph glyph-name="J" unicode="J" horiz-adv-x="270" 
d="M25 90q8 -4 22 -4q32 0 50 14t18 46v518h118v-525q0 -47 -14.5 -77.5t-39.5 -49.5t-58.5 -26.5t-70.5 -7.5q-7 0 -13.5 0.5t-11.5 1.5v110z" />
    <glyph glyph-name="K" unicode="K" horiz-adv-x="452" 
d="M310 0l-156 334v-334h-115v664h115v-289l149 289h126l-169 -295l182 -369h-132z" />
    <glyph glyph-name="L" unicode="L" horiz-adv-x="327" 
d="M39 0v664h117v-562h149v-102h-266z" />
    <glyph glyph-name="M" unicode="M" horiz-adv-x="665" 
d="M511 0v513q0 30 -17 46t-48 16q-36 0 -56 -16v-559h-112v553q-8 11 -26 16.5t-36 5.5q-36 0 -60 -11v-564h-117v651q26 9 69 19t100 10q38 0 72.5 -9.5t51.5 -26.5q19 14 48.5 25t74.5 11q36 0 68 -8.5t55 -28t36.5 -50.5t13.5 -76v-517h-117z" />
    <glyph glyph-name="N" unicode="N" horiz-adv-x="448" 
d="M295 0v515q0 34 -19 47t-49 13q-25 0 -42 -3t-29 -8v-564h-117v651q26 9 72 19t118 10q37 0 70.5 -7.5t58.5 -26.5t39.5 -50t14.5 -77v-519h-117z" />
    <glyph glyph-name="O" unicode="O" 
d="M33 518q0 46 14.5 77.5t40 50t59 26.5t72.5 8q37 0 71 -8t59.5 -26.5t40.5 -50t15 -77.5v-373q0 -47 -15 -78t-40.5 -49.5t-59.5 -26.5t-71 -8q-39 0 -72.5 8t-59 26.5t-40 49.5t-14.5 78v373zM287 512q0 38 -15.5 50t-52.5 12q-35 0 -52 -13t-17 -49v-362
q0 -35 16 -47.5t53 -12.5t52.5 12.5t15.5 47.5v362z" />
    <glyph glyph-name="P" unicode="P" horiz-adv-x="429" 
d="M39 0v664h215q46 0 76 -12t47 -37.5t23.5 -65.5t6.5 -96t-6.5 -96t-23.5 -65.5t-47 -37.5t-76 -12h-98v-242h-117zM232 335q39 0 51 31t12 86q0 64 -12 89.5t-51 25.5h-76v-232h76z" />
    <glyph glyph-name="Q" unicode="Q" 
d="M246 -102q-7 26 -14 52.5t-15 52.5q-37 0 -70.5 8t-58.5 27t-40 50t-15 77v353q0 46 14.5 77.5t40 50t59 26.5t72.5 8q37 0 71 -8t59.5 -26.5t40.5 -50t15 -77.5v-353q0 -58 -22.5 -91.5t-58.5 -50.5q11 -31 20.5 -62t20.5 -63h-119zM287 512q0 38 -15.5 50t-52.5 12
q-35 0 -52 -13t-17 -49v-342q0 -35 16 -47.5t53 -12.5t52.5 13.5t15.5 46.5v342z" />
    <glyph glyph-name="R" unicode="R" horiz-adv-x="435" 
d="M236 375q16 0 26.5 8t16.5 21.5t8.5 31t2.5 36.5q0 45 -10.5 70t-47.5 25h-79v-192h83zM286 0v226q0 25 -10.5 43t-40.5 18h-82v-287h-114v664h234q40 0 65 -14t39 -36.5t19 -51t5 -57.5q0 -27 -3 -54t-11.5 -50.5t-23.5 -40.5t-40 -24q24 -5 39.5 -18t24 -31t11.5 -40
t3 -45v-202h-115z" />
    <glyph glyph-name="S" unicode="S" horiz-adv-x="406" 
d="M274 466v41q0 46 -14 61t-47 15q-22 0 -35 -3.5t-20.5 -13t-10 -26.5t-2.5 -43q0 -23 2.5 -38.5t12.5 -26.5t29 -20t51 -19q51 -16 79.5 -37t42 -48t16.5 -60t3 -74q0 -45 -8.5 -80.5t-29 -60t-56 -37.5t-89.5 -13q-81 0 -126 37t-45 126v90h104v-86q0 -38 16.5 -50.5
t51.5 -12.5q19 0 32 4t20 13.5t10 26.5t3 44q0 39 -4 61.5t-15.5 36.5t-31.5 22.5t-53 19.5q-72 24 -102.5 65.5t-30.5 114.5q0 43 8.5 77t29.5 58t56.5 37t90.5 13q35 0 65 -7t51.5 -24t34 -45.5t12.5 -71.5v-66h-101z" />
    <glyph glyph-name="T" unicode="T" horiz-adv-x="366" 
d="M124 0v565h-111v99h341v-99h-113v-565h-117z" />
    <glyph glyph-name="U" unicode="U" horiz-adv-x="448" 
d="M292 664h117v-652q-26 -9 -71.5 -19t-117.5 -10q-38 0 -71.5 7.5t-58.5 26.5t-39.5 49.5t-14.5 77.5v520h118v-514q0 -34 19 -47t49 -13q46 0 70 11v563z" />
    <glyph glyph-name="V" unicode="V" 
d="M290 664h116v-426q0 -55 -15.5 -95t-41.5 -69.5t-59.5 -50.5t-70.5 -39q-35 18 -68.5 39t-59.5 50.5t-42 69t-16 95.5v426h119v-432q0 -26 6 -44.5t15.5 -32t22 -22.5t25.5 -17q13 8 25.5 17t22 22.5t15.5 32t6 44.5v432z" />
    <glyph glyph-name="W" unicode="W" horiz-adv-x="650" 
d="M501 664h116v-427q0 -56 -14.5 -95.5t-38.5 -68.5t-56 -50t-66 -39q-37 22 -67.5 49.5t-49.5 61.5q-17 -34 -48.5 -61.5t-69.5 -49.5q-33 18 -64.5 39t-56 50t-39 68.5t-14.5 95.5v427h119v-427q0 -51 17 -77.5t42 -43.5q26 16 43 43t17 78v427h111v-427q0 -51 17.5 -78
t42.5 -43q27 16 43 43t16 78v427z" />
    <glyph glyph-name="X" unicode="X" horiz-adv-x="445" 
d="M311 0l-88 270l-91 -270h-121l125 346l-119 318h123l83 -259l83 259h119l-118 -312l127 -352h-123z" />
    <glyph glyph-name="Y" unicode="Y" horiz-adv-x="426" 
d="M155 0v233q-27 16 -50.5 36.5t-41 47.5t-27.5 61t-10 77v209h119v-215q0 -26 6 -45t15.5 -32.5t21.5 -23t25 -17.5q13 8 26 17.5t22.5 23t15.5 32t6 45.5v215h115v-209q0 -43 -10 -77t-27 -61t-40 -47.5t-49 -36.5v-233h-117z" />
    <glyph glyph-name="Z" unicode="Z" horiz-adv-x="395" 
d="M24 0v113l214 452h-204v99h330v-84l-208 -478h208v-102h-340z" />
    <glyph glyph-name="bracketleft" unicode="[" horiz-adv-x="325" 
d="M88 -130v849h225v-82h-127v-686h127v-81h-225z" />
    <glyph glyph-name="backslash" unicode="\" horiz-adv-x="295" 
d="M204 0l-204 664h93l202 -664h-91z" />
    <glyph glyph-name="bracketright" unicode="]" horiz-adv-x="320" 
d="M12 -130v81h128v686h-128v82h225v-849h-225z" />
    <glyph glyph-name="asciicircum" unicode="^" horiz-adv-x="338" 
d="M228 473l-59 113l-62 -113h-80l114 191h54l114 -191h-81z" />
    <glyph glyph-name="underscore" unicode="_" horiz-adv-x="358" 
d="M-1 -121v51h361v-51h-361z" />
    <glyph glyph-name="grave" unicode="`" horiz-adv-x="306" 
d="M39 627v83l228 -119v-57z" />
    <glyph glyph-name="a" unicode="a" horiz-adv-x="410" 
d="M374 11q-23 -12 -59.5 -20t-103.5 -8q-42 0 -76.5 7.5t-59 24.5t-38 45t-13.5 69v39q0 40 13.5 65t35 39t49 19t55.5 5q31 0 53.5 -6t35.5 -13v63q0 29 -18 45t-51 16q-44 0 -77 -6.5t-70 -20.5v106q26 11 62 18t91 7q36 0 67.5 -7.5t54.5 -25.5t36 -48t13 -75v-338z
M266 209q-26 18 -65 18q-31 0 -47 -11.5t-16 -43.5v-31q0 -30 16 -43t51 -13q24 0 38 3t23 8v113z" />
    <glyph glyph-name="b" unicode="b" horiz-adv-x="403" 
d="M373 139q0 -45 -13 -75t-36 -48t-54 -25.5t-67 -7.5q-38 0 -69.5 7.5t-54.5 25.5t-35.5 48t-12.5 75v533h107v-188q14 8 35.5 14.5t54.5 6.5q28 0 54 -6t46 -23.5t32.5 -48t12.5 -78.5v-210zM266 341q0 35 -16 47t-44 12q-25 0 -41 -5.5t-27 -12.5v-238q0 -32 17.5 -44
t46.5 -12t46.5 12t17.5 44v197z" />
    <glyph glyph-name="c" unicode="c" horiz-adv-x="396" 
d="M368 139q0 -45 -12.5 -75t-35 -48t-53 -25.5t-66.5 -7.5q-38 0 -69 7.5t-53.5 25.5t-35 48t-12.5 75v210q0 45 12.5 75t35 48t53.5 25.5t69 7.5q36 0 66.5 -7.5t53 -25.5t35 -48t12.5 -75v-63h-104v58q0 32 -17 44t-46 12t-46 -12t-17 -44v-200q0 -32 17 -44t46 -12
t46 12t17 44v62h104v-67z" />
    <glyph glyph-name="d" unicode="d" horiz-adv-x="413" 
d="M31 349q0 48 12 78.5t32.5 48t46.5 23.5t54 6q33 0 54.5 -6.5t35.5 -14.5v188h107v-661q-26 -9 -66.5 -18.5t-107.5 -9.5q-36 0 -67 7.5t-53.5 25.5t-35 48t-12.5 75v210zM266 382q-11 7 -27 12.5t-41 5.5q-28 0 -44 -12t-16 -47v-194q0 -33 17 -46t45 -13q24 0 39.5 3
t26.5 8v283z" />
    <glyph glyph-name="e" unicode="e" horiz-adv-x="404" 
d="M367 8q-25 -10 -67 -17.5t-99 -7.5q-36 0 -67 7.5t-54 25.5t-36 48t-13 75v210q0 45 12.5 75t35 48t53.5 25.5t69 7.5q36 0 67 -7.5t54.5 -25.5t36.5 -48t13 -75v-142h-234v-58q0 -38 22 -47.5t60 -9.5q50 0 82.5 6.5t64.5 17.5v-108zM265 342q0 29 -14 44.5t-50 15.5
q-38 0 -50.5 -17t-12.5 -48v-56h127v61z" />
    <glyph glyph-name="f" unicode="f" horiz-adv-x="271" 
d="M66 0v414h-47v78h47v49q0 40 12.5 67t34.5 43t50.5 22.5t60.5 6.5q7 0 12 -0.5t10 -1.5v-99q-9 3 -21 3q-23 0 -37 -12t-14 -39v-39h73v-78h-73v-414h-108z" />
    <glyph glyph-name="g" unicode="g" horiz-adv-x="406" 
d="M266 17q-14 -8 -35.5 -14.5t-54.5 -6.5q-28 0 -54 6t-46.5 23.5t-32.5 48t-12 78.5v197q0 45 13 75t36 48t54 25.5t67 7.5q38 0 69.5 -7.5t54.5 -25.5t35.5 -48t12.5 -75v-444q0 -43 -13 -72t-36 -46.5t-54 -25t-68 -7.5q-35 0 -64 7.5t-50.5 25t-33.5 46.5t-12 72v39
h101v-36q0 -29 16 -40.5t43 -11.5q29 0 46.5 11.5t17.5 40.5v109zM266 344q0 32 -17.5 44t-46.5 12t-46.5 -12t-17.5 -44v-184q0 -34 16 -46t44 -12q25 0 41 5t27 13v224z" />
    <glyph glyph-name="h" unicode="h" horiz-adv-x="417" 
d="M274 0v341q0 35 -16 47t-44 12q-24 0 -40.5 -5.5t-26.5 -12.5v-382h-108v672h108v-188q14 8 35 14.5t54 6.5q28 0 54 -6t46.5 -23.5t33 -48t12.5 -78.5v-349h-108z" />
    <glyph glyph-name="i" unicode="i" horiz-adv-x="193" 
d="M42 0v492h108v-492h-108zM42 551v121h109v-121h-109z" />
    <glyph glyph-name="j" unicode="j" horiz-adv-x="225" 
d="M4 -132q9 -3 21 -3q23 0 37 12t14 39v576h106v-586q0 -41 -12.5 -67.5t-33.5 -42.5t-49.5 -22.5t-60.5 -6.5q-7 0 -12 0.5t-10 1.5v99zM75 551v121h108v-121h-108z" />
    <glyph glyph-name="k" unicode="k" horiz-adv-x="425" 
d="M286 0l-139 250v-250h-108v672h108v-388l127 208h126l-147 -215l161 -277h-128z" />
    <glyph glyph-name="l" unicode="l" horiz-adv-x="186" 
d="M39 0v672h108v-672h-108z" />
    <glyph glyph-name="m" unicode="m" horiz-adv-x="601" 
d="M457 0v352q0 48 -53 48q-34 0 -50 -13v-387h-103v380q-6 10 -21 15t-32 5q-16 0 -29 -2.5t-22 -6.5v-391h-108v479q24 8 60.5 17t90.5 9q32 0 60.5 -6.5t41.5 -19.5q17 12 46 19t67 7q35 0 64.5 -8t51 -25t33.5 -45t12 -68v-359h-109z" />
    <glyph glyph-name="n" unicode="n" horiz-adv-x="417" 
d="M274 0v341q0 33 -16.5 46t-45.5 13q-24 0 -39 -3t-26 -8v-389h-108v477q26 9 66.5 18.5t107.5 9.5q36 0 67 -7.5t53.5 -25.5t35.5 -48t13 -75v-349h-108z" />
    <glyph glyph-name="o" unicode="o" horiz-adv-x="404" 
d="M373 139q0 -45 -13 -75t-36.5 -48t-54.5 -25.5t-67 -7.5q-38 0 -69.5 7.5t-54 25.5t-35 48t-12.5 75v210q0 45 12.5 75t35 48t54 25.5t69.5 7.5q36 0 67 -7.5t54.5 -25.5t36.5 -48t13 -75v-210zM266 344q0 32 -17.5 44t-46.5 12t-46.5 -12t-17.5 -44v-200q0 -32 17.5 -44
t46.5 -12t46.5 12t17.5 44v200z" />
    <glyph glyph-name="p" unicode="p" horiz-adv-x="406" 
d="M31 -233v710q26 9 66.5 18.5t107.5 9.5q36 0 67 -7.5t53.5 -25.5t35 -48t12.5 -75v-210q0 -48 -12.5 -78.5t-32.5 -48t-46 -23.5t-54 -6q-33 0 -54.5 6.5t-35.5 14.5v-237h-107zM266 341q0 33 -17 46t-45 13q-24 0 -39.5 -3t-26.5 -8v-283q11 -7 27 -12.5t41 -5.5
q28 0 44 12t16 47v194z" />
    <glyph glyph-name="q" unicode="q" horiz-adv-x="421" 
d="M266 -233v237q-14 -8 -35.5 -14.5t-54.5 -6.5q-28 0 -54 6t-46.5 23.5t-32.5 48t-12 78.5v210q0 45 13 75t36 48t54 25.5t67 7.5q38 0 69.5 -7.5t54.5 -25.5t35.5 -48t12.5 -75v-582h-107zM266 344q0 32 -17.5 44t-46.5 12t-46.5 -12t-17.5 -44v-197q0 -35 16 -47t44 -12
q25 0 41 5.5t27 12.5v238z" />
    <glyph glyph-name="r" unicode="r" horiz-adv-x="388" 
d="M39 0v477q24 9 62.5 18.5t101.5 9.5q34 0 63.5 -6.5t51.5 -22t34.5 -41.5t12.5 -65v-63h-96v42q0 29 -16.5 40t-44.5 11q-41 0 -61 -11v-389h-108z" />
    <glyph glyph-name="s" unicode="s" horiz-adv-x="403" 
d="M269 347v30q0 24 -14.5 31t-48.5 7t-51 -8t-17 -34q0 -20 7 -29t32 -21q10 -5 24 -10.5t28 -10.5t27 -9.5t21 -7.5q31 -12 51 -26.5t30.5 -32t14.5 -38t4 -44.5q0 -45 -11 -76t-33.5 -50t-56.5 -27t-80 -8q-35 0 -66 5t-55 18.5t-38 37t-14 60.5v57h104v-29
q0 -32 15.5 -43.5t52.5 -11.5q35 0 50 11t15 48q0 23 -12 38t-30.5 24.5t-40.5 16t-41 12.5q-25 9 -46 20t-36 27t-23 38t-8 53q0 42 13.5 69t37.5 43t57.5 22t73.5 6q31 0 60.5 -4t53 -16t37.5 -34t14 -57v-47h-101z" />
    <glyph glyph-name="t" unicode="t" horiz-adv-x="260" 
d="M74 0v414h-55v78h55v112h108v-112h59v-78h-59v-414h-108z" />
    <glyph glyph-name="u" unicode="u" horiz-adv-x="419" 
d="M270 492h107v-481q-25 -9 -66 -18.5t-108 -9.5q-36 0 -67 7.5t-53.5 25.5t-35 48t-12.5 75v353h108v-345q0 -33 16.5 -46t44.5 -13q23 0 39 3t27 8v393z" />
    <glyph glyph-name="v" unicode="v" horiz-adv-x="405" 
d="M267 492h107v-267q0 -55 -14 -94.5t-37.5 -69t-55 -50.5t-65.5 -39q-33 18 -64 39t-55 50.5t-38 69t-14 94.5v267h107v-281q0 -29 5.5 -49t14.5 -34t20.5 -23t23.5 -15q13 6 24.5 15t20.5 22.5t14.5 33.5t5.5 49v282z" />
    <glyph glyph-name="w" unicode="w" horiz-adv-x="594" 
d="M456 492h107v-276q0 -53 -12.5 -91t-34 -66.5t-50.5 -49t-61 -37.5q-38 17 -64.5 42.5t-43.5 53.5q-17 -28 -44 -53.5t-65 -42.5q-31 17 -59.5 37.5t-50 49t-34.5 66.5t-13 91v276h107v-294q0 -23 4 -40t11 -30t17 -22t21 -16q10 6 19.5 14.5t17 21t12 30t4.5 42.5v294
h107v-295q0 -24 4 -41.5t11 -29.5t16.5 -20.5t20.5 -15.5q10 6 19.5 15t17 21.5t12 30t4.5 41.5v294z" />
    <glyph glyph-name="x" unicode="x" horiz-adv-x="397" 
d="M271 0l-74 202l-78 -202h-108l103 257l-98 235h113l70 -194l70 194h110l-97 -231l104 -261h-115z" />
    <glyph glyph-name="y" unicode="y" horiz-adv-x="406" 
d="M265 17q-14 -8 -35 -14t-54 -6q-28 0 -54 6t-46.5 23t-32.5 47.5t-12 78.5v340h107v-333q0 -34 16 -46t44 -12q24 0 40 5.5t27 12.5v373h107v-587q0 -43 -13 -72t-36 -46.5t-54 -25t-68 -7.5q-34 0 -63 7.5t-50.5 25t-33.5 46.5t-12 72v39h100v-35q0 -29 16 -41t43 -12
q29 0 46.5 12t17.5 41v108z" />
    <glyph glyph-name="z" unicode="z" horiz-adv-x="373" 
d="M23 0v91l191 314h-175v87h304v-77l-189 -325h196v-90h-327z" />
    <glyph glyph-name="braceleft" unicode="{" horiz-adv-x="336" 
d="M280 -131q-54 0 -86.5 9.5t-50 29t-23 49t-5.5 70.5q0 9 1 27t1.5 38t1.5 37.5t1 24.5q0 58 -17.5 81t-63.5 23v74q46 0 63.5 23.5t17.5 81.5q0 7 -1 24t-1.5 36.5t-1.5 37.5t-1 27q0 40 5.5 70t23 49.5t50 29t86.5 9.5h34v-70h-22q-26 0 -42.5 -4t-25.5 -13.5t-12.5 -24
t-3.5 -35.5q0 -43 2.5 -87.5t2.5 -87.5q0 -45 -29 -71.5t-69 -31.5q40 -5 69 -32.5t29 -70.5t-2.5 -88t-2.5 -88q0 -21 3.5 -36t12.5 -24t25.5 -13t42.5 -4h22v-70h-34z" />
    <glyph glyph-name="bar" unicode="|" horiz-adv-x="244" 
d="M79 -125v861h86v-861h-86z" />
    <glyph glyph-name="braceright" unicode="}" horiz-adv-x="338" 
d="M22 -131v70h21q26 0 42.5 4t26 13t13 24t3.5 36q0 43 -2.5 88t-2.5 88t28.5 70.5t68.5 32.5q-40 5 -68.5 31.5t-28.5 71.5q0 43 2.5 87.5t2.5 87.5q0 42 -16.5 59.5t-68.5 17.5h-21v70h34q54 0 86.5 -9.5t50 -29t23.5 -49.5t6 -70q0 -9 -1 -27t-1.5 -37.5t-1.5 -36.5
t-1 -24q0 -58 17 -81.5t63 -23.5v-74q-46 0 -63 -23t-17 -81q0 -7 1 -24.5t1.5 -37.5t1.5 -38t1 -27q0 -41 -6 -70.5t-23.5 -49t-50 -29t-86.5 -9.5h-34z" />
    <glyph glyph-name="asciitilde" unicode="~" horiz-adv-x="585" 
d="M539 311q-31 -35 -64.5 -51t-81.5 -16q-30 0 -57 9.5t-53 20.5t-51.5 20.5t-52.5 9.5q-42 0 -73.5 -19t-60.5 -57v87q21 26 52.5 46.5t77.5 20.5q35 0 65 -9t56.5 -20.5t51.5 -20.5t50 -9q42 0 76 16t65 58v-86z" />
    <glyph glyph-name="uni00A0" unicode="&#xa0;" horiz-adv-x="193" 
 />
    <glyph glyph-name="exclamdown" unicode="&#xa1;" horiz-adv-x="227" 
d="M172.004 664v-145.991h-114.993v145.991h114.993zM145.005 466.012q9 -60.9961 15.499 -113.493q6.5 -52.4961 10.5 -101.493q3.99902 -48.9971 5.99902 -96.9941t2 -98.9941q0 -16.999 -1 -30.498t-4 -24.498h-119.992q-3 10.999 -4 24.498t-1 30.498
q0 50.9971 2 98.9941t6.5 96.9941q4.49902 48.9971 10.999 101.493q6.5 52.4971 15.499 113.493h60.9961z" />
    <glyph glyph-name="cent" unicode="&#xa2;" horiz-adv-x="403" 
d="M158 0v76q-57 8 -91 43t-34 111v210q0 75 34 109.5t91 42.5v72h87v-72q55 -8 89.5 -42.5t34.5 -109.5v-63h-104v57q0 32 -16.5 44t-45.5 12t-46 -12t-17 -44v-199q0 -32 17 -44t46 -12q28 0 45 12.5t17 43.5v62h104v-67q0 -38 -9 -65.5t-25.5 -45.5t-39.5 -28.5
t-50 -14.5v-76h-87z" />
    <glyph glyph-name="sterling" unicode="&#xa3;" horiz-adv-x="434" 
d="M407 23q-11 -19 -30.5 -29.5t-43.5 -10.5q-19 0 -35 6t-32 13.5t-33.5 15t-38.5 10.5q-35 -45 -98 -45q-34 0 -63 17v87q22 -5 37 -5q45 0 64 21t19 66q0 29 -10 53t-22 45h-85v67h52q-26 32 -37 69.5t-11 88.5q0 46 8.5 81t28.5 59t53 36t82 12q35 0 66.5 -6.5t55.5 -23
t38 -45t14 -71.5v-68h-106v43q0 42 -15.5 58t-48.5 16q-23 0 -36 -6t-19.5 -18t-8 -30t-1.5 -42q0 -56 12.5 -90.5t34.5 -62.5h164v-67h-138q11 -19 19.5 -39.5t8.5 -49.5q0 -44 -18 -80q35 -5 60 -14.5t52 -9.5q39 0 61 31v-82z" />
    <glyph glyph-name="currency" unicode="&#xa4;" horiz-adv-x="551" 
d="M392 175q-53 -36 -116 -36q-33 0 -62 9.5t-54 26.5l-63 -67l-58 58l68 63q-37 50 -37 116q0 63 36 116l-66 63l57 56l61 -65q26 17 55.5 27t62.5 10q32 0 61.5 -10t55.5 -27l61 65l56 -56l-65 -63q18 -25 28 -54.5t10 -61.5q0 -33 -10 -62.5t-28 -53.5l66 -63l-56 -58z
M431 345q0 32 -12 60.5t-33 49.5t-49.5 33t-60.5 12t-60 -12t-49 -33t-33 -49.5t-12 -60.5t12 -60t33 -49t49 -33t60 -12t60.5 12t49.5 33t33 49t12 60z" />
    <glyph glyph-name="yen" unicode="&#xa5;" 
d="M279 81v-81h-117v81h-129v65h129v71h-129v64h129v33q-27 16 -50.5 36.5t-41 47.5t-27.5 61t-10 77v128h119v-123q0 -26 6.5 -46.5t16 -37t21.5 -27.5t24 -17q14 8 26.5 18t22.5 24.5t15.5 35t5.5 50.5v123h115v-128q0 -43 -10 -77t-27 -61t-40 -47.5t-49 -36.5v-33h126
v-64h-126v-71h126v-65h-126z" />
    <glyph glyph-name="brokenbar" unicode="&#xa6;" horiz-adv-x="375" 
d="M144 -125v372h87v-372h-87zM144 397v339h87v-339h-87z" />
    <glyph glyph-name="section" unicode="&#xa7;" horiz-adv-x="436" 
d="M143 40q0 -19 5.5 -30t14.5 -16.5t21.5 -7t26.5 -1.5q23 0 36.5 5t20 14.5t8 22.5t1.5 30q0 29 -8.5 46t-23 27t-33.5 14.5t-39.5 7.5t-41 8t-37.5 15q-29 17 -42 45t-13 63q0 33 11 55t29.5 34.5t44 18t55.5 5.5q-27 6 -51 18t-41.5 30t-28 42t-10.5 54q0 44 15.5 71.5
t41 42.5t58 20.5t67.5 5.5q28 0 57 -3.5t53 -15.5t39.5 -34t15.5 -58v-47h-101v30q0 14 -5.5 21.5t-13.5 11.5t-19 4.5t-21 0.5q-14 0 -27 -1t-24 -5.5t-17.5 -15t-6.5 -29.5q0 -28 19.5 -43.5t47.5 -25.5t58.5 -16.5t52.5 -15.5q40 -17 53.5 -50.5t13.5 -72.5
q0 -26 -5 -48.5t-17.5 -39.5t-32.5 -27t-50 -10q52 -16 72.5 -51.5t20.5 -86.5q0 -47 -12.5 -78t-36 -49.5t-57 -26t-74.5 -7.5q-30 0 -61 4.5t-56 17t-41 36.5t-16 63v57h104v-29zM284 289q0 22 -15 28t-49 6q-38 0 -52 -6t-14 -28t14 -29.5t52 -7.5t51 7.5t13 29.5z" />
    <glyph glyph-name="dieresis" unicode="&#xa8;" horiz-adv-x="429" 
d="M66 554v133h104v-133h-104zM258 554v133h105v-133h-105z" />
    <glyph glyph-name="ordfeminine" unicode="&#xaa;" horiz-adv-x="256" 
d="M223 299q-15 -8 -36.5 -13t-56.5 -5q-49 0 -78 18t-29 66v21q0 23 7.5 37.5t20 23t28 11.5t32.5 3q14 0 24 -2.5t18 -5.5v25q0 28 -31 28q-23 0 -42 -4.5t-42 -13.5v68q15 8 36.5 12.5t51.5 4.5q20 0 38 -4t31 -14.5t20.5 -28t7.5 -43.5v-184zM153 405q-5 2 -13.5 4.5
t-14.5 2.5q-29 0 -29 -23v-17q0 -14 7 -19t24 -5q18 0 26 3v54z" />
    <glyph glyph-name="guillemotleft" unicode="&#xab;" horiz-adv-x="466" 
d="M21 317l139 174l51 -55l-100 -119l100 -118l-51 -54zM254 317l139 174l51 -55l-100 -119l100 -118l-51 -54z" />
    <glyph glyph-name="logicalnot" unicode="&#xac;" horiz-adv-x="619" 
d="M471 0v392h-424v100h524v-492h-100z" />
    <glyph glyph-name="macron" unicode="&#xaf;" horiz-adv-x="412" 
d="M47 593v73h317v-73h-317z" />
    <glyph glyph-name="degree" unicode="&#xb0;" horiz-adv-x="399" 
d="M198 355q-39 0 -66.5 12.5t-45.5 34t-26 50.5t-8 62t8 62t26 50.5t45.5 33.5t66.5 12t67 -12t46 -33.5t26 -50.5t8 -62t-8 -62t-26 -50.5t-46 -34t-67 -12.5zM198 406q25 0 42 8.5t28 23.5t16 34.5t5 41.5q0 45 -21 76.5t-70 31.5t-69.5 -31.5t-20.5 -76.5q0 -22 5 -41.5
t15.5 -34.5t28 -23.5t41.5 -8.5z" />
    <glyph glyph-name="plusminus" unicode="&#xb1;" horiz-adv-x="556" 
d="M237 110v194h-192v80h192v193h80v-193h194v-80h-194v-194h-80zM45 1v80h466v-80h-466z" />
    <glyph glyph-name="uni00B2" unicode="&#xb2;" horiz-adv-x="242" 
d="M32 343v92q0 32 7 54t30 33t37 16t21.5 11t10 16.5t2.5 32.5q0 16 -4 21t-17 5q-22 0 -22 -15v-31h-61v34q0 42 23.5 56.5t59.5 14.5q54 0 72 -21.5t18 -70.5q0 -45 -12.5 -66.5t-47.5 -35.5q-21 -8 -32.5 -15.5t-11.5 -29.5v-39h102v-62h-175z" />
    <glyph glyph-name="uni00B3" unicode="&#xb3;" horiz-adv-x="238" 
d="M208 415q0 -46 -26 -63.5t-68 -17.5q-40 0 -63 17t-23 64v30h65v-25q0 -11 4.5 -15t16.5 -4t17 3.5t5 14.5v39q0 14 -4.5 21.5t-17.5 7.5h-22v50h22q13 0 17.5 7.5t4.5 21.5v32q0 11 -5 15t-17 4t-16.5 -4t-4.5 -16v-24h-65v29q0 47 23 64t63 17q42 0 67 -17t25 -64v-18
q0 -22 -8 -43t-30 -29q22 -8 31 -27.5t9 -41.5v-28z" />
    <glyph glyph-name="acute" unicode="&#xb4;" horiz-adv-x="306" 
d="M39 534v57l228 119v-83z" />
    <glyph glyph-name="mu" unicode="&#xb5;" horiz-adv-x="421" 
d="M39 -233v725h108v-342q0 -32 16.5 -47t44.5 -15q23 0 39 3t27 8v393h107v-481q-25 -9 -62.5 -18.5t-82.5 -9.5q-42 0 -61.5 6.5t-27.5 14.5v-237h-108z" />
    <glyph glyph-name="mu" unicode="&#x3bc;" horiz-adv-x="421" 
d="M39 -233v725h108v-342q0 -32 16.5 -47t44.5 -15q23 0 39 3t27 8v393h107v-481q-25 -9 -62.5 -18.5t-82.5 -9.5q-42 0 -61.5 6.5t-27.5 14.5v-237h-108z" />
    <glyph glyph-name="paragraph" unicode="&#xb6;" horiz-adv-x="511" 
d="M349 -100v686h-99v-686h-82v491q-27 1 -49 6.5t-38 20.5t-24.5 41.5t-8.5 70.5q0 63 28.5 98.5t85.5 35.5h311v-78h-43v-686h-81z" />
    <glyph glyph-name="periodcentered" unicode="&#xb7;" horiz-adv-x="243" 
d="M63 240v151h117v-151h-117z" />
    <glyph glyph-name="cedilla" unicode="&#xb8;" horiz-adv-x="225" 
d="M57 -34h111v-52q0 -32 -8 -60t-22.5 -49t-35 -34t-45.5 -14v209z" />
    <glyph glyph-name="uni00B9" unicode="&#xb9;" horiz-adv-x="165" 
d="M60 343v249q0 18 -22 18q-7 0 -11 -2v70q3 0 6 0.5t6 0.5q38 0 66 -17.5t28 -63.5v-255h-73z" />
    <glyph glyph-name="ordmasculine" unicode="&#xba;" horiz-adv-x="252" 
d="M222 370q0 -51 -27.5 -70t-69.5 -19q-45 0 -71.5 19t-26.5 70v113q0 52 26.5 71t71.5 19q41 0 69 -19.5t28 -70.5v-113zM153 480q0 14 -8 19.5t-20 5.5q-13 0 -21 -5.5t-8 -19.5v-107q0 -14 8 -19t21 -5q12 0 20 5t8 19v107z" />
    <glyph glyph-name="guillemotright" unicode="&#xbb;" horiz-adv-x="466" 
d="M21 199l101 118l-101 119l50 55l140 -174l-140 -172zM254 199l101 118l-101 119l50 55l140 -174l-140 -172z" />
    <glyph glyph-name="onequarter" unicode="&#xbc;" horiz-adv-x="536" 
d="M105 343v249q0 18 -22 18q-7 0 -11 -2v70q3 0 6 0.5t6 0.5q38 0 66 -17.5t28 -63.5v-255h-73zM31 -20l371 704h86l-373 -704h-84zM437 -10v59h-120v68l89 205h69l-86 -210h50v61h65v-183h-67z" />
    <glyph glyph-name="onehalf" unicode="&#xbd;" horiz-adv-x="542" 
d="M105 343v249q0 18 -22 18q-7 0 -11 -2v70q3 0 6 0.5t6 0.5q38 0 66 -17.5t28 -63.5v-255h-73zM32 -20l371 704h86l-373 -704h-84zM333 -10v92q0 32 7 54t30 33t37 16t21.5 11t10 16.5t2.5 32.5q0 16 -4 21t-17 5q-22 0 -22 -15v-31h-61v34q0 42 23.5 56.5t59.5 14.5
q54 0 72 -21.5t18 -70.5q0 -45 -12.5 -66.5t-47.5 -35.5q-21 -8 -32.5 -15.5t-11.5 -29.5v-39h102v-62h-175z" />
    <glyph glyph-name="threequarters" unicode="&#xbe;" horiz-adv-x="533" 
d="M212 415q0 -46 -26 -63.5t-68 -17.5q-40 0 -63 17t-23 64v30h65v-25q0 -11 4.5 -15t16.5 -4t17 3.5t5 14.5v39q0 14 -4.5 21.5t-17.5 7.5h-22v50h22q13 0 17.5 7.5t4.5 21.5v32q0 11 -5 15t-17 4t-16.5 -4t-4.5 -16v-24h-65v29q0 47 23 64t63 17q42 0 67 -17t25 -64v-18
q0 -22 -8 -43t-30 -29q22 -8 31 -27.5t9 -41.5v-28zM33 -20l371 704h86l-373 -704h-84zM419 -10v59h-120v68l89 205h69l-86 -210h50v61h65v-183h-67z" />
    <glyph glyph-name="questiondown" unicode="&#xbf;" horiz-adv-x="386" 
d="M274.007 664v-145.991h-114.993v145.991h114.993zM271.007 455.013v-34.998q0 -21.998 -3 -40.4971q-2.99902 -18.499 -10.499 -33.998q-7.49902 -15.499 -20.999 -29.498q-13.499 -13.999 -35.4971 -28.998q-19.999 -13 -33.498 -22.999t-21.499 -19.999
q-7.99902 -9.99902 -11.499 -21.998q-3.5 -12 -3.5 -29.998q0 -28.999 1 -49.9971q1 -20.999 6.5 -34.498q5.49902 -13.499 18.498 -19.999q13 -6.5 36.998 -6.5q21.999 0 34.998 3.5t19.999 12.499q6.99902 9 8.99902 22.999t2 34.998v42.9971h105.993v-55.9961
q0 -44.998 -9.99902 -75.4961t-31.498 -48.9971q-21.499 -18.498 -53.9971 -25.998t-77.4951 -7.5q-50.9971 0 -84.4951 9.5q-33.4971 9.49902 -52.9961 30.998t-27.499 56.4961q-7.99902 34.998 -7.99902 84.9951q0 41.9971 4 68.9961q3.99902 26.998 12.999 44.9971
q8.99902 17.999 22.998 30.498q14 12.499 33.998 24.499q40.998 25.998 56.4971 47.4971q15.499 21.498 15.499 45.4971v26.998h104.993z" />
    <glyph glyph-name="Agrave" unicode="&#xc0;" 
d="M287 0v231h-139v-231h-115v426q0 55 15.5 95t41 69.5t59.5 50.5t70 39q35 -18 68.5 -39.5t60 -50.5t42.5 -69t16 -95v-426h-119zM287 434q0 26 -6 44.5t-15.5 31.5t-22 22t-25.5 17q-13 -8 -25.5 -17t-22.5 -22t-16 -31.5t-6 -44.5v-105h139v105zM85 799v83l228 -119v-57
z" />
    <glyph glyph-name="Aacute" unicode="&#xc1;" 
d="M287 0v231h-139v-231h-115v426q0 55 15.5 95t41 69.5t59.5 50.5t70 39q35 -18 68.5 -39.5t60 -50.5t42.5 -69t16 -95v-426h-119zM287 434q0 26 -6 44.5t-15.5 31.5t-22 22t-25.5 17q-13 -8 -25.5 -17t-22.5 -22t-16 -31.5t-6 -44.5v-105h139v105zM125 706v57l228 119v-83
z" />
    <glyph glyph-name="Acircumflex" unicode="&#xc2;" 
d="M287 0v231h-139v-231h-115v426q0 55 15.5 95t41 69.5t59.5 50.5t70 39q35 -18 68.5 -39.5t60 -50.5t42.5 -69t16 -95v-426h-119zM287 434q0 26 -6 44.5t-15.5 31.5t-22 22t-25.5 17q-13 -8 -25.5 -17t-22.5 -22t-16 -31.5t-6 -44.5v-105h139v105zM222 853l-141 -130
l-37 41l135 144h85l134 -144l-37 -41z" />
    <glyph glyph-name="Atilde" unicode="&#xc3;" 
d="M287 0v231h-139v-231h-115v426q0 55 15.5 95t41 69.5t59.5 50.5t70 39q35 -18 68.5 -39.5t60 -50.5t42.5 -69t16 -95v-426h-119zM287 434q0 26 -6 44.5t-15.5 31.5t-22 22t-25.5 17q-13 -8 -25.5 -17t-22.5 -22t-16 -31.5t-6 -44.5v-105h139v105zM61 765v73h317v-73h-317
z" />
    <glyph glyph-name="Adieresis" unicode="&#xc4;" 
d="M287 0v231h-139v-231h-115v426q0 55 15.5 95t41 69.5t59.5 50.5t70 39q35 -18 68.5 -39.5t60 -50.5t42.5 -69t16 -95v-426h-119zM287 434q0 26 -6 44.5t-15.5 31.5t-22 22t-25.5 17q-13 -8 -25.5 -17t-22.5 -22t-16 -31.5t-6 -44.5v-105h139v105zM71 726v133h104v-133
h-104zM263 726v133h105v-133h-105z" />
    <glyph glyph-name="Aring" unicode="&#xc5;" 
d="M287 0v231h-139v-231h-115v426q0 55 15.5 95t41 69.5t59.5 50.5t70 39q35 -18 68.5 -39.5t60 -50.5t42.5 -69t16 -95v-426h-119zM287 434q0 26 -6 44.5t-15.5 31.5t-22 22t-25.5 17q-13 -8 -25.5 -17t-22.5 -22t-16 -31.5t-6 -44.5v-105h139v105zM321 792
q0 -48 -22.5 -72t-79.5 -24q-101 0 -101 96q0 46 24.5 71t76.5 25q57 0 79.5 -25t22.5 -71zM279 792q0 58 -60 58q-56 0 -56 -58q0 -57 56 -57q60 0 60 57z" />
    <glyph glyph-name="AE" unicode="&#xc6;" horiz-adv-x="533" 
d="M249 0v231h-100v-231h-116v426q0 58 15.5 102.5t43 74.5t65 45.5t82.5 15.5h262v-100h-138v-168h124v-99h-124v-195h144v-102h-258zM249 564h-10q-21 0 -37.5 -10.5t-28.5 -29t-18 -44t-6 -54.5v-98h100v236z" />
    <glyph glyph-name="Ccedilla" unicode="&#xc7;" horiz-adv-x="417" 
d="M281 276h105v-131q0 -47 -12.5 -78t-34.5 -49.5t-53.5 -26.5t-68.5 -8q-39 0 -72.5 8t-58 26.5t-39 49.5t-14.5 78v373q0 46 14.5 77.5t39 50t58 26.5t72.5 8q37 0 68.5 -8t53.5 -26.5t34.5 -50t12.5 -77.5v-139h-105v134q0 31 -13.5 46.5t-50.5 15.5t-52 -14.5
t-15 -47.5v-347q0 -19 2.5 -33.5t9.5 -24t20 -14.5t35 -5q37 0 50.5 14.5t13.5 45.5v127zM158 -34h111v-52q0 -32 -8 -60t-22.5 -49t-35 -34t-45.5 -14v209z" />
    <glyph glyph-name="Egrave" unicode="&#xc8;" horiz-adv-x="333" 
d="M39 0v664h262v-99h-145v-168h132v-99h-132v-196h151v-102h-268zM34 799v83l228 -119v-57z" />
    <glyph glyph-name="Eacute" unicode="&#xc9;" horiz-adv-x="333" 
d="M39 0v664h262v-99h-145v-168h132v-99h-132v-196h151v-102h-268zM75 706v57l228 119v-83z" />
    <glyph glyph-name="Ecircumflex" unicode="&#xca;" horiz-adv-x="333" 
d="M39 0v664h262v-99h-145v-168h132v-99h-132v-196h151v-102h-268zM169 853l-141 -130l-37 41l135 144h85l134 -144l-37 -41z" />
    <glyph glyph-name="Edieresis" unicode="&#xcb;" horiz-adv-x="333" 
d="M39 0v664h262v-99h-145v-168h132v-99h-132v-196h151v-102h-268zM19 726v133h104v-133h-104zM211 726v133h105v-133h-105z" />
    <glyph glyph-name="Igrave" unicode="&#xcc;" horiz-adv-x="195" 
d="M39 0v664h117v-664h-117zM-35 799v83l228 -119v-57z" />
    <glyph glyph-name="Iacute" unicode="&#xcd;" horiz-adv-x="195" 
d="M39 0v664h117v-664h-117zM5 706v57l228 119v-83z" />
    <glyph glyph-name="Icircumflex" unicode="&#xce;" horiz-adv-x="195" 
d="M39 0v664h117v-664h-117zM100 853l-141 -130l-37 41l135 144h85l134 -144l-37 -41z" />
    <glyph glyph-name="Idieresis" unicode="&#xcf;" horiz-adv-x="195" 
d="M39 0v664h117v-664h-117zM-50 726v133h104v-133h-104zM142 726v133h105v-133h-105z" />
    <glyph glyph-name="Eth" unicode="&#xd0;" horiz-adv-x="447" 
d="M41 0v298h-26v99h26v267h187q37 0 71 -9t59.5 -31.5t40.5 -60t15 -95.5v-279q0 -52 -15 -88t-40.5 -58.5t-59.5 -32.5t-71 -10h-187zM297 484q0 46 -17.5 63.5t-51.5 17.5h-70v-168h74v-99h-74v-196h70q34 0 51.5 17.5t17.5 62.5v302z" />
    <glyph glyph-name="Ntilde" unicode="&#xd1;" horiz-adv-x="448" 
d="M295 0v515q0 34 -19 47t-49 13q-25 0 -42 -3t-29 -8v-564h-117v651q26 9 72 19t118 10q37 0 70.5 -7.5t58.5 -26.5t39.5 -50t14.5 -77v-519h-117zM65 765v73h317v-73h-317z" />
    <glyph glyph-name="Ograve" unicode="&#xd2;" 
d="M33 518q0 46 14.5 77.5t40 50t59 26.5t72.5 8q37 0 71 -8t59.5 -26.5t40.5 -50t15 -77.5v-373q0 -47 -15 -78t-40.5 -49.5t-59.5 -26.5t-71 -8q-39 0 -72.5 8t-59 26.5t-40 49.5t-14.5 78v373zM287 512q0 38 -15.5 50t-52.5 12q-35 0 -52 -13t-17 -49v-362
q0 -35 16 -47.5t53 -12.5t52.5 12.5t15.5 47.5v362zM85 799v83l228 -119v-57z" />
    <glyph glyph-name="Oacute" unicode="&#xd3;" 
d="M33 518q0 46 14.5 77.5t40 50t59 26.5t72.5 8q37 0 71 -8t59.5 -26.5t40.5 -50t15 -77.5v-373q0 -47 -15 -78t-40.5 -49.5t-59.5 -26.5t-71 -8q-39 0 -72.5 8t-59 26.5t-40 49.5t-14.5 78v373zM287 512q0 38 -15.5 50t-52.5 12q-35 0 -52 -13t-17 -49v-362
q0 -35 16 -47.5t53 -12.5t52.5 12.5t15.5 47.5v362zM125 706v57l228 119v-83z" />
    <glyph glyph-name="Ocircumflex" unicode="&#xd4;" 
d="M33 518q0 46 14.5 77.5t40 50t59 26.5t72.5 8q37 0 71 -8t59.5 -26.5t40.5 -50t15 -77.5v-373q0 -47 -15 -78t-40.5 -49.5t-59.5 -26.5t-71 -8q-39 0 -72.5 8t-59 26.5t-40 49.5t-14.5 78v373zM287 512q0 38 -15.5 50t-52.5 12q-35 0 -52 -13t-17 -49v-362
q0 -35 16 -47.5t53 -12.5t52.5 12.5t15.5 47.5v362zM222 853l-141 -130l-37 41l135 144h85l134 -144l-37 -41z" />
    <glyph glyph-name="Otilde" unicode="&#xd5;" 
d="M33 518q0 46 14.5 77.5t40 50t59 26.5t72.5 8q37 0 71 -8t59.5 -26.5t40.5 -50t15 -77.5v-373q0 -47 -15 -78t-40.5 -49.5t-59.5 -26.5t-71 -8q-39 0 -72.5 8t-59 26.5t-40 49.5t-14.5 78v373zM287 512q0 38 -15.5 50t-52.5 12q-35 0 -52 -13t-17 -49v-362
q0 -35 16 -47.5t53 -12.5t52.5 12.5t15.5 47.5v362zM61 765v73h317v-73h-317z" />
    <glyph glyph-name="Odieresis" unicode="&#xd6;" 
d="M33 518q0 46 14.5 77.5t40 50t59 26.5t72.5 8q37 0 71 -8t59.5 -26.5t40.5 -50t15 -77.5v-373q0 -47 -15 -78t-40.5 -49.5t-59.5 -26.5t-71 -8q-39 0 -72.5 8t-59 26.5t-40 49.5t-14.5 78v373zM287 512q0 38 -15.5 50t-52.5 12q-35 0 -52 -13t-17 -49v-362
q0 -35 16 -47.5t53 -12.5t52.5 12.5t15.5 47.5v362zM71 726v133h104v-133h-104zM263 726v133h105v-133h-105z" />
    <glyph glyph-name="multiply" unicode="&#xd7;" horiz-adv-x="568" 
d="M419 150l-136 136l-136 -135l-57 57l136 136l-136 135l57 57l136 -135l136 136l57 -57l-137 -136l137 -137z" />
    <glyph glyph-name="Oslash" unicode="&#xd8;" 
d="M33 -26l29 68q-29 38 -29 103v373q0 46 14.5 77.5t40 50t59 26.5t72.5 8q31 0 59 -5.5t52 -17.5l28 65l47 -21l-34 -76q16 -19 25 -45.5t9 -61.5v-373q0 -47 -15 -78t-40.5 -49.5t-59.5 -26.5t-71 -8q-34 0 -64 6t-54 19l-25 -57zM287 432l-135 -307q5 -20 21.5 -27.5
t45.5 -7.5q37 0 52.5 12.5t15.5 47.5v282zM282 547q-7 16 -22 21.5t-41 5.5q-35 0 -52 -13t-17 -49v-269z" />
    <glyph glyph-name="Ugrave" unicode="&#xd9;" horiz-adv-x="448" 
d="M292 664h117v-652q-26 -9 -71.5 -19t-117.5 -10q-38 0 -71.5 7.5t-58.5 26.5t-39.5 49.5t-14.5 77.5v520h118v-514q0 -34 19 -47t49 -13q46 0 70 11v563zM90 799v83l228 -119v-57z" />
    <glyph glyph-name="Uacute" unicode="&#xda;" horiz-adv-x="448" 
d="M292 664h117v-652q-26 -9 -71.5 -19t-117.5 -10q-38 0 -71.5 7.5t-58.5 26.5t-39.5 49.5t-14.5 77.5v520h118v-514q0 -34 19 -47t49 -13q46 0 70 11v563zM130 706v57l228 119v-83z" />
    <glyph glyph-name="Ucircumflex" unicode="&#xdb;" horiz-adv-x="448" 
d="M292 664h117v-652q-26 -9 -71.5 -19t-117.5 -10q-38 0 -71.5 7.5t-58.5 26.5t-39.5 49.5t-14.5 77.5v520h118v-514q0 -34 19 -47t49 -13q46 0 70 11v563zM226 853l-141 -130l-37 41l135 144h85l134 -144l-37 -41z" />
    <glyph glyph-name="Udieresis" unicode="&#xdc;" horiz-adv-x="448" 
d="M292 664h117v-652q-26 -9 -71.5 -19t-117.5 -10q-38 0 -71.5 7.5t-58.5 26.5t-39.5 49.5t-14.5 77.5v520h118v-514q0 -34 19 -47t49 -13q46 0 70 11v563zM75 726v133h104v-133h-104zM267 726v133h105v-133h-105z" />
    <glyph glyph-name="Yacute" unicode="&#xdd;" horiz-adv-x="426" 
d="M155 0v233q-27 16 -50.5 36.5t-41 47.5t-27.5 61t-10 77v209h119v-215q0 -26 6 -45t15.5 -32.5t21.5 -23t25 -17.5q13 8 26 17.5t22.5 23t15.5 32t6 45.5v215h115v-209q0 -43 -10 -77t-27 -61t-40 -47.5t-49 -36.5v-233h-117zM119 706v57l228 119v-83z" />
    <glyph glyph-name="Thorn" unicode="&#xde;" horiz-adv-x="427" 
d="M39 0v664h117v-113h102q46 0 75 -14t45.5 -41t22.5 -66t6 -90t-6 -90t-22.5 -66t-45.5 -41t-75 -14h-102v-129h-117zM246 222q29 0 39 26t10 92t-10 92t-39 26h-90v-236h90z" />
    <glyph glyph-name="germandbls" unicode="&#xdf;" horiz-adv-x="546" 
d="M523 136q0 -79 -32.5 -116t-114.5 -37q-81 0 -116.5 27.5t-35.5 93.5v57h91v-35q0 -25 12.5 -35.5t43.5 -10.5q27 0 40.5 11.5t13.5 42.5v37q0 22 -4.5 35.5t-13.5 22.5t-22.5 15t-31.5 13q-52 20 -70 52.5t-18 88.5v120q0 35 -13.5 47t-46.5 12q-21 0 -33 -2.5t-18 -9.5
t-8 -18t-2 -28v-519h-108v524q0 45 12.5 75t35 48t53.5 25.5t68 7.5q35 0 66 -7.5t53.5 -25.5t35.5 -48t13 -75v-113q0 -24 5 -40t14 -26.5t22.5 -17.5t30.5 -13q25 -9 40 -23t23.5 -31.5t11.5 -38.5t3 -44v-41z" />
    <glyph glyph-name="agrave" unicode="&#xe0;" horiz-adv-x="410" 
d="M374 11q-23 -12 -59.5 -20t-103.5 -8q-42 0 -76.5 7.5t-59 24.5t-38 45t-13.5 69v39q0 40 13.5 65t35 39t49 19t55.5 5q31 0 53.5 -6t35.5 -13v63q0 29 -18 45t-51 16q-44 0 -77 -6.5t-70 -20.5v106q26 11 62 18t91 7q36 0 67.5 -7.5t54.5 -25.5t36 -48t13 -75v-338z
M266 209q-26 18 -65 18q-31 0 -47 -11.5t-16 -43.5v-31q0 -30 16 -43t51 -13q24 0 38 3t23 8v113zM71 627v83l228 -119v-57z" />
    <glyph glyph-name="aacute" unicode="&#xe1;" horiz-adv-x="410" 
d="M374 11q-23 -12 -59.5 -20t-103.5 -8q-42 0 -76.5 7.5t-59 24.5t-38 45t-13.5 69v39q0 40 13.5 65t35 39t49 19t55.5 5q31 0 53.5 -6t35.5 -13v63q0 29 -18 45t-51 16q-44 0 -77 -6.5t-70 -20.5v106q26 11 62 18t91 7q36 0 67.5 -7.5t54.5 -25.5t36 -48t13 -75v-338z
M266 209q-26 18 -65 18q-31 0 -47 -11.5t-16 -43.5v-31q0 -30 16 -43t51 -13q24 0 38 3t23 8v113zM111 534v57l228 119v-83z" />
    <glyph glyph-name="acircumflex" unicode="&#xe2;" horiz-adv-x="410" 
d="M374 11q-23 -12 -59.5 -20t-103.5 -8q-42 0 -76.5 7.5t-59 24.5t-38 45t-13.5 69v39q0 40 13.5 65t35 39t49 19t55.5 5q31 0 53.5 -6t35.5 -13v63q0 29 -18 45t-51 16q-44 0 -77 -6.5t-70 -20.5v106q26 11 62 18t91 7q36 0 67.5 -7.5t54.5 -25.5t36 -48t13 -75v-338z
M266 209q-26 18 -65 18q-31 0 -47 -11.5t-16 -43.5v-31q0 -30 16 -43t51 -13q24 0 38 3t23 8v113zM207 681l-141 -130l-37 41l135 144h85l134 -144l-37 -41z" />
    <glyph glyph-name="atilde" unicode="&#xe3;" horiz-adv-x="410" 
d="M374 11q-23 -12 -59.5 -20t-103.5 -8q-42 0 -76.5 7.5t-59 24.5t-38 45t-13.5 69v39q0 40 13.5 65t35 39t49 19t55.5 5q31 0 53.5 -6t35.5 -13v63q0 29 -18 45t-51 16q-44 0 -77 -6.5t-70 -20.5v106q26 11 62 18t91 7q36 0 67.5 -7.5t54.5 -25.5t36 -48t13 -75v-338z
M266 209q-26 18 -65 18q-31 0 -47 -11.5t-16 -43.5v-31q0 -30 16 -43t51 -13q24 0 38 3t23 8v113zM47 593v73h317v-73h-317z" />
    <glyph glyph-name="adieresis" unicode="&#xe4;" horiz-adv-x="410" 
d="M374 11q-23 -12 -59.5 -20t-103.5 -8q-42 0 -76.5 7.5t-59 24.5t-38 45t-13.5 69v39q0 40 13.5 65t35 39t49 19t55.5 5q31 0 53.5 -6t35.5 -13v63q0 29 -18 45t-51 16q-44 0 -77 -6.5t-70 -20.5v106q26 11 62 18t91 7q36 0 67.5 -7.5t54.5 -25.5t36 -48t13 -75v-338z
M266 209q-26 18 -65 18q-31 0 -47 -11.5t-16 -43.5v-31q0 -30 16 -43t51 -13q24 0 38 3t23 8v113zM58 554v133h104v-133h-104zM250 554v133h105v-133h-105z" />
    <glyph glyph-name="aring" unicode="&#xe5;" horiz-adv-x="410" 
d="M374 11q-23 -12 -59.5 -20t-103.5 -8q-42 0 -76.5 7.5t-59 24.5t-38 45t-13.5 69v39q0 40 13.5 65t35 39t49 19t55.5 5q31 0 53.5 -6t35.5 -13v63q0 29 -18 45t-51 16q-44 0 -77 -6.5t-70 -20.5v106q26 11 62 18t91 7q36 0 67.5 -7.5t54.5 -25.5t36 -48t13 -75v-338z
M266 209q-26 18 -65 18q-31 0 -47 -11.5t-16 -43.5v-31q0 -30 16 -43t51 -13q24 0 38 3t23 8v113zM306 620q0 -48 -22.5 -72t-79.5 -24q-101 0 -101 96q0 46 24.5 71t76.5 25q57 0 79.5 -25t22.5 -71zM264 620q0 58 -60 58q-56 0 -56 -58q0 -57 56 -57q60 0 60 57z" />
    <glyph glyph-name="ae" unicode="&#xe6;" horiz-adv-x="640" 
d="M603 8q-25 -10 -67 -17.5t-96 -7.5q-53 0 -96 17q-22 -6 -54 -11.5t-80 -5.5q-41 0 -75 7.5t-58.5 25t-38.5 45.5t-14 70v37q0 40 13 65t34.5 39t48.5 19t56 5q31 0 53.5 -6t36.5 -14v64q0 28 -18 44.5t-52 16.5q-44 0 -77 -7t-70 -21v107q26 11 61.5 18t92.5 7
q35 0 64.5 -7.5t52.5 -24.5q22 17 51.5 24.5t65.5 7.5t67 -7.5t54.5 -25.5t36.5 -48t13 -75v-142h-234v-61q0 -20 6.5 -31t18 -16t27 -6t34.5 -1q49 0 81 6.5t62 17.5v-108zM266 208q-26 18 -66 18q-32 0 -47.5 -13t-15.5 -45v-24q0 -31 16 -45t51 -14q24 0 38 2.5t24 7.5
v113zM501 340q0 30 -14 46t-50 16t-49.5 -16t-13.5 -46v-59h127v59z" />
    <glyph glyph-name="ccedilla" unicode="&#xe7;" horiz-adv-x="396" 
d="M368 139q0 -45 -12.5 -75t-35 -48t-53 -25.5t-66.5 -7.5q-38 0 -69 7.5t-53.5 25.5t-35 48t-12.5 75v210q0 45 12.5 75t35 48t53.5 25.5t69 7.5q36 0 66.5 -7.5t53 -25.5t35 -48t12.5 -75v-63h-104v58q0 32 -17 44t-46 12t-46 -12t-17 -44v-200q0 -32 17 -44t46 -12
t46 12t17 44v62h104v-67zM141 -34h111v-52q0 -32 -8 -60t-22.5 -49t-35 -34t-45.5 -14v209z" />
    <glyph glyph-name="egrave" unicode="&#xe8;" horiz-adv-x="404" 
d="M367 8q-25 -10 -67 -17.5t-99 -7.5q-36 0 -67 7.5t-54 25.5t-36 48t-13 75v210q0 45 12.5 75t35 48t53.5 25.5t69 7.5q36 0 67 -7.5t54.5 -25.5t36.5 -48t13 -75v-142h-234v-58q0 -38 22 -47.5t60 -9.5q50 0 82.5 6.5t64.5 17.5v-108zM265 342q0 29 -14 44.5t-50 15.5
q-38 0 -50.5 -17t-12.5 -48v-56h127v61zM68 627v83l228 -119v-57z" />
    <glyph glyph-name="eacute" unicode="&#xe9;" horiz-adv-x="404" 
d="M367 8q-25 -10 -67 -17.5t-99 -7.5q-36 0 -67 7.5t-54 25.5t-36 48t-13 75v210q0 45 12.5 75t35 48t53.5 25.5t69 7.5q36 0 67 -7.5t54.5 -25.5t36.5 -48t13 -75v-142h-234v-58q0 -38 22 -47.5t60 -9.5q50 0 82.5 6.5t64.5 17.5v-108zM265 342q0 29 -14 44.5t-50 15.5
q-38 0 -50.5 -17t-12.5 -48v-56h127v61zM103 534v57l228 119v-83z" />
    <glyph glyph-name="ecircumflex" unicode="&#xea;" horiz-adv-x="404" 
d="M367 8q-25 -10 -67 -17.5t-99 -7.5q-36 0 -67 7.5t-54 25.5t-36 48t-13 75v210q0 45 12.5 75t35 48t53.5 25.5t69 7.5q36 0 67 -7.5t54.5 -25.5t36.5 -48t13 -75v-142h-234v-58q0 -38 22 -47.5t60 -9.5q50 0 82.5 6.5t64.5 17.5v-108zM265 342q0 29 -14 44.5t-50 15.5
q-38 0 -50.5 -17t-12.5 -48v-56h127v61zM204 681l-141 -130l-37 41l135 144h85l134 -144l-37 -41z" />
    <glyph glyph-name="edieresis" unicode="&#xeb;" horiz-adv-x="404" 
d="M367 8q-25 -10 -67 -17.5t-99 -7.5q-36 0 -67 7.5t-54 25.5t-36 48t-13 75v210q0 45 12.5 75t35 48t53.5 25.5t69 7.5q36 0 67 -7.5t54.5 -25.5t36.5 -48t13 -75v-142h-234v-58q0 -38 22 -47.5t60 -9.5q50 0 82.5 6.5t64.5 17.5v-108zM265 342q0 29 -14 44.5t-50 15.5
q-38 0 -50.5 -17t-12.5 -48v-56h127v61zM55 554v133h104v-133h-104zM247 554v133h105v-133h-105z" />
    <glyph glyph-name="igrave" unicode="&#xec;" horiz-adv-x="193" 
d="M42 0v492h108v-492h-108zM-36 627v83l228 -119v-57z" />
    <glyph glyph-name="iacute" unicode="&#xed;" horiz-adv-x="193" 
d="M42 0v492h108v-492h-108zM4 534v57l228 119v-83z" />
    <glyph glyph-name="icircumflex" unicode="&#xee;" horiz-adv-x="193" 
d="M42 0v492h108v-492h-108zM99 681l-141 -130l-37 41l135 144h85l134 -144l-37 -41z" />
    <glyph glyph-name="idieresis" unicode="&#xef;" horiz-adv-x="193" 
d="M42 0v492h108v-492h-108zM-51 554v133h104v-133h-104zM141 554v133h105v-133h-105z" />
    <glyph glyph-name="eth" unicode="&#xf0;" horiz-adv-x="417" 
d="M380 139q0 -45 -13 -75t-35.5 -48t-54.5 -25.5t-69 -7.5q-36 0 -67.5 7.5t-55.5 25.5t-38 48t-14 75v160q0 49 13.5 79.5t34.5 47.5t48 23t54 6q30 0 48 -8t33 -23q0 27 -8.5 56t-23.5 55l-129 -36l-16 57l111 30q-23 28 -51.5 50t-60.5 36h115q59 -15 100 -57l64 17
l17 -56l-44 -12q42 -74 42 -173v-252zM272 314q-13 16 -28 23.5t-39 7.5q-28 0 -44.5 -12.5t-16.5 -45.5v-132q0 -34 17 -49t48 -15q29 0 46 13t17 45v165z" />
    <glyph glyph-name="ntilde" unicode="&#xf1;" horiz-adv-x="417" 
d="M274 0v341q0 33 -16.5 46t-45.5 13q-24 0 -39 -3t-26 -8v-389h-108v477q26 9 66.5 18.5t107.5 9.5q36 0 67 -7.5t53.5 -25.5t35.5 -48t13 -75v-349h-108zM50 593v73h317v-73h-317z" />
    <glyph glyph-name="ograve" unicode="&#xf2;" horiz-adv-x="404" 
d="M373 139q0 -45 -13 -75t-36.5 -48t-54.5 -25.5t-67 -7.5q-38 0 -69.5 7.5t-54 25.5t-35 48t-12.5 75v210q0 45 12.5 75t35 48t54 25.5t69.5 7.5q36 0 67 -7.5t54.5 -25.5t36.5 -48t13 -75v-210zM266 344q0 32 -17.5 44t-46.5 12t-46.5 -12t-17.5 -44v-200q0 -32 17.5 -44
t46.5 -12t46.5 12t17.5 44v200zM68 627v83l228 -119v-57z" />
    <glyph glyph-name="oacute" unicode="&#xf3;" horiz-adv-x="404" 
d="M373 139q0 -45 -13 -75t-36.5 -48t-54.5 -25.5t-67 -7.5q-38 0 -69.5 7.5t-54 25.5t-35 48t-12.5 75v210q0 45 12.5 75t35 48t54 25.5t69.5 7.5q36 0 67 -7.5t54.5 -25.5t36.5 -48t13 -75v-210zM266 344q0 32 -17.5 44t-46.5 12t-46.5 -12t-17.5 -44v-200q0 -32 17.5 -44
t46.5 -12t46.5 12t17.5 44v200zM108 534v57l228 119v-83z" />
    <glyph glyph-name="ocircumflex" unicode="&#xf4;" horiz-adv-x="404" 
d="M373 139q0 -45 -13 -75t-36.5 -48t-54.5 -25.5t-67 -7.5q-38 0 -69.5 7.5t-54 25.5t-35 48t-12.5 75v210q0 45 12.5 75t35 48t54 25.5t69.5 7.5q36 0 67 -7.5t54.5 -25.5t36.5 -48t13 -75v-210zM266 344q0 32 -17.5 44t-46.5 12t-46.5 -12t-17.5 -44v-200q0 -32 17.5 -44
t46.5 -12t46.5 12t17.5 44v200zM204 681l-141 -130l-37 41l135 144h85l134 -144l-37 -41z" />
    <glyph glyph-name="otilde" unicode="&#xf5;" horiz-adv-x="404" 
d="M373 139q0 -45 -13 -75t-36.5 -48t-54.5 -25.5t-67 -7.5q-38 0 -69.5 7.5t-54 25.5t-35 48t-12.5 75v210q0 45 12.5 75t35 48t54 25.5t69.5 7.5q36 0 67 -7.5t54.5 -25.5t36.5 -48t13 -75v-210zM266 344q0 32 -17.5 44t-46.5 12t-46.5 -12t-17.5 -44v-200q0 -32 17.5 -44
t46.5 -12t46.5 12t17.5 44v200zM45 593v73h317v-73h-317z" />
    <glyph glyph-name="odieresis" unicode="&#xf6;" horiz-adv-x="404" 
d="M373 139q0 -45 -13 -75t-36.5 -48t-54.5 -25.5t-67 -7.5q-38 0 -69.5 7.5t-54 25.5t-35 48t-12.5 75v210q0 45 12.5 75t35 48t54 25.5t69.5 7.5q36 0 67 -7.5t54.5 -25.5t36.5 -48t13 -75v-210zM266 344q0 32 -17.5 44t-46.5 12t-46.5 -12t-17.5 -44v-200q0 -32 17.5 -44
t46.5 -12t46.5 12t17.5 44v200zM55 554v133h104v-133h-104zM247 554v133h105v-133h-105z" />
    <glyph glyph-name="divide" unicode="&#xf7;" horiz-adv-x="556" 
d="M45 304v80h466v-80h-466zM219 454v151h117v-151h-117zM219 83v151h117v-151h-117z" />
    <glyph glyph-name="oslash" unicode="&#xf8;" horiz-adv-x="404" 
d="M31 -27l31 59q-31 37 -31 107v210q0 45 12.5 75t35 48t54 25.5t69.5 7.5q27 0 51.5 -4t44.5 -14l28 53l47 -21l-33 -63q16 -19 24.5 -45t8.5 -62v-210q0 -45 -13 -75t-36.5 -48t-54.5 -25.5t-67 -7.5q-29 0 -55 4.5t-46 14.5l-27 -51zM266 316l-113 -215q8 -8 20.5 -10.5
t28.5 -2.5q29 0 46.5 12t17.5 44v172zM247 389q-15 11 -45 11q-29 0 -46.5 -12t-17.5 -44v-166z" />
    <glyph glyph-name="ugrave" unicode="&#xf9;" horiz-adv-x="419" 
d="M270 492h107v-481q-25 -9 -66 -18.5t-108 -9.5q-36 0 -67 7.5t-53.5 25.5t-35 48t-12.5 75v353h108v-345q0 -33 16.5 -46t44.5 -13q23 0 39 3t27 8v393zM75 627v83l228 -119v-57z" />
    <glyph glyph-name="uacute" unicode="&#xfa;" horiz-adv-x="419" 
d="M270 492h107v-481q-25 -9 -66 -18.5t-108 -9.5q-36 0 -67 7.5t-53.5 25.5t-35 48t-12.5 75v353h108v-345q0 -33 16.5 -46t44.5 -13q23 0 39 3t27 8v393zM115 534v57l228 119v-83z" />
    <glyph glyph-name="ucircumflex" unicode="&#xfb;" horiz-adv-x="419" 
d="M270 492h107v-481q-25 -9 -66 -18.5t-108 -9.5q-36 0 -67 7.5t-53.5 25.5t-35 48t-12.5 75v353h108v-345q0 -33 16.5 -46t44.5 -13q23 0 39 3t27 8v393zM212 681l-141 -130l-37 41l135 144h85l134 -144l-37 -41z" />
    <glyph glyph-name="udieresis" unicode="&#xfc;" horiz-adv-x="419" 
d="M270 492h107v-481q-25 -9 -66 -18.5t-108 -9.5q-36 0 -67 7.5t-53.5 25.5t-35 48t-12.5 75v353h108v-345q0 -33 16.5 -46t44.5 -13q23 0 39 3t27 8v393zM62 554v133h104v-133h-104zM254 554v133h105v-133h-105z" />
    <glyph glyph-name="yacute" unicode="&#xfd;" horiz-adv-x="406" 
d="M265 17q-14 -8 -35 -14t-54 -6q-28 0 -54 6t-46.5 23t-32.5 47.5t-12 78.5v340h107v-333q0 -34 16 -46t44 -12q24 0 40 5.5t27 12.5v373h107v-587q0 -43 -13 -72t-36 -46.5t-54 -25t-68 -7.5q-34 0 -63 7.5t-50.5 25t-33.5 46.5t-12 72v39h100v-35q0 -29 16 -41t43 -12
q29 0 46.5 12t17.5 41v108zM109 534v57l228 119v-83z" />
    <glyph glyph-name="thorn" unicode="&#xfe;" horiz-adv-x="413" 
d="M39 -233v905h108v-188q14 8 35 14.5t54 6.5q28 0 54 -6t46.5 -23.5t33 -48t12.5 -78.5v-210q0 -48 -12.5 -78.5t-33 -48t-46.5 -23.5t-54 -6q-33 0 -54 6t-35 14v-236h-108zM274 337q0 35 -16 47t-44 12q-24 0 -40.5 -5.5t-26.5 -12.5v-268q10 -7 26.5 -12.5t40.5 -5.5
q28 0 44 12t16 46v187z" />
    <glyph glyph-name="ydieresis" unicode="&#xff;" horiz-adv-x="406" 
d="M265 17q-14 -8 -35 -14t-54 -6q-28 0 -54 6t-46.5 23t-32.5 47.5t-12 78.5v340h107v-333q0 -34 16 -46t44 -12q24 0 40 5.5t27 12.5v373h107v-587q0 -43 -13 -72t-36 -46.5t-54 -25t-68 -7.5q-34 0 -63 7.5t-50.5 25t-33.5 46.5t-12 72v39h100v-35q0 -29 16 -41t43 -12
q29 0 46.5 12t17.5 41v108zM56 554v133h104v-133h-104zM248 554v133h105v-133h-105z" />
    <glyph glyph-name="Amacron" unicode="&#x100;" 
d="M287 0v231h-139v-231h-115v426q0 55 15.5 95t41 69.5t59.5 50.5t70 39q35 -18 68.5 -39.5t60 -50.5t42.5 -69t16 -95v-426h-119zM287 434q0 26 -6 44.5t-15.5 31.5t-22 22t-25.5 17q-13 -8 -25.5 -17t-22.5 -22t-16 -31.5t-6 -44.5v-105h139v105zM61 765v73h317v-73h-317
z" />
    <glyph glyph-name="amacron" unicode="&#x101;" horiz-adv-x="410" 
d="M374 11q-23 -12 -59.5 -20t-103.5 -8q-42 0 -76.5 7.5t-59 24.5t-38 45t-13.5 69v39q0 40 13.5 65t35 39t49 19t55.5 5q31 0 53.5 -6t35.5 -13v63q0 29 -18 45t-51 16q-44 0 -77 -6.5t-70 -20.5v106q26 11 62 18t91 7q36 0 67.5 -7.5t54.5 -25.5t36 -48t13 -75v-338z
M266 209q-26 18 -65 18q-31 0 -47 -11.5t-16 -43.5v-31q0 -30 16 -43t51 -13q24 0 38 3t23 8v113zM47 593v73h317v-73h-317z" />
    <glyph glyph-name="Abreve" unicode="&#x102;" 
d="M287 0v231h-139v-231h-115v426q0 55 15.5 95t41 69.5t59.5 50.5t70 39q35 -18 68.5 -39.5t60 -50.5t42.5 -69t16 -95v-426h-119zM287 434q0 26 -6 44.5t-15.5 31.5t-22 22t-25.5 17q-13 -8 -25.5 -17t-22.5 -22t-16 -31.5t-6 -44.5v-105h139v105zM379 888
q0 -42 -13.5 -73t-35.5 -51.5t-50.5 -31t-59.5 -10.5q-30 0 -58.5 10.5t-50.5 31t-35.5 51.5t-13.5 73h66q2 -51 26 -76.5t66 -25.5t66.5 25.5t25.5 76.5h67z" />
    <glyph glyph-name="abreve" unicode="&#x103;" horiz-adv-x="410" 
d="M374 11q-23 -12 -59.5 -20t-103.5 -8q-42 0 -76.5 7.5t-59 24.5t-38 45t-13.5 69v39q0 40 13.5 65t35 39t49 19t55.5 5q31 0 53.5 -6t35.5 -13v63q0 29 -18 45t-51 16q-44 0 -77 -6.5t-70 -20.5v106q26 11 62 18t91 7q36 0 67.5 -7.5t54.5 -25.5t36 -48t13 -75v-338z
M266 209q-26 18 -65 18q-31 0 -47 -11.5t-16 -43.5v-31q0 -30 16 -43t51 -13q24 0 38 3t23 8v113zM365 716q0 -42 -13.5 -73t-35.5 -51.5t-50.5 -31t-59.5 -10.5q-30 0 -58.5 10.5t-50.5 31t-35.5 51.5t-13.5 73h66q2 -51 26 -76.5t66 -25.5t66.5 25.5t25.5 76.5h67z" />
    <glyph glyph-name="Aogonek" unicode="&#x104;" 
d="M406 -229q-5 -2 -17 -3t-35 -1q-41 0 -65.5 8.5t-38.5 22.5t-18.5 32.5t-4.5 38.5q0 42 17.5 67.5t62.5 43.5l51 20h-71v231h-139v-231h-115v426q0 55 15.5 95t41 69.5t59.5 50.5t70 39q35 -18 68.5 -39.5t60 -50.5t42.5 -69t16 -95v-426l-56 -27q-26 -13 -34 -27.5
t-8 -36.5t12.5 -34t44.5 -12q23 0 41 5v-97zM287 434q0 26 -6 44.5t-15.5 31.5t-22 22t-25.5 17q-13 -8 -25.5 -17t-22.5 -22t-16 -31.5t-6 -44.5v-105h139v105z" />
    <glyph glyph-name="aogonek" unicode="&#x105;" horiz-adv-x="410" 
d="M347 -229q-5 -2 -17 -3t-35 -1q-41 0 -65.5 8.5t-38.5 22.5t-18.5 32.5t-4.5 38.5q0 42 17.5 68t62.5 43l11 4q-11 -1 -22.5 -1h-25.5q-42 0 -76.5 7.5t-59 24.5t-38 45t-13.5 69v39q0 40 13.5 65t35 39t49 19t55.5 5q31 0 53.5 -6t35.5 -13v63q0 29 -18 45t-51 16
q-44 0 -77 -6.5t-70 -20.5v106q26 11 62 18t91 7q36 0 67.5 -7.5t54.5 -25.5t36 -48t13 -75v-338q-3 -3 -7.5 -5t-13 -6t-23.5 -10t-39 -17q-26 -12 -34 -27.5t-8 -36.5q0 -22 12.5 -34t44.5 -12q23 0 41 5v-97zM266 209q-26 18 -65 18q-31 0 -47 -11.5t-16 -43.5v-31
q0 -30 16 -43t51 -13q24 0 38 3t23 8v113z" />
    <glyph glyph-name="Cacute" unicode="&#x106;" horiz-adv-x="417" 
d="M281 276h105v-131q0 -47 -12.5 -78t-34.5 -49.5t-53.5 -26.5t-68.5 -8q-39 0 -72.5 8t-58 26.5t-39 49.5t-14.5 78v373q0 46 14.5 77.5t39 50t58 26.5t72.5 8q37 0 68.5 -8t53.5 -26.5t34.5 -50t12.5 -77.5v-139h-105v134q0 31 -13.5 46.5t-50.5 15.5t-52 -14.5
t-15 -47.5v-347q0 -19 2.5 -33.5t9.5 -24t20 -14.5t35 -5q37 0 50.5 14.5t13.5 45.5v127zM114 706v57l228 119v-83z" />
    <glyph glyph-name="cacute" unicode="&#x107;" horiz-adv-x="396" 
d="M368 139q0 -45 -12.5 -75t-35 -48t-53 -25.5t-66.5 -7.5q-38 0 -69 7.5t-53.5 25.5t-35 48t-12.5 75v210q0 45 12.5 75t35 48t53.5 25.5t69 7.5q36 0 66.5 -7.5t53 -25.5t35 -48t12.5 -75v-63h-104v58q0 32 -17 44t-46 12t-46 -12t-17 -44v-200q0 -32 17 -44t46 -12
t46 12t17 44v62h104v-67zM104 534v57l228 119v-83z" />
    <glyph glyph-name="Ccircumflex" unicode="&#x108;" horiz-adv-x="417" 
d="M281 276h105v-131q0 -47 -12.5 -78t-34.5 -49.5t-53.5 -26.5t-68.5 -8q-39 0 -72.5 8t-58 26.5t-39 49.5t-14.5 78v373q0 46 14.5 77.5t39 50t58 26.5t72.5 8q37 0 68.5 -8t53.5 -26.5t34.5 -50t12.5 -77.5v-139h-105v134q0 31 -13.5 46.5t-50.5 15.5t-52 -14.5
t-15 -47.5v-347q0 -19 2.5 -33.5t9.5 -24t20 -14.5t35 -5q37 0 50.5 14.5t13.5 45.5v127zM211 853l-141 -130l-37 41l135 144h85l134 -144l-37 -41z" />
    <glyph glyph-name="ccircumflex" unicode="&#x109;" horiz-adv-x="396" 
d="M368 139q0 -45 -12.5 -75t-35 -48t-53 -25.5t-66.5 -7.5q-38 0 -69 7.5t-53.5 25.5t-35 48t-12.5 75v210q0 45 12.5 75t35 48t53.5 25.5t69 7.5q36 0 66.5 -7.5t53 -25.5t35 -48t12.5 -75v-63h-104v58q0 32 -17 44t-46 12t-46 -12t-17 -44v-200q0 -32 17 -44t46 -12
t46 12t17 44v62h104v-67zM200 681l-141 -130l-37 41l135 144h85l134 -144l-37 -41z" />
    <glyph glyph-name="Cdotaccent" unicode="&#x10a;" horiz-adv-x="417" 
d="M281 276h105v-131q0 -47 -12.5 -78t-34.5 -49.5t-53.5 -26.5t-68.5 -8q-39 0 -72.5 8t-58 26.5t-39 49.5t-14.5 78v373q0 46 14.5 77.5t39 50t58 26.5t72.5 8q37 0 68.5 -8t53.5 -26.5t34.5 -50t12.5 -77.5v-139h-105v134q0 31 -13.5 46.5t-50.5 15.5t-52 -14.5
t-15 -47.5v-347q0 -19 2.5 -33.5t9.5 -24t20 -14.5t35 -5q37 0 50.5 14.5t13.5 45.5v127zM159 726v133h104v-133h-104z" />
    <glyph glyph-name="cdotaccent" unicode="&#x10b;" horiz-adv-x="396" 
d="M368 139q0 -45 -12.5 -75t-35 -48t-53 -25.5t-66.5 -7.5q-38 0 -69 7.5t-53.5 25.5t-35 48t-12.5 75v210q0 45 12.5 75t35 48t53.5 25.5t69 7.5q36 0 66.5 -7.5t53 -25.5t35 -48t12.5 -75v-63h-104v58q0 32 -17 44t-46 12t-46 -12t-17 -44v-200q0 -32 17 -44t46 -12
t46 12t17 44v62h104v-67zM146 554v133h104v-133h-104z" />
    <glyph glyph-name="Ccaron" unicode="&#x10c;" horiz-adv-x="417" 
d="M281 276h105v-131q0 -47 -12.5 -78t-34.5 -49.5t-53.5 -26.5t-68.5 -8q-39 0 -72.5 8t-58 26.5t-39 49.5t-14.5 78v373q0 46 14.5 77.5t39 50t58 26.5t72.5 8q37 0 68.5 -8t53.5 -26.5t34.5 -50t12.5 -77.5v-139h-105v134q0 31 -13.5 46.5t-50.5 15.5t-52 -14.5
t-15 -47.5v-347q0 -19 2.5 -33.5t9.5 -24t20 -14.5t35 -5q37 0 50.5 14.5t13.5 45.5v127zM209 703l-177 153l34 42l143 -117l145 117l33 -42z" />
    <glyph glyph-name="ccaron" unicode="&#x10d;" horiz-adv-x="396" 
d="M368 139q0 -45 -12.5 -75t-35 -48t-53 -25.5t-66.5 -7.5q-38 0 -69 7.5t-53.5 25.5t-35 48t-12.5 75v210q0 45 12.5 75t35 48t53.5 25.5t69 7.5q36 0 66.5 -7.5t53 -25.5t35 -48t12.5 -75v-63h-104v58q0 32 -17 44t-46 12t-46 -12t-17 -44v-200q0 -32 17 -44t46 -12
t46 12t17 44v62h104v-67zM199 531l-177 153l34 42l143 -117l145 117l33 -42z" />
    <glyph glyph-name="Dcaron" unicode="&#x10e;" horiz-adv-x="445" 
d="M39 0v664h187q37 0 71 -9t59.5 -31.5t40.5 -60t15 -95.5v-279q0 -52 -15 -88t-40.5 -58.5t-59.5 -32.5t-71 -10h-187zM295 484q0 46 -17.5 63.5t-51.5 17.5h-70v-463h70q34 0 51.5 17.5t17.5 62.5v302zM213 703l-177 153l34 42l143 -117l145 117l33 -42z" />
    <glyph glyph-name="dcaron" unicode="&#x10f;" horiz-adv-x="552" 
d="M31 349q0 48 12 78.5t32.5 48t46.5 23.5t54 6q33 0 54.5 -6.5t35.5 -14.5v188h107v-661q-26 -9 -66.5 -18.5t-107.5 -9.5q-36 0 -67 7.5t-53.5 25.5t-35 48t-12.5 75v210zM266 382q-11 7 -27 12.5t-41 5.5q-28 0 -44 -12t-16 -47v-194q0 -33 17 -46t45 -13q24 0 39.5 3
t26.5 8v283zM421 672h117v-135q0 -32 -8.5 -60t-24 -49t-37 -34t-47.5 -14v292z" />
    <glyph glyph-name="Dcroat" unicode="&#x110;" horiz-adv-x="447" 
d="M41 0v298h-26v99h26v267h187q37 0 71 -9t59.5 -31.5t40.5 -60t15 -95.5v-279q0 -52 -15 -88t-40.5 -58.5t-59.5 -32.5t-71 -10h-187zM297 484q0 46 -17.5 63.5t-51.5 17.5h-70v-168h74v-99h-74v-196h70q34 0 51.5 17.5t17.5 62.5v302z" />
    <glyph glyph-name="dcroat" unicode="&#x111;" horiz-adv-x="413" 
d="M373 543v-532q-26 -9 -66.5 -18.5t-107.5 -9.5q-36 0 -67 7.5t-53.5 25.5t-35 48t-12.5 75v210q0 48 12 78.5t32.5 48t46.5 23.5t54 6q33 0 54.5 -6.5t35.5 -14.5v59h-170v73h170v56h107v-56h40v-73h-40zM266 382q-11 7 -27 12.5t-41 5.5q-28 0 -44 -12t-16 -47v-194
q0 -33 17 -46t45 -13q24 0 39.5 3t26.5 8v283z" />
    <glyph glyph-name="Emacron" unicode="&#x112;" horiz-adv-x="333" 
d="M39 0v664h262v-99h-145v-168h132v-99h-132v-196h151v-102h-268zM9 765v73h317v-73h-317z" />
    <glyph glyph-name="emacron" unicode="&#x113;" horiz-adv-x="404" 
d="M367 8q-25 -10 -67 -17.5t-99 -7.5q-36 0 -67 7.5t-54 25.5t-36 48t-13 75v210q0 45 12.5 75t35 48t53.5 25.5t69 7.5q36 0 67 -7.5t54.5 -25.5t36.5 -48t13 -75v-142h-234v-58q0 -38 22 -47.5t60 -9.5q50 0 82.5 6.5t64.5 17.5v-108zM265 342q0 29 -14 44.5t-50 15.5
q-38 0 -50.5 -17t-12.5 -48v-56h127v61zM45 593v73h317v-73h-317z" />
    <glyph glyph-name="Ebreve" unicode="&#x114;" horiz-adv-x="333" 
d="M39 0v664h262v-99h-145v-168h132v-99h-132v-196h151v-102h-268zM326 888q0 -42 -13.5 -73t-35.5 -51.5t-50.5 -31t-59.5 -10.5q-30 0 -58.5 10.5t-50.5 31t-35.5 51.5t-13.5 73h66q2 -51 26 -76.5t66 -25.5t66.5 25.5t25.5 76.5h67z" />
    <glyph glyph-name="ebreve" unicode="&#x115;" horiz-adv-x="404" 
d="M367 8q-25 -10 -67 -17.5t-99 -7.5q-36 0 -67 7.5t-54 25.5t-36 48t-13 75v210q0 45 12.5 75t35 48t53.5 25.5t69 7.5q36 0 67 -7.5t54.5 -25.5t36.5 -48t13 -75v-142h-234v-58q0 -38 22 -47.5t60 -9.5q50 0 82.5 6.5t64.5 17.5v-108zM265 342q0 29 -14 44.5t-50 15.5
q-38 0 -50.5 -17t-12.5 -48v-56h127v61zM362 716q0 -42 -13.5 -73t-35.5 -51.5t-50.5 -31t-59.5 -10.5q-30 0 -58.5 10.5t-50.5 31t-35.5 51.5t-13.5 73h66q2 -51 26 -76.5t66 -25.5t66.5 25.5t25.5 76.5h67z" />
    <glyph glyph-name="Edotaccent" unicode="&#x116;" horiz-adv-x="333" 
d="M39 0v664h262v-99h-145v-168h132v-99h-132v-196h151v-102h-268zM114 726v133h104v-133h-104z" />
    <glyph glyph-name="edotaccent" unicode="&#x117;" horiz-adv-x="404" 
d="M367 8q-25 -10 -67 -17.5t-99 -7.5q-36 0 -67 7.5t-54 25.5t-36 48t-13 75v210q0 45 12.5 75t35 48t53.5 25.5t69 7.5q36 0 67 -7.5t54.5 -25.5t36.5 -48t13 -75v-142h-234v-58q0 -38 22 -47.5t60 -9.5q50 0 82.5 6.5t64.5 17.5v-108zM265 342q0 29 -14 44.5t-50 15.5
q-38 0 -50.5 -17t-12.5 -48v-56h127v61zM150 554v133h104v-133h-104z" />
    <glyph glyph-name="Eogonek" unicode="&#x118;" horiz-adv-x="333" 
d="M307 -229q-5 -2 -17 -3t-35 -1q-41 0 -65.5 8.5t-38.5 22.5t-18.5 32.5t-4.5 38.5q0 42 17.5 67.5t62.5 43.5l51 20h-220v664h262v-99h-145v-168h132v-99h-132v-196h151v-102l-56 -27q-26 -13 -34 -27.5t-8 -36.5t12.5 -34t44.5 -12q23 0 41 5v-97z" />
    <glyph glyph-name="eogonek" unicode="&#x119;" horiz-adv-x="404" 
d="M342 -229q-5 -2 -17 -3t-35 -1q-41 0 -65.5 8.5t-38.5 22.5t-18.5 32.5t-4.5 38.5q0 42 17.5 68t62.5 43l13 6q-26 -3 -55 -3q-36 0 -67 7.5t-54 25.5t-36 48t-13 75v210q0 45 12.5 75t35 48t53.5 25.5t69 7.5q36 0 67 -7.5t54.5 -25.5t36.5 -48t13 -75v-142h-234v-58
q0 -38 22 -47.5t60 -9.5q50 0 82.5 6.5t64.5 17.5v-108q-3 -1 -7 -2.5t-12 -5t-23 -10t-39 -17.5q-26 -13 -34 -28t-8 -36q0 -22 12.5 -34t44.5 -12q23 0 41 5v-97zM265 342q0 29 -14 44.5t-50 15.5q-38 0 -50.5 -17t-12.5 -48v-56h127v61z" />
    <glyph glyph-name="Ecaron" unicode="&#x11a;" horiz-adv-x="333" 
d="M39 0v664h262v-99h-145v-168h132v-99h-132v-196h151v-102h-268zM167 703l-177 153l34 42l143 -117l145 117l33 -42z" />
    <glyph glyph-name="ecaron" unicode="&#x11b;" horiz-adv-x="404" 
d="M367 8q-25 -10 -67 -17.5t-99 -7.5q-36 0 -67 7.5t-54 25.5t-36 48t-13 75v210q0 45 12.5 75t35 48t53.5 25.5t69 7.5q36 0 67 -7.5t54.5 -25.5t36.5 -48t13 -75v-142h-234v-58q0 -38 22 -47.5t60 -9.5q50 0 82.5 6.5t64.5 17.5v-108zM265 342q0 29 -14 44.5t-50 15.5
q-38 0 -50.5 -17t-12.5 -48v-56h127v61zM203 531l-177 153l34 42l143 -117l145 117l33 -42z" />
    <glyph glyph-name="Gcircumflex" unicode="&#x11c;" horiz-adv-x="431" 
d="M286 340h109v-328q-26 -10 -67 -19.5t-112 -9.5q-38 0 -71 7.5t-58 26.5t-39.5 49.5t-14.5 77.5v374q0 46 14.5 77.5t39.5 50t58.5 26.5t71.5 8t69 -8t53.5 -26.5t34.5 -50t12 -77.5v-92h-105v88q0 33 -13.5 48t-50.5 15t-51.5 -15t-14.5 -48v-364q0 -34 18.5 -47
t49.5 -13q24 0 39.5 3t27.5 8v239zM218 853l-141 -130l-37 41l135 144h85l134 -144l-37 -41z" />
    <glyph glyph-name="gcircumflex" unicode="&#x11d;" horiz-adv-x="406" 
d="M266 17q-14 -8 -35.5 -14.5t-54.5 -6.5q-28 0 -54 6t-46.5 23.5t-32.5 48t-12 78.5v197q0 45 13 75t36 48t54 25.5t67 7.5q38 0 69.5 -7.5t54.5 -25.5t35.5 -48t12.5 -75v-444q0 -43 -13 -72t-36 -46.5t-54 -25t-68 -7.5q-35 0 -64 7.5t-50.5 25t-33.5 46.5t-12 72v39
h101v-36q0 -29 16 -40.5t43 -11.5q29 0 46.5 11.5t17.5 40.5v109zM266 344q0 32 -17.5 44t-46.5 12t-46.5 -12t-17.5 -44v-184q0 -34 16 -46t44 -12q25 0 41 5t27 13v224zM205 681l-141 -130l-37 41l135 144h85l134 -144l-37 -41z" />
    <glyph glyph-name="Gbreve" unicode="&#x11e;" horiz-adv-x="431" 
d="M286 340h109v-328q-26 -10 -67 -19.5t-112 -9.5q-38 0 -71 7.5t-58 26.5t-39.5 49.5t-14.5 77.5v374q0 46 14.5 77.5t39.5 50t58.5 26.5t71.5 8t69 -8t53.5 -26.5t34.5 -50t12 -77.5v-92h-105v88q0 33 -13.5 48t-50.5 15t-51.5 -15t-14.5 -48v-364q0 -34 18.5 -47
t49.5 -13q24 0 39.5 3t27.5 8v239zM375 888q0 -42 -13.5 -73t-35.5 -51.5t-50.5 -31t-59.5 -10.5q-30 0 -58.5 10.5t-50.5 31t-35.5 51.5t-13.5 73h66q2 -51 26 -76.5t66 -25.5t66.5 25.5t25.5 76.5h67z" />
    <glyph glyph-name="gbreve" unicode="&#x11f;" horiz-adv-x="406" 
d="M266 17q-14 -8 -35.5 -14.5t-54.5 -6.5q-28 0 -54 6t-46.5 23.5t-32.5 48t-12 78.5v197q0 45 13 75t36 48t54 25.5t67 7.5q38 0 69.5 -7.5t54.5 -25.5t35.5 -48t12.5 -75v-444q0 -43 -13 -72t-36 -46.5t-54 -25t-68 -7.5q-35 0 -64 7.5t-50.5 25t-33.5 46.5t-12 72v39
h101v-36q0 -29 16 -40.5t43 -11.5q29 0 46.5 11.5t17.5 40.5v109zM266 344q0 32 -17.5 44t-46.5 12t-46.5 -12t-17.5 -44v-184q0 -34 16 -46t44 -12q25 0 41 5t27 13v224zM363 716q0 -42 -13.5 -73t-35.5 -51.5t-50.5 -31t-59.5 -10.5q-30 0 -58.5 10.5t-50.5 31t-35.5 51.5
t-13.5 73h66q2 -51 26 -76.5t66 -25.5t66.5 25.5t25.5 76.5h67z" />
    <glyph glyph-name="Gdotaccent" unicode="&#x120;" horiz-adv-x="431" 
d="M286 340h109v-328q-26 -10 -67 -19.5t-112 -9.5q-38 0 -71 7.5t-58 26.5t-39.5 49.5t-14.5 77.5v374q0 46 14.5 77.5t39.5 50t58.5 26.5t71.5 8t69 -8t53.5 -26.5t34.5 -50t12 -77.5v-92h-105v88q0 33 -13.5 48t-50.5 15t-51.5 -15t-14.5 -48v-364q0 -34 18.5 -47
t49.5 -13q24 0 39.5 3t27.5 8v239zM163 726v133h104v-133h-104z" />
    <glyph glyph-name="gdotaccent" unicode="&#x121;" horiz-adv-x="406" 
d="M266 17q-14 -8 -35.5 -14.5t-54.5 -6.5q-28 0 -54 6t-46.5 23.5t-32.5 48t-12 78.5v197q0 45 13 75t36 48t54 25.5t67 7.5q38 0 69.5 -7.5t54.5 -25.5t35.5 -48t12.5 -75v-444q0 -43 -13 -72t-36 -46.5t-54 -25t-68 -7.5q-35 0 -64 7.5t-50.5 25t-33.5 46.5t-12 72v39
h101v-36q0 -29 16 -40.5t43 -11.5q29 0 46.5 11.5t17.5 40.5v109zM266 344q0 32 -17.5 44t-46.5 12t-46.5 -12t-17.5 -44v-184q0 -34 16 -46t44 -12q25 0 41 5t27 13v224zM151 554v133h104v-133h-104z" />
    <glyph glyph-name="uni0122" unicode="&#x122;" horiz-adv-x="431" 
d="M286 340h109v-328q-26 -10 -67 -19.5t-112 -9.5q-38 0 -71 7.5t-58 26.5t-39.5 49.5t-14.5 77.5v374q0 46 14.5 77.5t39.5 50t58.5 26.5t71.5 8t69 -8t53.5 -26.5t34.5 -50t12 -77.5v-92h-105v88q0 33 -13.5 48t-50.5 15t-51.5 -15t-14.5 -48v-364q0 -34 18.5 -47
t49.5 -13q24 0 39.5 3t27.5 8v239zM160 -34h111v-52q0 -32 -8 -60t-22.5 -49t-35 -34t-45.5 -14v209z" />
    <glyph glyph-name="uni0123" unicode="&#x123;" horiz-adv-x="406" 
d="M266 17q-14 -8 -35.5 -14.5t-54.5 -6.5q-28 0 -54 6t-46.5 23.5t-32.5 48t-12 78.5v197q0 45 13 75t36 48t54 25.5t67 7.5q38 0 69.5 -7.5t54.5 -25.5t35.5 -48t12.5 -75v-444q0 -43 -13 -72t-36 -46.5t-54 -25t-68 -7.5q-35 0 -64 7.5t-50.5 25t-33.5 46.5t-12 72v39
h101v-36q0 -29 16 -40.5t43 -11.5q29 0 46.5 11.5t17.5 40.5v109zM266 344q0 32 -17.5 44t-46.5 12t-46.5 -12t-17.5 -44v-184q0 -34 16 -46t44 -12q25 0 41 5t27 13v224zM258.004 538.998h-110.994v51.9971q0 31.998 8 59.9961t22.499 48.9971
q14.499 20.998 34.9971 33.998q20.499 12.999 45.498 13.999v-208.987z" />
    <glyph glyph-name="Hcircumflex" unicode="&#x124;" horiz-adv-x="452" 
d="M295 0v287h-139v-287h-117v664h117v-279h139v279h117v-664h-117zM228 853l-141 -130l-37 41l135 144h85l134 -144l-37 -41z" />
    <glyph glyph-name="hcircumflex" unicode="&#x125;" horiz-adv-x="417" 
d="M274 0v341q0 35 -16 47t-44 12q-24 0 -40.5 -5.5t-26.5 -12.5v-382h-108v672h108v-188q14 8 35 14.5t54 6.5q28 0 54 -6t46.5 -23.5t33 -48t12.5 -78.5v-349h-108zM218 853l-141 -130l-37 41l135 144h85l134 -144l-37 -41z" />
    <glyph glyph-name="Hbar" unicode="&#x126;" horiz-adv-x="452" 
d="M295 0v287h-139v-287h-117v664h117v-106h139v106h117v-664h-117zM295 385v100h-139v-100h139z" />
    <glyph glyph-name="hbar" unicode="&#x127;" horiz-adv-x="417" 
d="M147 543v-59q14 8 35 14.5t54 6.5q28 0 54 -6t46.5 -23.5t33 -48t12.5 -78.5v-349h-108v341q0 35 -16 47t-44 12q-24 0 -40.5 -5.5t-26.5 -12.5v-382h-108v543h-39v73h39v56h108v-56h170v-73h-170z" />
    <glyph glyph-name="Itilde" unicode="&#x128;" horiz-adv-x="195" 
d="M39 0v664h117v-664h-117zM-60 765v73h317v-73h-317z" />
    <glyph glyph-name="itilde" unicode="&#x129;" horiz-adv-x="193" 
d="M42 0v492h108v-492h-108zM-61 593v73h317v-73h-317z" />
    <glyph glyph-name="Imacron" unicode="&#x12a;" horiz-adv-x="195" 
d="M39 0v664h117v-664h-117zM-60 765v73h317v-73h-317z" />
    <glyph glyph-name="imacron" unicode="&#x12b;" horiz-adv-x="193" 
d="M42 0v492h108v-492h-108zM-61 593v73h317v-73h-317z" />
    <glyph glyph-name="Ibreve" unicode="&#x12c;" horiz-adv-x="195" 
d="M39 0v664h117v-664h-117zM257 888q0 -42 -13.5 -73t-35.5 -51.5t-50.5 -31t-59.5 -10.5q-30 0 -58.5 10.5t-50.5 31t-35.5 51.5t-13.5 73h66q2 -51 26 -76.5t66 -25.5t66.5 25.5t25.5 76.5h67z" />
    <glyph glyph-name="ibreve" unicode="&#x12d;" horiz-adv-x="193" 
d="M42 0v492h108v-492h-108zM256 716q0 -42 -13.5 -73t-35.5 -51.5t-50.5 -31t-59.5 -10.5q-30 0 -58.5 10.5t-50.5 31t-35.5 51.5t-13.5 73h66q2 -51 26 -76.5t66 -25.5t66.5 25.5t25.5 76.5h67z" />
    <glyph glyph-name="Iogonek" unicode="&#x12e;" horiz-adv-x="195" 
d="M156 -229q-5 -2 -17 -3t-35 -1q-41 0 -65.5 8.5t-38.5 22.5t-18.5 32.5t-4.5 38.5q0 42 17.5 67.5t62.5 43.5l51 20h-69v664h117v-664l-56 -27q-26 -13 -34 -27.5t-8 -36.5t12.5 -34t44.5 -12q23 0 41 5v-97z" />
    <glyph glyph-name="iogonek" unicode="&#x12f;" horiz-adv-x="193" 
d="M150 -229q-5 -2 -17 -3t-35 -1q-41 0 -65.5 8.5t-38.5 22.5t-18.5 32.5t-4.5 38.5q0 42 17.5 67.5t62.5 43.5l51 20h-60v492h108v-492l-56 -27q-26 -13 -34 -27.5t-8 -36.5t12.5 -34t44.5 -12q23 0 41 5v-97zM42 551v121h109v-121h-109z" />
    <glyph glyph-name="Idotaccent" unicode="&#x130;" horiz-adv-x="195" 
d="M39 0v664h117v-664h-117zM47 726v133h104v-133h-104z" />
    <glyph glyph-name="dotlessi" unicode="&#x131;" horiz-adv-x="193" 
d="M42 0v492h108v-492h-108z" />
    <glyph glyph-name="IJ" unicode="&#x132;" horiz-adv-x="465" 
d="M39 0v664h117v-664h-117zM220 90q8 -4 22 -4q32 0 50 14t18 46v518h118v-525q0 -47 -14.5 -77.5t-39.5 -49.5t-58.5 -26.5t-70.5 -7.5q-7 0 -13.5 0.5t-11.5 1.5v110z" />
    <glyph glyph-name="ij" unicode="&#x133;" horiz-adv-x="418" 
d="M42 0v492h108v-492h-108zM42 551v121h109v-121h-109zM197 -132q9 -3 21 -3q23 0 37 12t14 39v576h106v-586q0 -41 -12.5 -67.5t-33.5 -42.5t-49.5 -22.5t-60.5 -6.5q-7 0 -12 0.5t-10 1.5v99zM268 551v121h108v-121h-108z" />
    <glyph glyph-name="Jcircumflex" unicode="&#x134;" horiz-adv-x="270" 
d="M25 90q8 -4 22 -4q32 0 50 14t18 46v518h118v-525q0 -47 -14.5 -77.5t-39.5 -49.5t-58.5 -26.5t-70.5 -7.5q-7 0 -13.5 0.5t-11.5 1.5v110zM117 853l-141 -130l-37 41l135 144h85l134 -144l-37 -41z" />
    <glyph glyph-name="jcircumflex" unicode="&#x135;" horiz-adv-x="225" 
d="M4 -132q9 -3 21 -3q23 0 37 12t14 39v576h106v-586q0 -41 -12.5 -67.5t-33.5 -42.5t-49.5 -22.5t-60.5 -6.5q-7 0 -12 0.5t-10 1.5v99zM95 681l-141 -130l-37 41l135 144h85l134 -144l-37 -41z" />
    <glyph glyph-name="uni0136" unicode="&#x136;" horiz-adv-x="452" 
d="M310 0l-156 334v-334h-115v664h115v-289l149 289h126l-169 -295l182 -369h-132zM171 -34h111v-52q0 -32 -8 -60t-22.5 -49t-35 -34t-45.5 -14v209z" />
    <glyph glyph-name="uni0137" unicode="&#x137;" horiz-adv-x="425" 
d="M286 0l-139 250v-250h-108v672h108v-388l127 208h126l-147 -215l161 -277h-128zM157 -34h111v-52q0 -32 -8 -60t-22.5 -49t-35 -34t-45.5 -14v209z" />
    <glyph glyph-name="Lacute" unicode="&#x139;" horiz-adv-x="327" 
d="M39 0v664h117v-562h149v-102h-266zM7 706v57l228 119v-83z" />
    <glyph glyph-name="lacute" unicode="&#x13a;" horiz-adv-x="186" 
d="M39 0v672h108v-672h-108zM0 706v57l228 119v-83z" />
    <glyph glyph-name="uni013B" unicode="&#x13b;" horiz-adv-x="327" 
d="M39 0v664h117v-562h149v-102h-266zM118 -34h111v-52q0 -32 -8 -60t-22.5 -49t-35 -34t-45.5 -14v209z" />
    <glyph glyph-name="uni013C" unicode="&#x13c;" horiz-adv-x="186" 
d="M39 0v672h108v-672h-108zM39 -34h111v-52q0 -32 -8 -60t-22.5 -49t-35 -34t-45.5 -14v209z" />
    <glyph glyph-name="Lcaron" unicode="&#x13d;" horiz-adv-x="327" 
d="M39 0v664h117v-562h149v-102h-266zM202 806h117v-135q0 -32 -8.5 -60t-24 -49t-37 -34t-47.5 -14v292z" />
    <glyph glyph-name="lcaron" unicode="&#x13e;" horiz-adv-x="304" 
d="M39 0v672h108v-672h-108zM187 673h117v-135q0 -32 -8.5 -60t-24 -49t-37 -34t-47.5 -14v292z" />
    <glyph glyph-name="Ldot" unicode="&#x13f;" horiz-adv-x="327" 
d="M39 0v664h117v-562h149v-102h-266zM187 297v133h104v-133h-104z" />
    <glyph glyph-name="ldot" unicode="&#x140;" horiz-adv-x="290" 
d="M39 0v672h108v-672h-108zM186 279v133h104v-133h-104z" />
    <glyph glyph-name="Lslash" unicode="&#x141;" horiz-adv-x="327" 
d="M39 0v664h117v-298l123 67v-76l-123 -67v-188h149v-102h-266z" />
    <glyph glyph-name="lslash" unicode="&#x142;" horiz-adv-x="199" 
d="M45 0v269l-48 -28v76l48 29v326h108v-264l49 30v-78l-49 -30v-330h-108z" />
    <glyph glyph-name="Nacute" unicode="&#x143;" horiz-adv-x="448" 
d="M295 0v515q0 34 -19 47t-49 13q-25 0 -42 -3t-29 -8v-564h-117v651q26 9 72 19t118 10q37 0 70.5 -7.5t58.5 -26.5t39.5 -50t14.5 -77v-519h-117zM130 706v57l228 119v-83z" />
    <glyph glyph-name="nacute" unicode="&#x144;" horiz-adv-x="417" 
d="M274 0v341q0 33 -16.5 46t-45.5 13q-24 0 -39 -3t-26 -8v-389h-108v477q26 9 66.5 18.5t107.5 9.5q36 0 67 -7.5t53.5 -25.5t35.5 -48t13 -75v-349h-108zM114 534v57l228 119v-83z" />
    <glyph glyph-name="uni0145" unicode="&#x145;" horiz-adv-x="448" 
d="M295 0v515q0 34 -19 47t-49 13q-25 0 -42 -3t-29 -8v-564h-117v651q26 9 72 19t118 10q37 0 70.5 -7.5t58.5 -26.5t39.5 -50t14.5 -77v-519h-117zM169 -34h111v-52q0 -32 -8 -60t-22.5 -49t-35 -34t-45.5 -14v209z" />
    <glyph glyph-name="uni0146" unicode="&#x146;" horiz-adv-x="417" 
d="M274 0v341q0 33 -16.5 46t-45.5 13q-24 0 -39 -3t-26 -8v-389h-108v477q26 9 66.5 18.5t107.5 9.5q36 0 67 -7.5t53.5 -25.5t35.5 -48t13 -75v-349h-108zM153 -34h111v-52q0 -32 -8 -60t-22.5 -49t-35 -34t-45.5 -14v209z" />
    <glyph glyph-name="Ncaron" unicode="&#x147;" horiz-adv-x="448" 
d="M295 0v515q0 34 -19 47t-49 13q-25 0 -42 -3t-29 -8v-564h-117v651q26 9 72 19t118 10q37 0 70.5 -7.5t58.5 -26.5t39.5 -50t14.5 -77v-519h-117zM225 703l-177 153l34 42l143 -117l145 117l33 -42z" />
    <glyph glyph-name="ncaron" unicode="&#x148;" horiz-adv-x="417" 
d="M274 0v341q0 33 -16.5 46t-45.5 13q-24 0 -39 -3t-26 -8v-389h-108v477q26 9 66.5 18.5t107.5 9.5q36 0 67 -7.5t53.5 -25.5t35.5 -48t13 -75v-349h-108zM209 531l-177 153l34 42l143 -117l145 117l33 -42z" />
    <glyph glyph-name="Eng" unicode="&#x14a;" horiz-adv-x="448" 
d="M223 -142q9 -3 21 -3q23 0 37 12t14 39v609q0 34 -19 47t-49 13q-25 0 -42 -3t-29 -8v-564h-117v651q26 9 72 19t118 10q37 0 70.5 -7.5t58.5 -26.5t39.5 -50t14.5 -77v-623q0 -41 -14 -67.5t-37.5 -42.5t-53.5 -22.5t-62 -6.5q-7 0 -12 0.5t-10 1.5v99z" />
    <glyph glyph-name="eng" unicode="&#x14b;" horiz-adv-x="417" 
d="M204 -142q9 -3 21 -3q23 0 36 12t13 39v435q0 33 -16.5 46t-45.5 13q-24 0 -39 -3t-26 -8v-389h-108v477q26 9 66.5 18.5t107.5 9.5q36 0 67 -7.5t53.5 -25.5t35.5 -48t13 -75v-453q0 -41 -12.5 -67.5t-33.5 -42.5t-49.5 -22.5t-60.5 -6.5q-7 0 -12 0.5t-10 1.5v99z" />
    <glyph glyph-name="Omacron" unicode="&#x14c;" 
d="M33 518q0 46 14.5 77.5t40 50t59 26.5t72.5 8q37 0 71 -8t59.5 -26.5t40.5 -50t15 -77.5v-373q0 -47 -15 -78t-40.5 -49.5t-59.5 -26.5t-71 -8q-39 0 -72.5 8t-59 26.5t-40 49.5t-14.5 78v373zM287 512q0 38 -15.5 50t-52.5 12q-35 0 -52 -13t-17 -49v-362
q0 -35 16 -47.5t53 -12.5t52.5 12.5t15.5 47.5v362zM61 765v73h317v-73h-317z" />
    <glyph glyph-name="omacron" unicode="&#x14d;" horiz-adv-x="404" 
d="M373 139q0 -45 -13 -75t-36.5 -48t-54.5 -25.5t-67 -7.5q-38 0 -69.5 7.5t-54 25.5t-35 48t-12.5 75v210q0 45 12.5 75t35 48t54 25.5t69.5 7.5q36 0 67 -7.5t54.5 -25.5t36.5 -48t13 -75v-210zM266 344q0 32 -17.5 44t-46.5 12t-46.5 -12t-17.5 -44v-200q0 -32 17.5 -44
t46.5 -12t46.5 12t17.5 44v200zM45 593v73h317v-73h-317z" />
    <glyph glyph-name="Obreve" unicode="&#x14e;" 
d="M33 518q0 46 14.5 77.5t40 50t59 26.5t72.5 8q37 0 71 -8t59.5 -26.5t40.5 -50t15 -77.5v-373q0 -47 -15 -78t-40.5 -49.5t-59.5 -26.5t-71 -8q-39 0 -72.5 8t-59 26.5t-40 49.5t-14.5 78v373zM287 512q0 38 -15.5 50t-52.5 12q-35 0 -52 -13t-17 -49v-362
q0 -35 16 -47.5t53 -12.5t52.5 12.5t15.5 47.5v362zM379 888q0 -42 -13.5 -73t-35.5 -51.5t-50.5 -31t-59.5 -10.5q-30 0 -58.5 10.5t-50.5 31t-35.5 51.5t-13.5 73h66q2 -51 26 -76.5t66 -25.5t66.5 25.5t25.5 76.5h67z" />
    <glyph glyph-name="obreve" unicode="&#x14f;" horiz-adv-x="404" 
d="M373 139q0 -45 -13 -75t-36.5 -48t-54.5 -25.5t-67 -7.5q-38 0 -69.5 7.5t-54 25.5t-35 48t-12.5 75v210q0 45 12.5 75t35 48t54 25.5t69.5 7.5q36 0 67 -7.5t54.5 -25.5t36.5 -48t13 -75v-210zM266 344q0 32 -17.5 44t-46.5 12t-46.5 -12t-17.5 -44v-200q0 -32 17.5 -44
t46.5 -12t46.5 12t17.5 44v200zM362 716q0 -42 -13.5 -73t-35.5 -51.5t-50.5 -31t-59.5 -10.5q-30 0 -58.5 10.5t-50.5 31t-35.5 51.5t-13.5 73h66q2 -51 26 -76.5t66 -25.5t66.5 25.5t25.5 76.5h67z" />
    <glyph glyph-name="Ohungarumlaut" unicode="&#x150;" 
d="M33 518q0 46 14.5 77.5t40 50t59 26.5t72.5 8q37 0 71 -8t59.5 -26.5t40.5 -50t15 -77.5v-373q0 -47 -15 -78t-40.5 -49.5t-59.5 -26.5t-71 -8q-39 0 -72.5 8t-59 26.5t-40 49.5t-14.5 78v373zM287 512q0 38 -15.5 50t-52.5 12q-35 0 -52 -13t-17 -49v-362
q0 -35 16 -47.5t53 -12.5t52.5 12.5t15.5 47.5v362zM80 740l123 150l36 -31l-128 -146zM234 740l127 147l37 -30l-134 -144z" />
    <glyph glyph-name="ohungarumlaut" unicode="&#x151;" horiz-adv-x="404" 
d="M373 139q0 -45 -13 -75t-36.5 -48t-54.5 -25.5t-67 -7.5q-38 0 -69.5 7.5t-54 25.5t-35 48t-12.5 75v210q0 45 12.5 75t35 48t54 25.5t69.5 7.5q36 0 67 -7.5t54.5 -25.5t36.5 -48t13 -75v-210zM266 344q0 32 -17.5 44t-46.5 12t-46.5 -12t-17.5 -44v-200q0 -32 17.5 -44
t46.5 -12t46.5 12t17.5 44v200zM64 568l123 150l36 -31l-128 -146zM218 568l127 147l37 -30l-134 -144z" />
    <glyph glyph-name="OE" unicode="&#x152;" horiz-adv-x="575" 
d="M318 0q-22 -9 -47 -13t-52 -4q-38 0 -72 8t-59.5 26.5t-40 49.5t-14.5 78v373q0 46 14.5 77.5t40 50t59.5 26.5t72 8q57 0 96 -16h228v-99h-139v-168h126v-99h-126v-196h145v-102h-231zM288 512q0 38 -16 50.5t-53 12.5t-52.5 -12.5t-15.5 -50.5v-361q0 -36 15.5 -48.5
t52.5 -12.5q36 0 52.5 12.5t16.5 47.5v362z" />
    <glyph glyph-name="oe" unicode="&#x153;" horiz-adv-x="644" 
d="M602 8q-23 -8 -61 -16t-87 -8q-42 0 -76 6.5t-60 23.5q-46 -31 -117 -31q-38 0 -69 7.5t-53.5 25.5t-35 48t-12.5 75v210q0 42 11.5 71.5t31.5 48t48.5 27t62.5 8.5q39 0 72.5 -6.5t59.5 -24.5q23 17 53 24.5t66 7.5t67 -7.5t54.5 -25.5t36.5 -48t13 -75v-142h-235v-61
q0 -20 6.5 -30.5t18.5 -16t28 -6.5t34 -1q50 0 81.5 6.5t61.5 17.5v-108zM265 335q0 38 -16 51t-48 13t-47.5 -13t-15.5 -51v-183q0 -38 15.5 -51t47.5 -13q29 0 46.5 12t17.5 44v191zM500 340q0 31 -14.5 46.5t-49.5 15.5q-36 0 -50 -15.5t-14 -46.5v-59h128v59z" />
    <glyph glyph-name="Racute" unicode="&#x154;" horiz-adv-x="435" 
d="M236 375q16 0 26.5 8t16.5 21.5t8.5 31t2.5 36.5q0 45 -10.5 70t-47.5 25h-79v-192h83zM286 0v226q0 25 -10.5 43t-40.5 18h-82v-287h-114v664h234q40 0 65 -14t39 -36.5t19 -51t5 -57.5q0 -27 -3 -54t-11.5 -50.5t-23.5 -40.5t-40 -24q24 -5 39.5 -18t24 -31t11.5 -40
t3 -45v-202h-115zM123 706v57l228 119v-83z" />
    <glyph glyph-name="racute" unicode="&#x155;" horiz-adv-x="388" 
d="M39 0v477q24 9 62.5 18.5t101.5 9.5q34 0 63.5 -6.5t51.5 -22t34.5 -41.5t12.5 -65v-63h-96v42q0 29 -16.5 40t-44.5 11q-41 0 -61 -11v-389h-108zM100 534v57l228 119v-83z" />
    <glyph glyph-name="uni0156" unicode="&#x156;" horiz-adv-x="435" 
d="M236 375q16 0 26.5 8t16.5 21.5t8.5 31t2.5 36.5q0 45 -10.5 70t-47.5 25h-79v-192h83zM286 0v226q0 25 -10.5 43t-40.5 18h-82v-287h-114v664h234q40 0 65 -14t39 -36.5t19 -51t5 -57.5q0 -27 -3 -54t-11.5 -50.5t-23.5 -40.5t-40 -24q24 -5 39.5 -18t24 -31t11.5 -40
t3 -45v-202h-115zM162 -34h111v-52q0 -32 -8 -60t-22.5 -49t-35 -34t-45.5 -14v209z" />
    <glyph glyph-name="uni0157" unicode="&#x157;" horiz-adv-x="388" 
d="M39 0v477q24 9 62.5 18.5t101.5 9.5q34 0 63.5 -6.5t51.5 -22t34.5 -41.5t12.5 -65v-63h-96v42q0 29 -16.5 40t-44.5 11q-41 0 -61 -11v-389h-108zM40 -34h111v-52q0 -32 -8 -60t-22.5 -49t-35 -34t-45.5 -14v209z" />
    <glyph glyph-name="Rcaron" unicode="&#x158;" horiz-adv-x="435" 
d="M236 375q16 0 26.5 8t16.5 21.5t8.5 31t2.5 36.5q0 45 -10.5 70t-47.5 25h-79v-192h83zM286 0v226q0 25 -10.5 43t-40.5 18h-82v-287h-114v664h234q40 0 65 -14t39 -36.5t19 -51t5 -57.5q0 -27 -3 -54t-11.5 -50.5t-23.5 -40.5t-40 -24q24 -5 39.5 -18t24 -31t11.5 -40
t3 -45v-202h-115zM218 703l-177 153l34 42l143 -117l145 117l33 -42z" />
    <glyph glyph-name="rcaron" unicode="&#x159;" horiz-adv-x="388" 
d="M39 0v477q24 9 62.5 18.5t101.5 9.5q34 0 63.5 -6.5t51.5 -22t34.5 -41.5t12.5 -65v-63h-96v42q0 29 -16.5 40t-44.5 11q-41 0 -61 -11v-389h-108zM195 531l-177 153l34 42l143 -117l145 117l33 -42z" />
    <glyph glyph-name="Sacute" unicode="&#x15a;" horiz-adv-x="406" 
d="M274 466v41q0 46 -14 61t-47 15q-22 0 -35 -3.5t-20.5 -13t-10 -26.5t-2.5 -43q0 -23 2.5 -38.5t12.5 -26.5t29 -20t51 -19q51 -16 79.5 -37t42 -48t16.5 -60t3 -74q0 -45 -8.5 -80.5t-29 -60t-56 -37.5t-89.5 -13q-81 0 -126 37t-45 126v90h104v-86q0 -38 16.5 -50.5
t51.5 -12.5q19 0 32 4t20 13.5t10 26.5t3 44q0 39 -4 61.5t-15.5 36.5t-31.5 22.5t-53 19.5q-72 24 -102.5 65.5t-30.5 114.5q0 43 8.5 77t29.5 58t56.5 37t90.5 13q35 0 65 -7t51.5 -24t34 -45.5t12.5 -71.5v-66h-101zM109 706v57l228 119v-83z" />
    <glyph glyph-name="sacute" unicode="&#x15b;" horiz-adv-x="403" 
d="M269 347v30q0 24 -14.5 31t-48.5 7t-51 -8t-17 -34q0 -20 7 -29t32 -21q10 -5 24 -10.5t28 -10.5t27 -9.5t21 -7.5q31 -12 51 -26.5t30.5 -32t14.5 -38t4 -44.5q0 -45 -11 -76t-33.5 -50t-56.5 -27t-80 -8q-35 0 -66 5t-55 18.5t-38 37t-14 60.5v57h104v-29
q0 -32 15.5 -43.5t52.5 -11.5q35 0 50 11t15 48q0 23 -12 38t-30.5 24.5t-40.5 16t-41 12.5q-25 9 -46 20t-36 27t-23 38t-8 53q0 42 13.5 69t37.5 43t57.5 22t73.5 6q31 0 60.5 -4t53 -16t37.5 -34t14 -57v-47h-101zM107 534v57l228 119v-83z" />
    <glyph glyph-name="Scircumflex" unicode="&#x15c;" horiz-adv-x="406" 
d="M274 466v41q0 46 -14 61t-47 15q-22 0 -35 -3.5t-20.5 -13t-10 -26.5t-2.5 -43q0 -23 2.5 -38.5t12.5 -26.5t29 -20t51 -19q51 -16 79.5 -37t42 -48t16.5 -60t3 -74q0 -45 -8.5 -80.5t-29 -60t-56 -37.5t-89.5 -13q-81 0 -126 37t-45 126v90h104v-86q0 -38 16.5 -50.5
t51.5 -12.5q19 0 32 4t20 13.5t10 26.5t3 44q0 39 -4 61.5t-15.5 36.5t-31.5 22.5t-53 19.5q-72 24 -102.5 65.5t-30.5 114.5q0 43 8.5 77t29.5 58t56.5 37t90.5 13q35 0 65 -7t51.5 -24t34 -45.5t12.5 -71.5v-66h-101zM205 853l-141 -130l-37 41l135 144h85l134 -144
l-37 -41z" />
    <glyph glyph-name="scircumflex" unicode="&#x15d;" horiz-adv-x="403" 
d="M269 347v30q0 24 -14.5 31t-48.5 7t-51 -8t-17 -34q0 -20 7 -29t32 -21q10 -5 24 -10.5t28 -10.5t27 -9.5t21 -7.5q31 -12 51 -26.5t30.5 -32t14.5 -38t4 -44.5q0 -45 -11 -76t-33.5 -50t-56.5 -27t-80 -8q-35 0 -66 5t-55 18.5t-38 37t-14 60.5v57h104v-29
q0 -32 15.5 -43.5t52.5 -11.5q35 0 50 11t15 48q0 23 -12 38t-30.5 24.5t-40.5 16t-41 12.5q-25 9 -46 20t-36 27t-23 38t-8 53q0 42 13.5 69t37.5 43t57.5 22t73.5 6q31 0 60.5 -4t53 -16t37.5 -34t14 -57v-47h-101zM204 681l-141 -130l-37 41l135 144h85l134 -144l-37 -41
z" />
    <glyph glyph-name="Scedilla" unicode="&#x15e;" horiz-adv-x="406" 
d="M274 466v41q0 46 -14 61t-47 15q-22 0 -35 -3.5t-20.5 -13t-10 -26.5t-2.5 -43q0 -23 2.5 -38.5t12.5 -26.5t29 -20t51 -19q51 -16 79.5 -37t42 -48t16.5 -60t3 -74q0 -45 -8.5 -80.5t-29 -60t-56 -37.5t-89.5 -13q-81 0 -126 37t-45 126v90h104v-86q0 -38 16.5 -50.5
t51.5 -12.5q19 0 32 4t20 13.5t10 26.5t3 44q0 39 -4 61.5t-15.5 36.5t-31.5 22.5t-53 19.5q-72 24 -102.5 65.5t-30.5 114.5q0 43 8.5 77t29.5 58t56.5 37t90.5 13q35 0 65 -7t51.5 -24t34 -45.5t12.5 -71.5v-66h-101zM148 -34h111v-52q0 -32 -8 -60t-22.5 -49t-35 -34
t-45.5 -14v209z" />
    <glyph glyph-name="scedilla" unicode="&#x15f;" horiz-adv-x="403" 
d="M269 347v30q0 24 -14.5 31t-48.5 7t-51 -8t-17 -34q0 -20 7 -29t32 -21q10 -5 24 -10.5t28 -10.5t27 -9.5t21 -7.5q31 -12 51 -26.5t30.5 -32t14.5 -38t4 -44.5q0 -45 -11 -76t-33.5 -50t-56.5 -27t-80 -8q-35 0 -66 5t-55 18.5t-38 37t-14 60.5v57h104v-29
q0 -32 15.5 -43.5t52.5 -11.5q35 0 50 11t15 48q0 23 -12 38t-30.5 24.5t-40.5 16t-41 12.5q-25 9 -46 20t-36 27t-23 38t-8 53q0 42 13.5 69t37.5 43t57.5 22t73.5 6q31 0 60.5 -4t53 -16t37.5 -34t14 -57v-47h-101zM146 -34h111v-52q0 -32 -8 -60t-22.5 -49t-35 -34
t-45.5 -14v209z" />
    <glyph glyph-name="Scaron" unicode="&#x160;" horiz-adv-x="406" 
d="M274 466v41q0 46 -14 61t-47 15q-22 0 -35 -3.5t-20.5 -13t-10 -26.5t-2.5 -43q0 -23 2.5 -38.5t12.5 -26.5t29 -20t51 -19q51 -16 79.5 -37t42 -48t16.5 -60t3 -74q0 -45 -8.5 -80.5t-29 -60t-56 -37.5t-89.5 -13q-81 0 -126 37t-45 126v90h104v-86q0 -38 16.5 -50.5
t51.5 -12.5q19 0 32 4t20 13.5t10 26.5t3 44q0 39 -4 61.5t-15.5 36.5t-31.5 22.5t-53 19.5q-72 24 -102.5 65.5t-30.5 114.5q0 43 8.5 77t29.5 58t56.5 37t90.5 13q35 0 65 -7t51.5 -24t34 -45.5t12.5 -71.5v-66h-101zM204 703l-177 153l34 42l143 -117l145 117l33 -42z
" />
    <glyph glyph-name="scaron" unicode="&#x161;" horiz-adv-x="403" 
d="M269 347v30q0 24 -14.5 31t-48.5 7t-51 -8t-17 -34q0 -20 7 -29t32 -21q10 -5 24 -10.5t28 -10.5t27 -9.5t21 -7.5q31 -12 51 -26.5t30.5 -32t14.5 -38t4 -44.5q0 -45 -11 -76t-33.5 -50t-56.5 -27t-80 -8q-35 0 -66 5t-55 18.5t-38 37t-14 60.5v57h104v-29
q0 -32 15.5 -43.5t52.5 -11.5q35 0 50 11t15 48q0 23 -12 38t-30.5 24.5t-40.5 16t-41 12.5q-25 9 -46 20t-36 27t-23 38t-8 53q0 42 13.5 69t37.5 43t57.5 22t73.5 6q31 0 60.5 -4t53 -16t37.5 -34t14 -57v-47h-101zM202 531l-177 153l34 42l143 -117l145 117l33 -42z" />
    <glyph glyph-name="uni0162" unicode="&#x162;" horiz-adv-x="366" 
d="M124 0v565h-111v99h341v-99h-113v-565h-117zM128 -34h111v-52q0 -32 -8 -60t-22.5 -49t-35 -34t-45.5 -14v209z" />
    <glyph glyph-name="uni0163" unicode="&#x163;" horiz-adv-x="260" 
d="M74 0v414h-55v78h55v112h108v-112h59v-78h-59v-414h-108zM75 -34h111v-52q0 -32 -8 -60t-22.5 -49t-35 -34t-45.5 -14v209z" />
    <glyph glyph-name="Tcaron" unicode="&#x164;" horiz-adv-x="366" 
d="M124 0v565h-111v99h341v-99h-113v-565h-117zM184 703l-177 153l34 42l143 -117l145 117l33 -42z" />
    <glyph glyph-name="tcaron" unicode="&#x165;" horiz-adv-x="378" 
d="M74 0v414h-55v78h55v112h108v-112h59v-78h-59v-414h-108zM261 672h117v-135q0 -32 -8.5 -60t-24 -49t-37 -34t-47.5 -14v292z" />
    <glyph glyph-name="Tbar" unicode="&#x166;" horiz-adv-x="366" 
d="M124 0v267h-54v85h54v213h-111v99h341v-99h-113v-213h54v-85h-54v-267h-117z" />
    <glyph glyph-name="tbar" unicode="&#x167;" horiz-adv-x="260" 
d="M74 0v186h-38v85h38v143h-55v78h55v112h108v-112h59v-78h-59v-143h39v-85h-39v-186h-108z" />
    <glyph glyph-name="Utilde" unicode="&#x168;" horiz-adv-x="448" 
d="M292 664h117v-652q-26 -9 -71.5 -19t-117.5 -10q-38 0 -71.5 7.5t-58.5 26.5t-39.5 49.5t-14.5 77.5v520h118v-514q0 -34 19 -47t49 -13q46 0 70 11v563zM65 765v73h317v-73h-317z" />
    <glyph glyph-name="utilde" unicode="&#x169;" horiz-adv-x="419" 
d="M270 492h107v-481q-25 -9 -66 -18.5t-108 -9.5q-36 0 -67 7.5t-53.5 25.5t-35 48t-12.5 75v353h108v-345q0 -33 16.5 -46t44.5 -13q23 0 39 3t27 8v393zM51 593v73h317v-73h-317z" />
    <glyph glyph-name="Umacron" unicode="&#x16a;" horiz-adv-x="448" 
d="M292 664h117v-652q-26 -9 -71.5 -19t-117.5 -10q-38 0 -71.5 7.5t-58.5 26.5t-39.5 49.5t-14.5 77.5v520h118v-514q0 -34 19 -47t49 -13q46 0 70 11v563zM65 765v73h317v-73h-317z" />
    <glyph glyph-name="umacron" unicode="&#x16b;" horiz-adv-x="419" 
d="M270 492h107v-481q-25 -9 -66 -18.5t-108 -9.5q-36 0 -67 7.5t-53.5 25.5t-35 48t-12.5 75v353h108v-345q0 -33 16.5 -46t44.5 -13q23 0 39 3t27 8v393zM51 593v73h317v-73h-317z" />
    <glyph glyph-name="Ubreve" unicode="&#x16c;" horiz-adv-x="448" 
d="M292 664h117v-652q-26 -9 -71.5 -19t-117.5 -10q-38 0 -71.5 7.5t-58.5 26.5t-39.5 49.5t-14.5 77.5v520h118v-514q0 -34 19 -47t49 -13q46 0 70 11v563zM383 888q0 -42 -13.5 -73t-35.5 -51.5t-50.5 -31t-59.5 -10.5q-30 0 -58.5 10.5t-50.5 31t-35.5 51.5t-13.5 73h66
q2 -51 26 -76.5t66 -25.5t66.5 25.5t25.5 76.5h67z" />
    <glyph glyph-name="ubreve" unicode="&#x16d;" horiz-adv-x="419" 
d="M270 492h107v-481q-25 -9 -66 -18.5t-108 -9.5q-36 0 -67 7.5t-53.5 25.5t-35 48t-12.5 75v353h108v-345q0 -33 16.5 -46t44.5 -13q23 0 39 3t27 8v393zM369 716q0 -42 -13.5 -73t-35.5 -51.5t-50.5 -31t-59.5 -10.5q-30 0 -58.5 10.5t-50.5 31t-35.5 51.5t-13.5 73h66
q2 -51 26 -76.5t66 -25.5t66.5 25.5t25.5 76.5h67z" />
    <glyph glyph-name="Uring" unicode="&#x16e;" horiz-adv-x="448" 
d="M292 664h117v-652q-26 -9 -71.5 -19t-117.5 -10q-38 0 -71.5 7.5t-58.5 26.5t-39.5 49.5t-14.5 77.5v520h118v-514q0 -34 19 -47t49 -13q46 0 70 11v563zM325 792q0 -48 -22.5 -72t-79.5 -24q-101 0 -101 96q0 46 24.5 71t76.5 25q57 0 79.5 -25t22.5 -71zM283 792
q0 58 -60 58q-56 0 -56 -58q0 -57 56 -57q60 0 60 57z" />
    <glyph glyph-name="uring" unicode="&#x16f;" horiz-adv-x="419" 
d="M270 492h107v-481q-25 -9 -66 -18.5t-108 -9.5q-36 0 -67 7.5t-53.5 25.5t-35 48t-12.5 75v353h108v-345q0 -33 16.5 -46t44.5 -13q23 0 39 3t27 8v393zM311 620q0 -48 -22.5 -72t-79.5 -24q-101 0 -101 96q0 46 24.5 71t76.5 25q57 0 79.5 -25t22.5 -71zM269 620
q0 58 -60 58q-56 0 -56 -58q0 -57 56 -57q60 0 60 57z" />
    <glyph glyph-name="Uhungarumlaut" unicode="&#x170;" horiz-adv-x="448" 
d="M292 664h117v-652q-26 -9 -71.5 -19t-117.5 -10q-38 0 -71.5 7.5t-58.5 26.5t-39.5 49.5t-14.5 77.5v520h118v-514q0 -34 19 -47t49 -13q46 0 70 11v563zM85 740l123 150l36 -31l-128 -146zM239 740l127 147l37 -30l-134 -144z" />
    <glyph glyph-name="uhungarumlaut" unicode="&#x171;" horiz-adv-x="419" 
d="M270 492h107v-481q-25 -9 -66 -18.5t-108 -9.5q-36 0 -67 7.5t-53.5 25.5t-35 48t-12.5 75v353h108v-345q0 -33 16.5 -46t44.5 -13q23 0 39 3t27 8v393zM70 568l123 150l36 -31l-128 -146zM224 568l127 147l37 -30l-134 -144z" />
    <glyph glyph-name="Uogonek" unicode="&#x172;" horiz-adv-x="448" 
d="M370 -229q-5 -2 -17 -3t-35 -1q-41 0 -65.5 8.5t-38.5 22.5t-18.5 32.5t-4.5 38.5q0 43 17.5 68t62.5 43l15 6q-30 -3 -66 -3q-38 0 -71.5 7.5t-58.5 26.5t-39.5 49.5t-14.5 77.5v520h118v-514q0 -34 19 -47t49 -13q46 0 70 11v563h117v-652q-4 -2 -9.5 -4t-15.5 -5.5
t-26.5 -10.5t-43.5 -19q-26 -12 -34 -27.5t-8 -36.5q0 -22 12.5 -34t44.5 -12q23 0 41 5v-97z" />
    <glyph glyph-name="uogonek" unicode="&#x173;" horiz-adv-x="419" 
d="M343 -229q-5 -2 -17 -3t-35 -1q-41 0 -65.5 8.5t-38.5 22.5t-18.5 32.5t-4.5 38.5q0 43 17.5 67.5t62.5 43.5l12 5q-12 -1 -25.5 -1.5t-27.5 -0.5q-36 0 -67 7.5t-53.5 25.5t-35 48t-12.5 75v353h108v-345q0 -33 16.5 -46t44.5 -13q23 0 39 3t27 8v393h107v-481
q-3 -2 -8 -4t-14.5 -5.5t-25.5 -10t-42 -18.5t-34 -27.5t-8 -36.5q0 -22 12.5 -34t44.5 -12q23 0 41 5v-97z" />
    <glyph glyph-name="Wcircumflex" unicode="&#x174;" horiz-adv-x="650" 
d="M501 664h116v-427q0 -56 -14.5 -95.5t-38.5 -68.5t-56 -50t-66 -39q-37 22 -67.5 49.5t-49.5 61.5q-17 -34 -48.5 -61.5t-69.5 -49.5q-33 18 -64.5 39t-56 50t-39 68.5t-14.5 95.5v427h119v-427q0 -51 17 -77.5t42 -43.5q26 16 43 43t17 78v427h111v-427q0 -51 17.5 -78
t42.5 -43q27 16 43 43t16 78v427zM326 853l-141 -130l-37 41l135 144h85l134 -144l-37 -41z" />
    <glyph glyph-name="wcircumflex" unicode="&#x175;" horiz-adv-x="594" 
d="M456 492h107v-276q0 -53 -12.5 -91t-34 -66.5t-50.5 -49t-61 -37.5q-38 17 -64.5 42.5t-43.5 53.5q-17 -28 -44 -53.5t-65 -42.5q-31 17 -59.5 37.5t-50 49t-34.5 66.5t-13 91v276h107v-294q0 -23 4 -40t11 -30t17 -22t21 -16q10 6 19.5 14.5t17 21t12 30t4.5 42.5v294
h107v-295q0 -24 4 -41.5t11 -29.5t16.5 -20.5t20.5 -15.5q10 6 19.5 15t17 21.5t12 30t4.5 41.5v294zM298 681l-141 -130l-37 41l135 144h85l134 -144l-37 -41z" />
    <glyph glyph-name="Ycircumflex" unicode="&#x176;" horiz-adv-x="426" 
d="M155 0v233q-27 16 -50.5 36.5t-41 47.5t-27.5 61t-10 77v209h119v-215q0 -26 6 -45t15.5 -32.5t21.5 -23t25 -17.5q13 8 26 17.5t22.5 23t15.5 32t6 45.5v215h115v-209q0 -43 -10 -77t-27 -61t-40 -47.5t-49 -36.5v-233h-117zM215 853l-141 -130l-37 41l135 144h85
l134 -144l-37 -41z" />
    <glyph glyph-name="ycircumflex" unicode="&#x177;" horiz-adv-x="406" 
d="M265 17q-14 -8 -35 -14t-54 -6q-28 0 -54 6t-46.5 23t-32.5 47.5t-12 78.5v340h107v-333q0 -34 16 -46t44 -12q24 0 40 5.5t27 12.5v373h107v-587q0 -43 -13 -72t-36 -46.5t-54 -25t-68 -7.5q-34 0 -63 7.5t-50.5 25t-33.5 46.5t-12 72v39h100v-35q0 -29 16 -41t43 -12
q29 0 46.5 12t17.5 41v108zM205 681l-141 -130l-37 41l135 144h85l134 -144l-37 -41z" />
    <glyph glyph-name="Ydieresis" unicode="&#x178;" horiz-adv-x="426" 
d="M155 0v233q-27 16 -50.5 36.5t-41 47.5t-27.5 61t-10 77v209h119v-215q0 -26 6 -45t15.5 -32.5t21.5 -23t25 -17.5q13 8 26 17.5t22.5 23t15.5 32t6 45.5v215h115v-209q0 -43 -10 -77t-27 -61t-40 -47.5t-49 -36.5v-233h-117zM66 726v133h104v-133h-104zM258 726v133h105
v-133h-105z" />
    <glyph glyph-name="Zacute" unicode="&#x179;" horiz-adv-x="395" 
d="M24 0v113l214 452h-204v99h330v-84l-208 -478h208v-102h-340zM103 706v57l228 119v-83z" />
    <glyph glyph-name="zacute" unicode="&#x17a;" horiz-adv-x="373" 
d="M23 0v91l191 314h-175v87h304v-77l-189 -325h196v-90h-327zM92 534v57l228 119v-83z" />
    <glyph glyph-name="Zdotaccent" unicode="&#x17b;" horiz-adv-x="395" 
d="M24 0v113l214 452h-204v99h330v-84l-208 -478h208v-102h-340zM145 726v133h104v-133h-104z" />
    <glyph glyph-name="zdotaccent" unicode="&#x17c;" horiz-adv-x="373" 
d="M23 0v91l191 314h-175v87h304v-77l-189 -325h196v-90h-327zM134 554v133h104v-133h-104z" />
    <glyph glyph-name="Zcaron" unicode="&#x17d;" horiz-adv-x="395" 
d="M24 0v113l214 452h-204v99h330v-84l-208 -478h208v-102h-340zM198 703l-177 153l34 42l143 -117l145 117l33 -42z" />
    <glyph glyph-name="zcaron" unicode="&#x17e;" horiz-adv-x="373" 
d="M23 0v91l191 314h-175v87h304v-77l-189 -325h196v-90h-327zM187 531l-177 153l34 42l143 -117l145 117l33 -42z" />
    <glyph glyph-name="florin" unicode="&#x192;" horiz-adv-x="454" 
d="M-12 -173v98h20q48 0 74 19.5t34 73.5l50 354h-79v86h91l7 39q9 51 26.5 84.5t44.5 54t64.5 28.5t87.5 8h25v-97h-30q-42 0 -67 -20.5t-30 -58.5l-5 -38h93v-86h-105l-52 -362q-8 -54 -24.5 -89.5t-43.5 -56t-66 -29t-92 -8.5h-23z" />
    <glyph glyph-name="uni0218" unicode="&#x218;" horiz-adv-x="406" 
d="M274 466v41q0 46 -14 61t-47 15q-22 0 -35 -3.5t-20.5 -13t-10 -26.5t-2.5 -43q0 -23 2.5 -38.5t12.5 -26.5t29 -20t51 -19q51 -16 79.5 -37t42 -48t16.5 -60t3 -74q0 -45 -8.5 -80.5t-29 -60t-56 -37.5t-89.5 -13q-81 0 -126 37t-45 126v90h104v-86q0 -38 16.5 -50.5
t51.5 -12.5q19 0 32 4t20 13.5t10 26.5t3 44q0 39 -4 61.5t-15.5 36.5t-31.5 22.5t-53 19.5q-72 24 -102.5 65.5t-30.5 114.5q0 43 8.5 77t29.5 58t56.5 37t90.5 13q35 0 65 -7t51.5 -24t34 -45.5t12.5 -71.5v-66h-101zM148 -34h111v-52q0 -32 -8 -60t-22.5 -49t-35 -34
t-45.5 -14v209z" />
    <glyph glyph-name="uni0219" unicode="&#x219;" horiz-adv-x="403" 
d="M269 347v30q0 24 -14.5 31t-48.5 7t-51 -8t-17 -34q0 -20 7 -29t32 -21q10 -5 24 -10.5t28 -10.5t27 -9.5t21 -7.5q31 -12 51 -26.5t30.5 -32t14.5 -38t4 -44.5q0 -45 -11 -76t-33.5 -50t-56.5 -27t-80 -8q-35 0 -66 5t-55 18.5t-38 37t-14 60.5v57h104v-29
q0 -32 15.5 -43.5t52.5 -11.5q35 0 50 11t15 48q0 23 -12 38t-30.5 24.5t-40.5 16t-41 12.5q-25 9 -46 20t-36 27t-23 38t-8 53q0 42 13.5 69t37.5 43t57.5 22t73.5 6q31 0 60.5 -4t53 -16t37.5 -34t14 -57v-47h-101zM146 -34h111v-52q0 -32 -8 -60t-22.5 -49t-35 -34
t-45.5 -14v209z" />
    <glyph glyph-name="uni021A" unicode="&#x21a;" horiz-adv-x="366" 
d="M124 0v565h-111v99h341v-99h-113v-565h-117zM128 -34h111v-52q0 -32 -8 -60t-22.5 -49t-35 -34t-45.5 -14v209z" />
    <glyph glyph-name="uni021B" unicode="&#x21b;" horiz-adv-x="260" 
d="M74 0v414h-55v78h55v112h108v-112h59v-78h-59v-414h-108zM75 -34h111v-52q0 -32 -8 -60t-22.5 -49t-35 -34t-45.5 -14v209z" />
    <glyph glyph-name="uni0237" unicode="&#x237;" horiz-adv-x="225" 
d="M4 -132q9 -3 21 -3q23 0 37 12t14 39v576h106v-586q0 -41 -12.5 -67.5t-33.5 -42.5t-49.5 -22.5t-60.5 -6.5q-7 0 -12 0.5t-10 1.5v99z" />
    <glyph glyph-name="circumflex" unicode="&#x2c6;" horiz-adv-x="487" 
d="M244 681l-141 -130l-37 41l135 144h85l134 -144l-37 -41z" />
    <glyph glyph-name="caron" unicode="&#x2c7;" horiz-adv-x="487" 
d="M243 531l-177 153l34 42l143 -117l145 117l33 -42z" />
    <glyph glyph-name="breve" unicode="&#x2d8;" horiz-adv-x="449" 
d="M383 716q0 -42 -13.5 -73t-35.5 -51.5t-50.5 -31t-59.5 -10.5q-30 0 -58.5 10.5t-50.5 31t-35.5 51.5t-13.5 73h66q2 -51 26 -76.5t66 -25.5t66.5 25.5t25.5 76.5h67z" />
    <glyph glyph-name="dotaccent" unicode="&#x2d9;" horiz-adv-x="237" 
d="M66 554v133h104v-133h-104z" />
    <glyph glyph-name="ring" unicode="&#x2da;" horiz-adv-x="335" 
d="M269 620q0 -48 -22.5 -72t-79.5 -24q-101 0 -101 96q0 46 24.5 71t76.5 25q57 0 79.5 -25t22.5 -71zM227 620q0 58 -60 58q-56 0 -56 -58q0 -57 56 -57q60 0 60 57z" />
    <glyph glyph-name="ogonek" unicode="&#x2db;" horiz-adv-x="273" 
d="M226 -229q-5 -2 -17 -3t-35 -1q-41 0 -65.5 8.5t-38.5 22.5t-18.5 32.5t-4.5 38.5q0 42 17.5 67.5t62.5 43.5l51 20h48l-56 -27q-26 -13 -34 -27.5t-8 -36.5t12.5 -34t44.5 -12q23 0 41 5v-97z" />
    <glyph glyph-name="tilde" unicode="&#x2dc;" horiz-adv-x="412" 
d="M47 593v73h317v-73h-317z" />
    <glyph glyph-name="hungarumlaut" unicode="&#x2dd;" horiz-adv-x="450" 
d="M66 568l123 150l36 -31l-128 -146zM220 568l127 147l37 -30l-134 -144z" />
    <glyph glyph-name="uni0394" unicode="&#x394;" horiz-adv-x="427" 
d="M9 0l203 733l206 -733h-409zM212 410l-77 -308h154z" />
    <glyph glyph-name="uni0394" unicode="&#x2206;" horiz-adv-x="427" 
d="M9 0l203 733l206 -733h-409zM212 410l-77 -308h154z" />
    <glyph glyph-name="uni03A9" unicode="&#x3a9;" horiz-adv-x="450" 
d="M244 0v112q21 16 35.5 46t14.5 84v272q0 36 -19.5 48.5t-49.5 12.5q-31 0 -50 -12.5t-19 -48.5v-272q0 -54 13.5 -84t35.5 -46v-112h-169v102h93q-51 29 -71 82t-20 128v206q0 46 15 77.5t40.5 50t59.5 26.5t72 8q37 0 71 -8t59.5 -26.5t40.5 -50t15 -77.5v-206
q0 -75 -20 -128t-71 -82h93v-102h-169z" />
    <glyph glyph-name="uni03A9" unicode="&#x2126;" horiz-adv-x="450" 
d="M244 0v112q21 16 35.5 46t14.5 84v272q0 36 -19.5 48.5t-49.5 12.5q-31 0 -50 -12.5t-19 -48.5v-272q0 -54 13.5 -84t35.5 -46v-112h-169v102h93q-51 29 -71 82t-20 128v206q0 46 15 77.5t40.5 50t59.5 26.5t72 8q37 0 71 -8t59.5 -26.5t40.5 -50t15 -77.5v-206
q0 -75 -20 -128t-71 -82h93v-102h-169z" />
    <glyph glyph-name="pi" unicode="&#x3c0;" horiz-adv-x="424" 
d="M275 0v391h-128v-391h-108v492h346v-492h-110z" />
    <glyph glyph-name="Wgrave" unicode="&#x1e80;" horiz-adv-x="650" 
d="M501 664h116v-427q0 -56 -14.5 -95.5t-38.5 -68.5t-56 -50t-66 -39q-37 22 -67.5 49.5t-49.5 61.5q-17 -34 -48.5 -61.5t-69.5 -49.5q-33 18 -64.5 39t-56 50t-39 68.5t-14.5 95.5v427h119v-427q0 -51 17 -77.5t42 -43.5q26 16 43 43t17 78v427h111v-427q0 -51 17.5 -78
t42.5 -43q27 16 43 43t16 78v427zM191 799v83l228 -119v-57z" />
    <glyph glyph-name="wgrave" unicode="&#x1e81;" horiz-adv-x="594" 
d="M456 492h107v-276q0 -53 -12.5 -91t-34 -66.5t-50.5 -49t-61 -37.5q-38 17 -64.5 42.5t-43.5 53.5q-17 -28 -44 -53.5t-65 -42.5q-31 17 -59.5 37.5t-50 49t-34.5 66.5t-13 91v276h107v-294q0 -23 4 -40t11 -30t17 -22t21 -16q10 6 19.5 14.5t17 21t12 30t4.5 42.5v294
h107v-295q0 -24 4 -41.5t11 -29.5t16.5 -20.5t20.5 -15.5q10 6 19.5 15t17 21.5t12 30t4.5 41.5v294zM163 627v83l228 -119v-57z" />
    <glyph glyph-name="Wacute" unicode="&#x1e82;" horiz-adv-x="650" 
d="M501 664h116v-427q0 -56 -14.5 -95.5t-38.5 -68.5t-56 -50t-66 -39q-37 22 -67.5 49.5t-49.5 61.5q-17 -34 -48.5 -61.5t-69.5 -49.5q-33 18 -64.5 39t-56 50t-39 68.5t-14.5 95.5v427h119v-427q0 -51 17 -77.5t42 -43.5q26 16 43 43t17 78v427h111v-427q0 -51 17.5 -78
t42.5 -43q27 16 43 43t16 78v427zM231 706v57l228 119v-83z" />
    <glyph glyph-name="wacute" unicode="&#x1e83;" horiz-adv-x="594" 
d="M456 492h107v-276q0 -53 -12.5 -91t-34 -66.5t-50.5 -49t-61 -37.5q-38 17 -64.5 42.5t-43.5 53.5q-17 -28 -44 -53.5t-65 -42.5q-31 17 -59.5 37.5t-50 49t-34.5 66.5t-13 91v276h107v-294q0 -23 4 -40t11 -30t17 -22t21 -16q10 6 19.5 14.5t17 21t12 30t4.5 42.5v294
h107v-295q0 -24 4 -41.5t11 -29.5t16.5 -20.5t20.5 -15.5q10 6 19.5 15t17 21.5t12 30t4.5 41.5v294zM203 534v57l228 119v-83z" />
    <glyph glyph-name="Wdieresis" unicode="&#x1e84;" horiz-adv-x="650" 
d="M501 664h116v-427q0 -56 -14.5 -95.5t-38.5 -68.5t-56 -50t-66 -39q-37 22 -67.5 49.5t-49.5 61.5q-17 -34 -48.5 -61.5t-69.5 -49.5q-33 18 -64.5 39t-56 50t-39 68.5t-14.5 95.5v427h119v-427q0 -51 17 -77.5t42 -43.5q26 16 43 43t17 78v427h111v-427q0 -51 17.5 -78
t42.5 -43q27 16 43 43t16 78v427zM176 726v133h104v-133h-104zM368 726v133h105v-133h-105z" />
    <glyph glyph-name="wdieresis" unicode="&#x1e85;" horiz-adv-x="594" 
d="M456 492h107v-276q0 -53 -12.5 -91t-34 -66.5t-50.5 -49t-61 -37.5q-38 17 -64.5 42.5t-43.5 53.5q-17 -28 -44 -53.5t-65 -42.5q-31 17 -59.5 37.5t-50 49t-34.5 66.5t-13 91v276h107v-294q0 -23 4 -40t11 -30t17 -22t21 -16q10 6 19.5 14.5t17 21t12 30t4.5 42.5v294
h107v-295q0 -24 4 -41.5t11 -29.5t16.5 -20.5t20.5 -15.5q10 6 19.5 15t17 21.5t12 30t4.5 41.5v294zM148 554v133h104v-133h-104zM340 554v133h105v-133h-105z" />
    <glyph glyph-name="Ygrave" unicode="&#x1ef2;" horiz-adv-x="426" 
d="M155 0v233q-27 16 -50.5 36.5t-41 47.5t-27.5 61t-10 77v209h119v-215q0 -26 6 -45t15.5 -32.5t21.5 -23t25 -17.5q13 8 26 17.5t22.5 23t15.5 32t6 45.5v215h115v-209q0 -43 -10 -77t-27 -61t-40 -47.5t-49 -36.5v-233h-117zM79 799v83l228 -119v-57z" />
    <glyph glyph-name="ygrave" unicode="&#x1ef3;" horiz-adv-x="406" 
d="M265 17q-14 -8 -35 -14t-54 -6q-28 0 -54 6t-46.5 23t-32.5 47.5t-12 78.5v340h107v-333q0 -34 16 -46t44 -12q24 0 40 5.5t27 12.5v373h107v-587q0 -43 -13 -72t-36 -46.5t-54 -25t-68 -7.5q-34 0 -63 7.5t-50.5 25t-33.5 46.5t-12 72v39h100v-35q0 -29 16 -41t43 -12
q29 0 46.5 12t17.5 41v108zM69 627v83l228 -119v-57z" />
    <glyph glyph-name="endash" unicode="&#x2013;" horiz-adv-x="486" 
d="M43 267v85h401v-85h-401z" />
    <glyph glyph-name="emdash" unicode="&#x2014;" horiz-adv-x="623" 
d="M21 267v85h581v-85h-581z" />
    <glyph glyph-name="quoteleft" unicode="&#x2018;" horiz-adv-x="208" 
d="M45 672h117l1 -292q-26 1 -48 14t-37.5 34t-24 49t-8.5 60v135z" />
    <glyph glyph-name="quoteright" unicode="&#x2019;" horiz-adv-x="208" 
d="M46 672h117v-135q0 -32 -8.5 -60t-24 -49t-37 -34t-47.5 -14v292z" />
    <glyph glyph-name="quotesinglbase" unicode="&#x201a;" horiz-adv-x="208" 
d="M46 151h117v-135q0 -32 -8.5 -60t-24 -49t-37 -34t-47.5 -14v292z" />
    <glyph glyph-name="quotedblleft" unicode="&#x201c;" horiz-adv-x="416" 
d="M45 672h117l1 -292q-26 1 -48 14t-37.5 34t-24 49t-8.5 60v135zM253 672h117l1 -292q-26 1 -48 14t-37.5 34t-24 49t-8.5 60v135z" />
    <glyph glyph-name="quotedblright" unicode="&#x201d;" horiz-adv-x="416" 
d="M46 672h117v-135q0 -32 -8.5 -60t-24 -49t-37 -34t-47.5 -14v292zM254 672h117v-135q0 -32 -8.5 -60t-24 -49t-37 -34t-47.5 -14v292z" />
    <glyph glyph-name="quotedblbase" unicode="&#x201e;" horiz-adv-x="416" 
d="M46 151h117v-135q0 -32 -8.5 -60t-24 -49t-37 -34t-47.5 -14v292zM254 151h117v-135q0 -32 -8.5 -60t-24 -49t-37 -34t-47.5 -14v292z" />
    <glyph glyph-name="dagger" unicode="&#x2020;" horiz-adv-x="351" 
d="M135 0v446h-96v69h96v149h87v-149h88v-69h-88v-446h-87z" />
    <glyph glyph-name="daggerdbl" unicode="&#x2021;" horiz-adv-x="351" 
d="M135 0v149h-96v68h96v229h-96v69h96v149h87v-149h88v-69h-88v-229h88v-68h-88v-149h-87z" />
    <glyph glyph-name="bullet" unicode="&#x2022;" horiz-adv-x="405" 
d="M356 343q0 -29 -12 -53.5t-33 -42.5t-49 -28t-59 -10q-33 0 -61 10t-48.5 28t-32.5 42.5t-12 53.5q0 30 12 54.5t32.5 42.5t48.5 28t61 10q31 0 59 -10t49 -28t33 -42.5t12 -54.5z" />
    <glyph glyph-name="ellipsis" unicode="&#x2026;" horiz-adv-x="1215" 
d="M63 0v151h117v-151h-117zM549 0v151h117v-151h-117zM1035 0v151h117v-151h-117z" />
    <glyph glyph-name="perthousand" unicode="&#x2030;" horiz-adv-x="724" 
d="M239 415q0 -46 -28 -63.5t-67 -17.5q-40 0 -67 17.5t-27 63.5v187q0 46 27 63.5t67 17.5q39 0 67 -17.5t28 -63.5v-187zM167 596q0 11 -5 15t-18 4q-22 0 -22 -19v-175q0 -19 22 -19q23 0 23 19v175zM35 -20l371 704h86l-373 -704h-84zM481 62q0 -46 -28 -63.5t-67 -17.5
q-40 0 -67 17.5t-27 63.5v187q0 46 27 63.5t67 17.5q39 0 67 -17.5t28 -63.5v-187zM409 243q0 11 -5 15t-18 4q-22 0 -22 -19v-175q0 -19 22 -19q23 0 23 19v175zM692 62q0 -46 -28 -63.5t-67 -17.5q-40 0 -67 17.5t-27 63.5v187q0 46 27 63.5t67 17.5q39 0 67 -17.5
t28 -63.5v-187zM620 243q0 11 -5 15t-18 4q-22 0 -22 -19v-175q0 -19 22 -19q23 0 23 19v175z" />
    <glyph glyph-name="guilsinglleft" unicode="&#x2039;" horiz-adv-x="233" 
d="M21 317l139 174l51 -55l-100 -119l100 -118l-51 -54z" />
    <glyph glyph-name="guilsinglright" unicode="&#x203a;" horiz-adv-x="233" 
d="M21 199l101 118l-101 119l50 55l140 -174l-140 -172z" />
    <glyph glyph-name="fraction" unicode="&#x2044;" horiz-adv-x="129" 
d="M-164 -20l371 704h86l-373 -704h-84z" />
    <glyph glyph-name="uni2070" unicode="&#x2070;" horiz-adv-x="251" 
d="M220 415q0 -46 -28 -63.5t-67 -17.5q-40 0 -67 17.5t-27 63.5v187q0 46 27 63.5t67 17.5q39 0 67 -17.5t28 -63.5v-187zM148 596q0 11 -5 15t-18 4q-22 0 -22 -19v-175q0 -19 22 -19q23 0 23 19v175z" />
    <glyph glyph-name="uni2074" unicode="&#x2074;" horiz-adv-x="247" 
d="M146 343v59h-120v68l89 205h69l-86 -210h50v61h65v-183h-67z" />
    <glyph glyph-name="uni2075" unicode="&#x2075;" horiz-adv-x="244" 
d="M211 415q0 -47 -25.5 -64t-67.5 -17q-39 0 -62.5 17t-23.5 64v30h64v-24q0 -11 4.5 -15.5t17.5 -4.5q16 0 18.5 8t2.5 22v35q0 14 -4 19.5t-18 5.5q-8 0 -10.5 -1.5t-4.5 -3.5h-65l11 189h154v-62h-89l-4 -76q9 4 17.5 6t19.5 2q65 0 65 -78v-52z" />
    <glyph glyph-name="uni2076" unicode="&#x2076;" horiz-adv-x="251" 
d="M221 412q0 -22 -7.5 -37t-20.5 -24t-30 -13t-36 -4q-40 0 -68 17t-28 61v189q0 47 27 64.5t68 17.5q40 0 65 -17.5t25 -64.5v-19h-69v16q0 11 -4.5 15t-16.5 4t-17.5 -4t-5.5 -15v-57q5 4 14 7.5t25 3.5q14 0 28 -3t25.5 -11.5t18.5 -24t7 -40.5v-61zM148 475
q0 22 -22 22q-17 0 -23 -13v-67q0 -17 22 -17q23 0 23 17v58z" />
    <glyph glyph-name="uni2077" unicode="&#x2077;" horiz-adv-x="223" 
d="M59 343q0 40 5 80t14 76t21 65.5t26 47.5h-101v63h171v-52q-29 -48 -46.5 -120t-19.5 -160h-70z" />
    <glyph glyph-name="uni2078" unicode="&#x2078;" horiz-adv-x="249" 
d="M219 415q0 -46 -26.5 -63.5t-68.5 -17.5t-68 17.5t-26 63.5v28q0 22 9 41.5t31 27.5q-22 8 -30 29t-8 43v18q0 47 25 64t67 17t67.5 -17t25.5 -64v-18q0 -22 -8.5 -43t-29.5 -29q21 -8 30.5 -27.5t9.5 -41.5v-28zM147 459q0 14 -4.5 21t-18.5 7q-13 0 -17.5 -7t-4.5 -21
v-39q0 -11 5.5 -14.5t16.5 -3.5q12 0 17.5 3.5t5.5 14.5v39zM147 597q0 11 -5.5 15t-17.5 4q-11 0 -16.5 -4t-5.5 -15v-33q0 -12 4.5 -19.5t17.5 -7.5t18 7.5t5 19.5v33z" />
    <glyph glyph-name="uni2079" unicode="&#x2079;" horiz-adv-x="250" 
d="M146 480q-5 -4 -14 -7.5t-25 -3.5q-14 0 -28 3t-25 12t-18 24.5t-7 39.5v57q0 22 7.5 37t20 24t29.5 13t36 4q40 0 68.5 -17t28.5 -61v-190q0 -47 -27 -64t-68 -17q-40 0 -65.5 17t-25.5 64v25h69v-20q0 -19 22 -19t22 19v60zM146 599q0 11 -5 14.5t-17 3.5
q-11 0 -17 -3.5t-6 -14.5v-53q0 -21 22 -21q17 0 23 12v62z" />
    <glyph glyph-name="uni2080" unicode="&#x2080;" horiz-adv-x="251" 
d="M220 62q0 -46 -28 -63.5t-67 -17.5q-40 0 -67 17.5t-27 63.5v187q0 46 27 63.5t67 17.5q39 0 67 -17.5t28 -63.5v-187zM148 243q0 11 -5 15t-18 4q-22 0 -22 -19v-175q0 -19 22 -19q23 0 23 19v175z" />
    <glyph glyph-name="uni2081" unicode="&#x2081;" horiz-adv-x="165" 
d="M60 -10v249q0 18 -22 18q-7 0 -11 -2v70q3 0 6 0.5t6 0.5q38 0 66 -17.5t28 -63.5v-255h-73z" />
    <glyph glyph-name="uni2082" unicode="&#x2082;" horiz-adv-x="242" 
d="M32 -10v92q0 32 7 54t30 33t37 16t21.5 11t10 16.5t2.5 32.5q0 16 -4 21t-17 5q-22 0 -22 -15v-31h-61v34q0 42 23.5 56.5t59.5 14.5q54 0 72 -21.5t18 -70.5q0 -45 -12.5 -66.5t-47.5 -35.5q-21 -8 -32.5 -15.5t-11.5 -29.5v-39h102v-62h-175z" />
    <glyph glyph-name="uni2083" unicode="&#x2083;" horiz-adv-x="238" 
d="M208 62q0 -46 -26 -63.5t-68 -17.5q-40 0 -63 17t-23 64v30h65v-25q0 -11 4.5 -15t16.5 -4t17 3.5t5 14.5v39q0 14 -4.5 21.5t-17.5 7.5h-22v50h22q13 0 17.5 7.5t4.5 21.5v32q0 11 -5 15t-17 4t-16.5 -4t-4.5 -16v-24h-65v29q0 47 23 64t63 17q42 0 67 -17t25 -64v-18
q0 -22 -8 -43t-30 -29q22 -8 31 -27.5t9 -41.5v-28z" />
    <glyph glyph-name="uni2084" unicode="&#x2084;" horiz-adv-x="247" 
d="M146 -10v59h-120v68l89 205h69l-86 -210h50v61h65v-183h-67z" />
    <glyph glyph-name="uni2085" unicode="&#x2085;" horiz-adv-x="244" 
d="M211 62q0 -47 -25.5 -64t-67.5 -17q-39 0 -62.5 17t-23.5 64v30h64v-24q0 -11 4.5 -15.5t17.5 -4.5q16 0 18.5 8t2.5 22v35q0 14 -4 19.5t-18 5.5q-8 0 -10.5 -1.5t-4.5 -3.5h-65l11 189h154v-62h-89l-4 -76q9 4 17.5 6t19.5 2q65 0 65 -78v-52z" />
    <glyph glyph-name="uni2086" unicode="&#x2086;" horiz-adv-x="251" 
d="M221 59q0 -22 -7.5 -37t-20.5 -24t-30 -13t-36 -4q-40 0 -68 17t-28 61v189q0 47 27 64.5t68 17.5q40 0 65 -17.5t25 -64.5v-19h-69v16q0 11 -4.5 15t-16.5 4t-17.5 -4t-5.5 -15v-57q5 4 14 7.5t25 3.5q14 0 28 -3t25.5 -11.5t18.5 -24t7 -40.5v-61zM148 122q0 22 -22 22
q-17 0 -23 -13v-67q0 -17 22 -17q23 0 23 17v58z" />
    <glyph glyph-name="uni2087" unicode="&#x2087;" horiz-adv-x="223" 
d="M59 -10q0 40 5 80t14 76t21 65.5t26 47.5h-101v63h171v-52q-29 -48 -46.5 -120t-19.5 -160h-70z" />
    <glyph glyph-name="uni2088" unicode="&#x2088;" horiz-adv-x="249" 
d="M219 62q0 -46 -26.5 -63.5t-68.5 -17.5t-68 17.5t-26 63.5v28q0 22 9 41.5t31 27.5q-22 8 -30 29t-8 43v18q0 47 25 64t67 17t67.5 -17t25.5 -64v-18q0 -22 -8.5 -43t-29.5 -29q21 -8 30.5 -27.5t9.5 -41.5v-28zM147 106q0 14 -4.5 21t-18.5 7q-13 0 -17.5 -7t-4.5 -21
v-39q0 -11 5.5 -14.5t16.5 -3.5q12 0 17.5 3.5t5.5 14.5v39zM147 244q0 11 -5.5 15t-17.5 4q-11 0 -16.5 -4t-5.5 -15v-33q0 -12 4.5 -19.5t17.5 -7.5t18 7.5t5 19.5v33z" />
    <glyph glyph-name="uni2089" unicode="&#x2089;" horiz-adv-x="250" 
d="M146 127q-5 -4 -14 -7.5t-25 -3.5q-14 0 -28 3t-25 12t-18 24.5t-7 39.5v57q0 22 7.5 37t20 24t29.5 13t36 4q40 0 68.5 -17t28.5 -61v-190q0 -47 -27 -64t-68 -17q-40 0 -65.5 17t-25.5 64v25h69v-20q0 -19 22 -19t22 19v60zM146 246q0 11 -5 14.5t-17 3.5
q-11 0 -17 -3.5t-6 -14.5v-53q0 -21 22 -21q17 0 23 12v62z" />
    <glyph glyph-name="Euro" unicode="&#x20ac;" horiz-adv-x="364" 
d="M332 -9q-24 -8 -85 -8q-40 0 -74 8t-59 26.5t-39 49.5t-14 78v98h-39l8 54h31v76h-39l8 53h31v92q0 46 14 77.5t39 50t59 26.5t74 8q36 0 77 -9l-17 -104q-14 5 -28.5 6.5t-31.5 1.5q-31 0 -49.5 -13t-18.5 -48v-88h108l-9 -53h-99v-76h89l-9 -54h-80v-92
q0 -34 18.5 -47.5t49.5 -13.5q29 0 49.5 3.5t35.5 8.5v-111z" />
    <glyph glyph-name="trademark" unicode="&#x2122;" horiz-adv-x="549" 
d="M85 353v270h-53v49h165v-49h-54v-270h-58zM453 353v242q0 29 -29 29q-17 0 -27 -7v-264h-55v262q-4 5 -12 7t-16 2q-9 0 -15.5 -1.5t-12.5 -3.5v-266h-58v313q12 5 32.5 9.5t49.5 4.5q35 0 54 -16q8 7 23 11.5t38 4.5q37 0 62 -17.5t25 -60.5v-249h-59z" />
    <glyph glyph-name="onethird" unicode="&#x2153;" horiz-adv-x="551" 
d="M105 343v249q0 18 -22 18q-7 0 -11 -2v70q3 0 6 0.5t6 0.5q38 0 66 -17.5t28 -63.5v-255h-73zM28 -20l371 704h86l-373 -704h-84zM519 62q0 -46 -26 -63.5t-68 -17.5q-40 0 -63 17t-23 64v30h65v-25q0 -11 4.5 -15t16.5 -4t17 3.5t5 14.5v39q0 14 -4.5 21.5t-17.5 7.5
h-22v50h22q13 0 17.5 7.5t4.5 21.5v32q0 11 -5 15t-17 4t-16.5 -4t-4.5 -16v-24h-65v29q0 47 23 64t63 17q42 0 67 -17t25 -64v-18q0 -22 -8 -43t-30 -29q22 -8 31 -27.5t9 -41.5v-28z" />
    <glyph glyph-name="twothirds" unicode="&#x2154;" horiz-adv-x="543" 
d="M32 343v92q0 32 7 54t30 33t37 16t21.5 11t10 16.5t2.5 32.5q0 16 -4 21t-17 5q-22 0 -22 -15v-31h-61v34q0 42 23.5 56.5t59.5 14.5q54 0 72 -21.5t18 -70.5q0 -45 -12.5 -66.5t-47.5 -35.5q-21 -8 -32.5 -15.5t-11.5 -29.5v-39h102v-62h-175zM43 -20l371 704h86
l-373 -704h-84zM511 62q0 -46 -26 -63.5t-68 -17.5q-40 0 -63 17t-23 64v30h65v-25q0 -11 4.5 -15t16.5 -4t17 3.5t5 14.5v39q0 14 -4.5 21.5t-17.5 7.5h-22v50h22q13 0 17.5 7.5t4.5 21.5v32q0 11 -5 15t-17 4t-16.5 -4t-4.5 -16v-24h-65v29q0 47 23 64t63 17q42 0 67 -17
t25 -64v-18q0 -22 -8 -43t-30 -29q22 -8 31 -27.5t9 -41.5v-28z" />
    <glyph glyph-name="oneeighth" unicode="&#x215b;" horiz-adv-x="552" 
d="M105 343v249q0 18 -22 18q-7 0 -11 -2v70q3 0 6 0.5t6 0.5q38 0 66 -17.5t28 -63.5v-255h-73zM31 -20l371 704h86l-373 -704h-84zM520 62q0 -46 -26.5 -63.5t-68.5 -17.5t-68 17.5t-26 63.5v28q0 22 9 41.5t31 27.5q-22 8 -30 29t-8 43v18q0 47 25 64t67 17t67.5 -17
t25.5 -64v-18q0 -22 -8.5 -43t-29.5 -29q21 -8 30.5 -27.5t9.5 -41.5v-28zM448 106q0 14 -4.5 21t-18.5 7q-13 0 -17.5 -7t-4.5 -21v-39q0 -11 5.5 -14.5t16.5 -3.5q12 0 17.5 3.5t5.5 14.5v39zM448 244q0 11 -5.5 15t-17.5 4q-11 0 -16.5 -4t-5.5 -15v-33q0 -12 4.5 -19.5
t17.5 -7.5t18 7.5t5 19.5v33z" />
    <glyph glyph-name="threeeighths" unicode="&#x215c;" horiz-adv-x="544" 
d="M212 415q0 -46 -26 -63.5t-68 -17.5q-40 0 -63 17t-23 64v30h65v-25q0 -11 4.5 -15t16.5 -4t17 3.5t5 14.5v39q0 14 -4.5 21.5t-17.5 7.5h-22v50h22q13 0 17.5 7.5t4.5 21.5v32q0 11 -5 15t-17 4t-16.5 -4t-4.5 -16v-24h-65v29q0 47 23 64t63 17q42 0 67 -17t25 -64v-18
q0 -22 -8 -43t-30 -29q22 -8 31 -27.5t9 -41.5v-28zM36 -20l371 704h86l-373 -704h-84zM512 62q0 -46 -26.5 -63.5t-68.5 -17.5t-68 17.5t-26 63.5v28q0 22 9 41.5t31 27.5q-22 8 -30 29t-8 43v18q0 47 25 64t67 17t67.5 -17t25.5 -64v-18q0 -22 -8.5 -43t-29.5 -29
q21 -8 30.5 -27.5t9.5 -41.5v-28zM440 106q0 14 -4.5 21t-18.5 7q-13 0 -17.5 -7t-4.5 -21v-39q0 -11 5.5 -14.5t16.5 -3.5q12 0 17.5 3.5t5.5 14.5v39zM440 244q0 11 -5.5 15t-17.5 4q-11 0 -16.5 -4t-5.5 -15v-33q0 -12 4.5 -19.5t17.5 -7.5t18 7.5t5 19.5v33z" />
    <glyph glyph-name="fiveeighths" unicode="&#x215d;" horiz-adv-x="532" 
d="M212 415q0 -47 -25.5 -64t-67.5 -17q-39 0 -62.5 17t-23.5 64v30h64v-24q0 -11 4.5 -15.5t17.5 -4.5q16 0 18.5 8t2.5 22v35q0 14 -4 19.5t-18 5.5q-8 0 -10.5 -1.5t-4.5 -3.5h-65l11 189h154v-62h-89l-4 -76q9 4 17.5 6t19.5 2q65 0 65 -78v-52zM32 -20l371 704h86
l-373 -704h-84zM500 62q0 -46 -26.5 -63.5t-68.5 -17.5t-68 17.5t-26 63.5v28q0 22 9 41.5t31 27.5q-22 8 -30 29t-8 43v18q0 47 25 64t67 17t67.5 -17t25.5 -64v-18q0 -22 -8.5 -43t-29.5 -29q21 -8 30.5 -27.5t9.5 -41.5v-28zM428 106q0 14 -4.5 21t-18.5 7
q-13 0 -17.5 -7t-4.5 -21v-39q0 -11 5.5 -14.5t16.5 -3.5q12 0 17.5 3.5t5.5 14.5v39zM428 244q0 11 -5.5 15t-17.5 4q-11 0 -16.5 -4t-5.5 -15v-33q0 -12 4.5 -19.5t17.5 -7.5t18 7.5t5 19.5v33z" />
    <glyph glyph-name="seveneighths" unicode="&#x215e;" horiz-adv-x="542" 
d="M106 343q0 40 5 80t14 76t21 65.5t26 47.5h-101v63h171v-52q-29 -48 -46.5 -120t-19.5 -160h-70zM32 -20l371 704h86l-373 -704h-84zM510 62q0 -46 -26.5 -63.5t-68.5 -17.5t-68 17.5t-26 63.5v28q0 22 9 41.5t31 27.5q-22 8 -30 29t-8 43v18q0 47 25 64t67 17t67.5 -17
t25.5 -64v-18q0 -22 -8.5 -43t-29.5 -29q21 -8 30.5 -27.5t9.5 -41.5v-28zM438 106q0 14 -4.5 21t-18.5 7q-13 0 -17.5 -7t-4.5 -21v-39q0 -11 5.5 -14.5t16.5 -3.5q12 0 17.5 3.5t5.5 14.5v39zM438 244q0 11 -5.5 15t-17.5 4q-11 0 -16.5 -4t-5.5 -15v-33q0 -12 4.5 -19.5
t17.5 -7.5t18 7.5t5 19.5v33z" />
    <glyph glyph-name="partialdiff" unicode="&#x2202;" horiz-adv-x="469" 
d="M191 675q11 2 22.5 3.5t23.5 1.5q39 0 75.5 -15.5t64 -49t44.5 -86t17 -125.5q0 -83 -10.5 -159t-36.5 -134t-69.5 -93t-108.5 -35q-51 0 -85.5 15t-56 42.5t-31 67.5t-9.5 91q0 55 13.5 99t37.5 74t58 46t75 16q18 0 38.5 -4.5t39.5 -15.5t34.5 -30t22.5 -48
q2 16 3 33.5t1 34.5q0 35 -6.5 68t-22 58t-40.5 40t-62 15q-16 0 -32 -3v93zM334 229q-8 57 -34.5 84.5t-78.5 27.5q-48 0 -76 -37t-28 -106q0 -60 25 -90.5t71 -30.5q51 0 80.5 37t40.5 115z" />
    <glyph glyph-name="product" unicode="&#x220f;" horiz-adv-x="463" 
d="M327 -233v819h-193v-819h-95v897h385v-897h-97z" />
    <glyph glyph-name="summation" unicode="&#x2211;" horiz-adv-x="440" 
d="M43 -182v67l198 356l-198 356v67h354v-91h-233l175 -332l-175 -333h233v-90h-354z" />
    <glyph glyph-name="minus" unicode="&#x2212;" horiz-adv-x="556" 
d="M45 304v80h466v-80h-466z" />
    <glyph glyph-name="radical" unicode="&#x221a;" horiz-adv-x="498" 
d="M192 0l-103 299h-64v67h147l64 -226l149 524h100l-203 -664h-90z" />
    <glyph glyph-name="infinity" unicode="&#x221e;" horiz-adv-x="597" 
d="M299 270q-21 -46 -56 -70.5t-92 -24.5q-29 0 -54.5 10.5t-44.5 31t-30 51.5t-11 72q0 42 11 73t30 52t44.5 31.5t54.5 10.5q57 0 90.5 -24.5t57.5 -72.5q23 48 56.5 72.5t90.5 24.5q29 0 54.5 -10.5t44.5 -31.5t30 -52t11 -73q0 -41 -11 -72t-30 -51.5t-44.5 -31
t-54.5 -10.5q-57 0 -92 24.5t-55 70.5zM265 338q-18 42 -41 64.5t-59 22.5q-39 0 -60 -23t-21 -62q0 -86 81 -86q38 0 62 23.5t38 60.5zM332 338q13 -38 37 -61t62 -23q82 0 82 86q0 39 -21.5 62t-60.5 23q-36 0 -59 -22.5t-40 -64.5z" />
    <glyph glyph-name="integral" unicode="&#x222b;" horiz-adv-x="347" 
d="M10 -233v94h29q32 0 52.5 17.5t20.5 60.5v561q0 91 51.5 131.5t145.5 40.5h29v-95h-29q-32 0 -53 -17.5t-21 -59.5v-561q0 -91 -51 -131.5t-145 -40.5h-29z" />
    <glyph glyph-name="approxequal" unicode="&#x2248;" horiz-adv-x="585" 
d="M539 202q-31 -35 -64.5 -51t-81.5 -16q-30 0 -57 9.5t-53 20.5t-51.5 20.5t-52.5 9.5q-42 0 -73.5 -19t-60.5 -57v87q21 26 52.5 46.5t77.5 20.5q35 0 65 -9t56.5 -20.5t51.5 -20.5t50 -9q42 0 76 16t65 58v-86zM539 421q-31 -35 -64.5 -51t-81.5 -16q-30 0 -57 9.5
t-53 20.5t-51.5 20.5t-52.5 9.5q-42 0 -73.5 -19t-60.5 -57v87q21 26 52.5 46.5t77.5 20.5q35 0 65 -9t56.5 -20.5t51.5 -20.5t50 -9q42 0 76 16t65 58v-86z" />
    <glyph glyph-name="notequal" unicode="&#x2260;" horiz-adv-x="541" 
d="M213 203l-147 -223h-54l145 223h-118v80h170l79 120h-249v80h302l131 201h57l-132 -201h105v-80h-158l-79 -120h237v-80h-289z" />
    <glyph glyph-name="lessequal" unicode="&#x2264;" horiz-adv-x="556" 
d="M45 303v80l466 207v-89l-377 -158l377 -159v-88zM45 -9v80h466v-80h-466z" />
    <glyph glyph-name="greaterequal" unicode="&#x2265;" horiz-adv-x="556" 
d="M45 96v88l375 159l-375 158v89l466 -207v-80zM45 -9v80h466v-80h-466z" />
    <glyph glyph-name="lozenge" unicode="&#x25ca;" horiz-adv-x="527" 
d="M209 0l-177 332l177 332h118l168 -332l-168 -332h-118zM384 332l-117 229l-121 -229l121 -228z" />
    <glyph glyph-name="uniF8FF" unicode="&#xf8ff;" horiz-adv-x="193" 
 />
    <glyph glyph-name="glyph398" horiz-adv-x="0" 
 />
    </font>
</defs>
</svg>
