<?xml version="1.0" standalone="no"?>
<!DOCTYPE svg PUBLIC "-//W3C//DTD SVG 1.1//EN" "http://www.w3.org/Graphics/SVG/1.1/DTD/svg11.dtd" >
<svg>
<metadata>
Created by FontForge 20120731 at Mon Jul 17 19:26:05 2023
 By www
Copyright (c) 2009 Typodermic Fonts. This font is not freely distributable. Visit typodermic.com for more information.
</metadata>
<defs>
<font id="MaquiW00-Italic" horiz-adv-x="435" >
  <font-face 
    font-family="MaquiW00-Italic"
    font-weight="400"
    font-style="italic"
    font-stretch="normal"
    units-per-em="1000"
    panose-1="2 11 6 6 3 6 2 2 0 4"
    ascent="800"
    descent="-200"
    x-height="492"
    cap-height="664"
    bbox="-172 -246 1066 908"
    underline-thickness="50"
    underline-position="-125"
    slope="-8"
    unicode-range="U+0017-F8FF"
  />
<missing-glyph horiz-adv-x="678" 
d="M151 -241q-114 0 -114 99v799q0 100 114 100h374q116 0 116 -100v-799q0 -99 -116 -99h-374zM321 24l-187 50l-45 -167l188 -49zM336 130q4 16 13 25t20.5 15t25 9.5t26.5 7.5q29 9 50 21.5t37.5 34t29.5 54.5t27 83q8 29 12.5 55t4.5 49q0 49 -26 83t-64.5 55
t-83.5 30.5t-84 9.5q-54 0 -94 -28t-59 -97l-21 -77l175 -48l20 72q3 11 15 11t22.5 -6t10.5 -17l-24 -87q-4 -15 -12.5 -23.5t-21 -14t-27.5 -9.5t-33 -10q-48 -17 -70.5 -52t-35.5 -86l-12 -46l171 -44z" />
    <glyph glyph-name="copyright" unicode="&#x28;C&#x29;" horiz-adv-x="500" 
d="M486 145q-7 -47 -29 -78t-54.5 -49.5t-72.5 -26.5t-84 -8q-46 0 -82 7t-61 24t-38 44t-13 68v9.5t2 9.5l52 373q6 46 27 77.5t52.5 50t72 26.5t86.5 8q40 0 75.5 -6.5t62.5 -22t42.5 -41t15.5 -63.5q0 -7 -0.5 -14t-1.5 -15zM493 518q1 5 1 9.5v9.5q0 28 -12.5 46.5
t-33.5 30t-49.5 16.5t-60.5 5q-36 0 -68 -6t-57 -19.5t-41.5 -36t-20.5 -55.5l-52 -373q-1 -5 -1.5 -10.5t-0.5 -10.5q0 -27 11.5 -45.5t32.5 -30t49.5 -16t61.5 -4.5q35 0 67 5.5t57.5 19t42.5 36t22 56.5zM332 311h39l-8 -58q-6 -43 -28 -58.5t-56 -15.5q-32 0 -53 12.5
t-21 45.5v7.5t1 8.5l24 168q6 42 32 57.5t61 15.5q30 0 47.5 -11.5t17.5 -43.5v-8.5t-1 -9.5l-9 -60h-39l8 56q0 2 0.5 4.5t0.5 4.5q0 26 -31 26q-17 0 -29.5 -8.5t-14.5 -26.5l-23 -161q0 -2 -0.5 -3t-0.5 -3q0 -17 10 -23t26 -6t26 7.5t13 27.5z" />
    <glyph glyph-name="registered" unicode="&#x28;R&#x29;" horiz-adv-x="500" 
d="M486 145q-7 -47 -29 -78t-54.5 -49.5t-72.5 -26.5t-84 -8q-46 0 -82 7t-61 24t-38 44t-13 68v9.5t2 9.5l52 373q6 46 27 77.5t52.5 50t72 26.5t86.5 8q40 0 75.5 -6.5t62.5 -22t42.5 -41t15.5 -63.5q0 -7 -0.5 -14t-1.5 -15zM493 518q1 5 1 9.5v9.5q0 28 -12.5 46.5
t-33.5 30t-49.5 16.5t-60.5 5q-36 0 -68 -6t-57 -19.5t-41.5 -36t-20.5 -55.5l-52 -373q-1 -5 -1.5 -10.5t-0.5 -10.5q0 -27 11.5 -45.5t32.5 -30t49.5 -16t61.5 -4.5q35 0 67 5.5t57.5 19t42.5 36t22 56.5zM310 355q15 0 23 9t12 20.5t4.5 22.5t0.5 14q0 29 -20 29h-50
l-14 -95h44zM318 187l14 104q0 8 -5 18t-23 10h-43l-18 -132h-43l42 300h107q26 0 35.5 -15.5t9.5 -36.5q0 -8 -1.5 -22t-7 -29t-15.5 -28t-27 -17q19 -4 25.5 -17t6.5 -29q0 -4 -0.5 -7.5t-0.5 -7.5l-13 -91h-43z" />
    <glyph glyph-name="uni2117" unicode="&#x28;P&#x29;" horiz-adv-x="500" 
d="M486 145q-7 -47 -29 -78t-54.5 -49.5t-72.5 -26.5t-84 -8q-46 0 -82 7t-61 24t-38 44t-13 68v9.5t2 9.5l52 373q6 46 27 77.5t52.5 50t72 26.5t86.5 8q40 0 75.5 -6.5t62.5 -22t42.5 -41t15.5 -63.5q0 -7 -0.5 -14t-1.5 -15zM493 518q1 5 1 9.5v9.5q0 28 -12.5 46.5
t-33.5 30t-49.5 16.5t-60.5 5q-36 0 -68 -6t-57 -19.5t-41.5 -36t-20.5 -55.5l-52 -373q-1 -5 -1.5 -10.5t-0.5 -10.5q0 -27 11.5 -45.5t32.5 -30t49.5 -16t61.5 -4.5q35 0 67 5.5t57.5 19t42.5 36t22 56.5zM200 187l42 300h97q32 0 44.5 -13.5t12.5 -43.5q0 -72 -20.5 -103
t-63.5 -31h-53l-15 -109h-44zM310 331q22 0 32 23.5t10 65.5q0 16 -5.5 23t-19.5 7h-46l-17 -119h46z" />
    <glyph glyph-name=".notdef" horiz-adv-x="678" 
d="M151 -241q-114 0 -114 99v799q0 100 114 100h374q116 0 116 -100v-799q0 -99 -116 -99h-374zM321 24l-187 50l-45 -167l188 -49zM336 130q4 16 13 25t20.5 15t25 9.5t26.5 7.5q29 9 50 21.5t37.5 34t29.5 54.5t27 83q8 29 12.5 55t4.5 49q0 49 -26 83t-64.5 55
t-83.5 30.5t-84 9.5q-54 0 -94 -28t-59 -97l-21 -77l175 -48l20 72q3 11 15 11t22.5 -6t10.5 -17l-24 -87q-4 -15 -12.5 -23.5t-21 -14t-27.5 -9.5t-33 -10q-48 -17 -70.5 -52t-35.5 -86l-12 -46l171 -44z" />
    <glyph glyph-name=".null" horiz-adv-x="0" 
 />
    <glyph glyph-name="nonmarkingreturn" horiz-adv-x="333" 
 />
    <glyph glyph-name="glyph397" horiz-adv-x="0" 
 />
    <glyph glyph-name="glyph397" horiz-adv-x="0" 
 />
    <glyph glyph-name="uni0017" horiz-adv-x="190" 
 />
    <glyph glyph-name="space" unicode=" " horiz-adv-x="190" 
 />
    <glyph glyph-name="exclam" unicode="!" horiz-adv-x="205" 
d="M105 198q1 61 3 113.5t6 101.5t9 97t12 99q5 34 13 55h96q0 -3 0.5 -6.5t0.5 -6.5q0 -9 -1 -19.5t-3 -22.5q-8 -51 -16 -99t-18.5 -97t-23 -101.5t-28.5 -113.5h-50zM58 0l20 146h90l-20 -146h-90z" />
    <glyph glyph-name="quotedbl" unicode="&#x22;" horiz-adv-x="306" 
d="M101 414l35 250h66l-35 -250h-66zM254 414l35 250h66l-35 -250h-66z" />
    <glyph glyph-name="numbersign" unicode="#" horiz-adv-x="500" 
d="M247 0l62 204h-108l-62 -204h-57l62 204h-93l14 57h96l44 143h-101l15 57h104l63 203h56l-63 -203h109l64 203h58l-63 -203h94l-16 -57h-96l-44 -143h102l-14 -57h-105l-62 -204h-59zM371 404h-109l-44 -143h109z" />
    <glyph glyph-name="dollar" unicode="$" horiz-adv-x="416" 
d="M175 0l10 75q-24 1 -47 6.5t-40.5 16.5t-28 29.5t-10.5 46.5q0 5 0.5 10.5t1.5 11.5l8 56h81l-5 -35q-1 -5 -1 -9v-8q0 -30 20 -40.5t62 -10.5q25 0 42 3t28.5 12t18 24.5t10.5 40.5q0 3 0.5 6t0.5 6q0 14 -5.5 23t-16.5 17q-27 19 -63 29t-68.5 23.5t-54.5 35.5t-22 66
q0 45 14 74.5t37 47.5t52 26.5t59 10.5l10 70h68l-10 -69q22 -2 43.5 -7t38 -15t26.5 -27t10 -43v-8.5t-1 -9.5l-7 -47h-79l5 38q0 3 0.5 5.5t0.5 4.5q0 22 -19.5 28.5t-58.5 6.5q-24 0 -42.5 -2t-31.5 -9t-19.5 -20t-6.5 -35q0 -23 15.5 -35.5t36.5 -19.5q34 -11 69 -21.5
t65 -27.5q26 -15 35.5 -37t9.5 -48q0 -51 -13 -86.5t-35 -57.5t-52 -33t-63 -14l-10 -75h-68z" />
    <glyph glyph-name="percent" unicode="%" horiz-adv-x="526" 
d="M117 602q7 46 36.5 63.5t66.5 17.5q34 0 57.5 -14t23.5 -50v-8t-1 -9l-26 -187q-7 -47 -36 -64t-67 -17q-34 0 -57.5 14t-23.5 51v7.5t1 8.5zM254 602q1 4 1 7.5v6.5q0 17 -9.5 23t-30.5 6q-24 0 -36.5 -8.5t-16.5 -34.5l-26 -187q-1 -3 -1 -11q0 -18 10 -24t31 -6
q25 0 36.5 8t15.5 33zM35 -20l493 704h52l-494 -704h-51zM342 249q7 46 36.5 63.5t66.5 17.5q34 0 57.5 -14t23.5 -50v-8t-1 -9l-26 -187q-7 -47 -36 -64t-67 -17q-34 0 -57.5 14t-23.5 51v7.5t1 8.5zM479 249q1 4 1 7.5v6.5q0 17 -9.5 23t-30.5 6q-24 0 -36.5 -8.5
t-16.5 -34.5l-26 -187q-1 -3 -1 -11q0 -18 10 -24t31 -6q25 0 36.5 8t15.5 33z" />
    <glyph glyph-name="ampersand" unicode="&#x26;" horiz-adv-x="494" 
d="M393 0l-42 57q-35 -42 -75 -58t-98 -16q-26 0 -49.5 7t-41.5 22t-28.5 38.5t-10.5 57.5q0 16 3 34l4 23q7 51 29 93t74 67q-23 32 -34 57.5t-11 54.5q0 14 3 31l7 51q6 45 18.5 76t34 50t52.5 27t74 8q72 0 101.5 -23.5t29.5 -83.5q0 -12 -1 -26.5t-3 -30.5l-4 -27
q-5 -32 -13 -58.5t-24 -49.5t-43 -43t-70 -38l78 -108l84 128h89l-126 -192l95 -128h-102zM352 521q3 16 3 29q0 28 -10 41t-52 13q-26 0 -41.5 -4.5t-25 -14.5t-14 -25t-7.5 -37l-7 -53q-3 -15 -3 -28q0 -22 9 -40t29 -45q34 14 54.5 26t32 24t16.5 25t7 28zM199 268
q-49 -24 -58 -91l-4 -31q-1 -7 -1.5 -13t-0.5 -11q0 -34 18 -47t50 -13q33 0 56 13.5t47 45.5z" />
    <glyph glyph-name="quotesingle" unicode="'" horiz-adv-x="153" 
d="M101 414l35 250h66l-35 -250h-66z" />
    <glyph glyph-name="parenleft" unicode="(" horiz-adv-x="296" 
d="M225 -143q-60 76 -90 166t-30 187q0 139 58.5 272t184.5 246h64q-115 -125 -167.5 -256.5t-52.5 -269.5q0 -91 23.5 -177.5t74.5 -167.5h-65z" />
    <glyph glyph-name="parenright" unicode=")" horiz-adv-x="296" 
d="M-35 -143q112 126 167.5 262.5t55.5 276.5q0 87 -24 169t-76 163h64q63 -78 92.5 -163t29.5 -178q0 -71 -16 -142t-47.5 -139t-77 -131t-104.5 -118h-64z" />
    <glyph glyph-name="asterisk" unicode="*" horiz-adv-x="416" 
d="M361 330l-87 119l-85 -119l-39 27l87 121l-137 43l14 43l135 -44v149h49v-149l136 45l15 -44l-137 -43l88 -121z" />
    <glyph glyph-name="plus" unicode="+" horiz-adv-x="551" 
d="M259 115l27 198h-197l9 63h197l28 197h63l-28 -197h198l-9 -63h-198l-27 -198h-63z" />
    <glyph glyph-name="comma" unicode="," horiz-adv-x="282" 
d="M123 151h92l-30 -156q-5 -26 -16.5 -49t-27.5 -41t-35 -29t-39 -12z" />
    <glyph glyph-name="hyphen" unicode="-" horiz-adv-x="329" 
d="M82 277l10 66h241l-10 -66h-241z" />
    <glyph glyph-name="period" unicode="." horiz-adv-x="222" 
d="M65 0l21 151h92l-21 -151h-92z" />
    <glyph glyph-name="slash" unicode="/" horiz-adv-x="290" 
d="M0 0l310 664h73l-312 -664h-71z" />
    <glyph glyph-name="zero" unicode="0" 
d="M106 518q7 46 26 77.5t46.5 50t61.5 26.5t72 8q36 0 66 -7t51 -23.5t33 -44t12 -67.5v-10t-2 -10l-52 -373q-6 -47 -25 -78t-47 -49.5t-62.5 -26.5t-71.5 -8q-34 0 -63.5 6.5t-51.5 21.5t-35 39.5t-13 60.5q0 16 3 34zM381 518q1 8 1.5 14.5t0.5 11.5q0 36 -20 48t-62 12
q-24 0 -42 -3.5t-30.5 -13t-20 -26.5t-11.5 -43l-52 -373q-1 -7 -1.5 -13t-0.5 -11q0 -35 20 -47t62 -12q48 0 73 16.5t31 66.5z" />
    <glyph glyph-name="one" unicode="1" horiz-adv-x="268" 
d="M139 0l71 506q1 5 1 9v8q0 38 -22.5 52t-58.5 14q-12 0 -22 -3l12 84q5 1 10.5 1.5t13.5 0.5q33 0 62.5 -6t51 -21t34 -39.5t12.5 -60.5q0 -16 -3 -34l-71 -511h-91z" />
    <glyph glyph-name="two" unicode="2" horiz-adv-x="416" 
d="M37 0l23 169q6 48 17 80.5t31 56t52.5 40.5t82.5 33q36 12 57.5 20t34 20t18.5 31.5t11 54.5q2 14 3 26t1 21q0 32 -16 42t-58 10q-28 0 -45.5 -3t-28 -10.5t-15 -19.5t-7.5 -29l-9 -60h-78l9 63q6 40 22 66.5t40 41.5t54 21t65 6q85 0 119 -28t34 -91q0 -13 -1 -26.5
t-3 -28.5q-6 -43 -16 -73.5t-29 -53t-49.5 -38.5t-77.5 -30q-38 -11 -60 -21t-35 -24t-19 -34.5t-10 -51.5l-14 -101h246l-11 -79h-338z" />
    <glyph glyph-name="three" unicode="3" horiz-adv-x="409" 
d="M397 145q-13 -89 -66 -125.5t-136 -36.5q-75 0 -112.5 25.5t-37.5 92.5q0 10 1 21t3 23l8 60h81l-7 -52q-2 -5 -2 -9.5v-9.5q0 -22 3.5 -36t12.5 -22t24 -11t37 -3q47 0 69.5 16.5t30.5 66.5l10 71q2 5 2 9.5v9.5q0 42 -15 55t-55 13h-54l10 72h55q42 0 62.5 19.5
t27.5 70.5l7 51q1 8 1.5 15.5t0.5 14.5q0 35 -18 46.5t-58 11.5q-24 0 -41 -3.5t-29 -14t-19.5 -29t-11.5 -48.5l-7 -49h-81l8 58q6 47 21 78t39 50t57 26.5t75 7.5q73 0 113.5 -26t40.5 -94q0 -20 -3 -42l-7 -53q-6 -43 -31 -79t-74 -48q40 -8 58 -35t18 -64v-10.5
t-1 -11.5z" />
    <glyph glyph-name="four" unicode="4" horiz-adv-x="410" 
d="M281 0l18 132h-257l12 86l269 446h87l-267 -453h169l22 156h83l-51 -367h-85z" />
    <glyph glyph-name="five" unicode="5" horiz-adv-x="421" 
d="M404 145q-6 -47 -23 -78t-42.5 -49.5t-59 -26.5t-73.5 -8q-72 0 -112.5 26.5t-40.5 95.5q0 17 3 40l8 60h81l-7 -52q-1 -8 -1.5 -14.5t-0.5 -12.5q0 -38 20 -51t60 -13q22 0 39 4t28.5 14t19 27.5t11.5 45.5l12 84q1 8 1.5 14t0.5 12q0 32 -16.5 46.5t-54.5 14.5
q-45 0 -63.5 -7.5t-30.5 -21.5h-76l73 369h298l-11 -76h-214l-45 -221q44 32 102 32q72 0 101 -29.5t29 -86.5q0 -20 -3 -44z" />
    <glyph glyph-name="six" unicode="6" horiz-adv-x="434" 
d="M420 139q-6 -45 -24 -75t-45 -48t-60.5 -25.5t-69.5 -7.5q-37 0 -68 7t-53.5 23t-35.5 42.5t-13 65.5v8.5t2 9.5l53 378q7 48 24.5 79t44.5 50t62 26.5t76 7.5q73 0 113.5 -26t40.5 -96q0 -19 -3 -41l-5 -39h-87l5 39q1 8 1.5 15.5t0.5 13.5q0 35 -17.5 46.5t-59.5 11.5
q-24 0 -42 -3.5t-31 -13.5t-20.5 -26.5t-11.5 -43.5l-20 -144q14 15 46.5 32t81.5 17q27 0 51 -5.5t43 -19t30 -37t11 -59.5q0 -19 -3 -40zM344 247q1 8 1.5 15t0.5 14q0 38 -19 54.5t-61 16.5q-71 0 -102 -66l-20 -142q-1 -5 -1.5 -10t-0.5 -10q0 -33 20 -45t63 -12
q42 0 70 16t34 61z" />
    <glyph glyph-name="seven" unicode="7" horiz-adv-x="378" 
d="M111 0q13 86 37.5 171.5t55.5 162.5t67.5 141.5t73.5 108.5h-242l11 80h330l-10 -68q-39 -49 -75.5 -115t-67 -143.5t-54.5 -163.5t-38 -174h-88z" />
    <glyph glyph-name="eight" unicode="8" horiz-adv-x="431" 
d="M418 145q-6 -44 -23.5 -75t-44 -50.5t-61.5 -28t-77 -8.5q-75 0 -119 29t-44 98q0 15 3 35l10 72q6 45 33 78t76 43q-39 10 -55 37.5t-16 62.5q0 7 0.5 13.5t1.5 13.5l7 53q6 46 22.5 77.5t42.5 50t60 26.5t76 8q75 0 116.5 -26.5t41.5 -95.5q0 -19 -3 -40l-7 -53
q-6 -43 -31 -79t-74 -48q40 -8 58 -35t18 -64v-10.5t-1 -11.5zM337 216q1 8 1.5 15t0.5 13q0 35 -18.5 47t-63.5 12q-26 0 -44 -3.5t-30 -13.5t-19 -26.5t-11 -43.5l-10 -71q-1 -7 -1.5 -12.5t-0.5 -10.5q0 -35 20 -47.5t62 -12.5q48 0 72 16.5t32 66.5zM377 516
q1 8 1.5 14.5t0.5 12.5q0 37 -19 49t-61 12q-24 0 -41.5 -3.5t-29.5 -13.5t-19.5 -27t-11.5 -44l-7 -51q-1 -8 -1.5 -14.5t-0.5 -12.5q0 -35 18.5 -49t60.5 -14q51 0 73.5 19.5t29.5 70.5z" />
    <glyph glyph-name="nine" unicode="9" horiz-adv-x="431" 
d="M348 299q-14 -15 -46.5 -32t-81.5 -17q-27 0 -51.5 5.5t-43.5 19t-30 37t-11 60.5q0 18 3 39l16 113q6 45 24.5 75t45 48t59.5 25.5t70 7.5q34 0 64.5 -6.5t54 -21.5t37.5 -39.5t14 -60.5q0 -7 -0.5 -13.5t-1.5 -14.5l-53 -378q-7 -48 -24.5 -79t-44.5 -50t-62 -26.5
t-76 -7.5q-73 0 -113.5 26t-40.5 95q0 19 3 42l7 48h87l-7 -48q-1 -8 -1.5 -14.5t-0.5 -12.5q0 -34 17.5 -45.5t59.5 -11.5q48 0 72.5 17t32.5 67zM379 524q1 6 1.5 12t0.5 11q0 34 -20.5 45.5t-62.5 11.5t-69.5 -16t-34.5 -64l-14 -99q-2 -5 -2 -9.5v-8.5q0 -45 16.5 -63.5
t63.5 -18.5q70 0 102 66z" />
    <glyph glyph-name="colon" unicode=":" horiz-adv-x="269" 
d="M88 0l21 151h92l-21 -151h-92zM135 339l21 150h92l-21 -150h-92z" />
    <glyph glyph-name="semicolon" unicode=";" horiz-adv-x="282" 
d="M149 339l21 150h92l-21 -150h-92zM123 151h92l-30 -156q-5 -26 -16.5 -49t-27.5 -41t-35 -29t-39 -12z" />
    <glyph glyph-name="less" unicode="&#x3c;" horiz-adv-x="551" 
d="M89 312l9 62l488 216l-9 -70l-413 -177l363 -178l-10 -69z" />
    <glyph glyph-name="equal" unicode="=" horiz-adv-x="551" 
d="M103 411l9 63h458l-9 -63h-458zM75 212l9 63h458l-9 -63h-458z" />
    <glyph glyph-name="greater" unicode="&#x3e;" horiz-adv-x="551" 
d="M59 96l10 69l412 178l-362 177l9 70l428 -216l-9 -62z" />
    <glyph glyph-name="question" unicode="?" horiz-adv-x="381" 
d="M125 0l20 146h91l-20 -146h-91zM157 209l5 33q3 23 8.5 40.5t15.5 32.5t26.5 29t43.5 30q26 16 42 27t25 22.5t13 25t7 33.5q6 40 6 63q0 37 -16.5 48t-55.5 11q-26 0 -43.5 -3.5t-29 -13.5t-18 -27t-10.5 -44l-7 -50h-82l7 50q6 47 19 78.5t35.5 50.5t56.5 27t83 8
q81 0 115 -25t34 -91q0 -14 -1.5 -29.5t-3.5 -33.5q-6 -41 -13.5 -67t-19.5 -44t-29 -31t-42 -26q-50 -28 -66 -51t-19 -46l-4 -27h-82z" />
    <glyph glyph-name="at" unicode="@" horiz-adv-x="523" 
d="M160 -102q-58 0 -91.5 23.5t-33.5 85.5v7.5t2 8.5l65 461q5 36 19.5 60t35.5 38.5t47.5 20.5t55.5 6h172q26 0 49 -5t40.5 -17t27.5 -31.5t10 -47.5q0 -5 -0.5 -11t-1.5 -13l-53 -374q-23 -8 -57 -15.5t-91 -7.5q-59 0 -91 24t-32 89v9.5t2 9.5l11 76q6 42 20 67.5
t33.5 40t43 19.5t47.5 5q34 0 52.5 -6.5t31.5 -16.5l11 73q0 3 0.5 6t0.5 6q0 29 -18.5 40t-45.5 11h-172q-31 0 -52 -14t-26 -49l-63 -447q-1 -4 -1 -7.5v-6.5q0 -28 17.5 -38.5t44.5 -10.5h313l-10 -69h-313zM465 335q-11 9 -27.5 14t-43.5 5q-31 0 -51.5 -12.5
t-26.5 -54.5l-9 -61q-1 -5 -1 -8.5v-7.5q0 -29 16.5 -40t44.5 -11q27 0 44.5 3t29.5 8z" />
    <glyph glyph-name="A" unicode="A" 
d="M308 0l34 242h-185l-34 -242h-89l59 426q7 55 28 95t50.5 69.5t66 50.5t74.5 39q28 -16 55 -34.5t48 -43t34 -57t13 -75.5q0 -22 -3 -44l-59 -426h-92zM369 437q1 8 1.5 15t0.5 15q0 25 -6 43t-16 31.5t-23.5 23.5t-27.5 19q-20 -10 -38.5 -22t-34 -29t-26.5 -40.5
t-15 -55.5l-17 -119h185z" />
    <glyph glyph-name="B" unicode="B" horiz-adv-x="434" 
d="M40 0l93 664h226q31 0 52 -9t33 -24.5t17 -36t5 -42.5q0 -33 -5.5 -67t-18.5 -64t-34.5 -52t-52.5 -31q43 -11 59.5 -46t16.5 -80q0 -33 -7 -70.5t-25.5 -69t-50.5 -52t-81 -20.5h-227zM247 79q27 0 45.5 11t29.5 31t16 46.5t5 58.5q0 34 -14.5 55.5t-53.5 21.5h-105
l-31 -224h108zM285 375q27 0 45 13t28.5 33.5t15 47t4.5 53.5q0 30 -12.5 48t-47.5 18h-108l-30 -213h105z" />
    <glyph glyph-name="C" unicode="C" horiz-adv-x="413" 
d="M338 278h82l-19 -133q-7 -47 -23.5 -78t-41 -49.5t-56.5 -26.5t-69 -8q-33 0 -62.5 6.5t-51 21t-34 39t-12.5 60.5q0 17 3 35l52 373q6 46 24.5 77.5t46 50t61.5 26.5t71 8q33 0 60 -6t46.5 -20.5t30 -38t10.5 -58.5q0 -18 -3 -39l-20 -141h-82l20 141q1 8 1.5 14.5
t0.5 12.5q0 31 -16.5 45t-58.5 14q-50 0 -72.5 -20t-28.5 -66l-52 -373q-1 -6 -1.5 -11.5t-0.5 -10.5q0 -32 18.5 -46.5t60.5 -14.5q49 0 70 20t27 63z" />
    <glyph glyph-name="D" unicode="D" horiz-adv-x="441" 
d="M40 0l93 664h184q33 0 62 -8t50.5 -25.5t34 -45.5t12.5 -68q0 -20 -3 -42l-40 -286q-8 -52 -27.5 -88t-47.5 -58.5t-62.5 -32.5t-71.5 -10h-184zM382 475q3 19 3 35q0 45 -20.5 61.5t-58.5 16.5h-93l-71 -509h93q44 0 71 24t36 86z" />
    <glyph glyph-name="E" unicode="E" horiz-adv-x="330" 
d="M40 0l93 664h258l-11 -76h-167l-28 -202h154l-11 -77h-154l-32 -230h173l-11 -79h-264z" />
    <glyph glyph-name="F" unicode="F" horiz-adv-x="339" 
d="M40 0l93 664h275l-11 -76h-184l-29 -208h179l-11 -77h-179l-42 -303h-91z" />
    <glyph glyph-name="G" unicode="G" horiz-adv-x="427" 
d="M352 340h85l-46 -328q-26 -9 -68 -19t-112 -10q-33 0 -62.5 6t-51 21t-34 39t-12.5 60q0 17 3 35l52 374q6 46 24.5 77.5t46 50t61.5 26.5t71 8q33 0 60 -6t46.5 -20.5t30 -38t10.5 -58.5q0 -18 -3 -39l-13 -92h-82l13 92q1 8 1.5 14.5t0.5 12.5q0 31 -16.5 45t-58.5 14
q-50 0 -72.5 -20t-28.5 -66l-52 -374q-1 -5 -1.5 -9.5t-0.5 -8.5q0 -36 22.5 -50t58.5 -14q34 0 55 4.5t36 9.5z" />
    <glyph glyph-name="H" unicode="H" horiz-adv-x="448" 
d="M316 0l41 298h-185l-41 -298h-91l93 664h91l-41 -290h185l41 290h91l-93 -664h-91z" />
    <glyph glyph-name="I" unicode="I" horiz-adv-x="171" 
d="M40 0l93 664h91l-93 -664h-91z" />
    <glyph glyph-name="J" unicode="J" horiz-adv-x="268" 
d="M34 62q10 -3 22 -3q42 0 68.5 18.5t33.5 63.5l74 523h91l-74 -525q-7 -47 -25.5 -77.5t-45.5 -49.5t-61 -26.5t-71 -7.5q-14 0 -23 3z" />
    <glyph glyph-name="K" unicode="K" horiz-adv-x="447" 
d="M332 0l-156 337l-47 -337h-89l93 664h89l-41 -292l236 292h99l-255 -301l175 -363h-104z" />
    <glyph glyph-name="L" unicode="L" horiz-adv-x="324" 
d="M40 0l93 664h91l-82 -585h171l-11 -79h-262z" />
    <glyph glyph-name="M" unicode="M" horiz-adv-x="667" 
d="M538 0l72 518q1 5 1 9v8q0 34 -20 51.5t-55 17.5q-24 0 -43.5 -6t-33.5 -16l-81 -582h-86l81 577q-11 14 -34.5 20.5t-45.5 6.5q-25 0 -45.5 -4.5t-34.5 -10.5l-82 -589h-91l91 651q26 9 69.5 19t97.5 10q38 0 73.5 -10t51.5 -28q21 15 53.5 26.5t77.5 11.5
q32 0 59.5 -7.5t47.5 -23.5t31 -41t11 -59q0 -8 -0.5 -16.5t-1.5 -16.5l-72 -516h-91z" />
    <glyph glyph-name="N" unicode="N" horiz-adv-x="444" 
d="M316 0l73 521q1 5 1 9v9q0 37 -23 51t-58 14q-34 0 -57 -4.5t-39 -10.5l-82 -589h-91l91 651q28 9 73.5 19t117.5 10q36 0 65.5 -7t50 -23t32 -43t11.5 -67v-10.5t-2 -10.5l-72 -519h-91z" />
    <glyph glyph-name="O" unicode="O" 
d="M106 518q7 46 26 77.5t46.5 50t61.5 26.5t72 8q36 0 66 -7t51 -23.5t33 -44t12 -67.5v-10t-2 -10l-52 -373q-6 -47 -25 -78t-47 -49.5t-62.5 -26.5t-71.5 -8q-34 0 -63.5 6.5t-51.5 21.5t-35 39.5t-13 60.5q0 16 3 34zM381 518q1 8 1.5 14.5t0.5 11.5q0 36 -20 48t-62 12
q-24 0 -42 -3.5t-30.5 -13t-20 -26.5t-11.5 -43l-52 -373q-1 -7 -1.5 -13t-0.5 -11q0 -35 20 -47t62 -12q48 0 73 16.5t31 66.5z" />
    <glyph glyph-name="P" unicode="P" horiz-adv-x="424" 
d="M40 0l93 664h210q72 0 100.5 -29t28.5 -95q0 -19 -1.5 -40.5t-5.5 -46.5q-8 -56 -20 -96t-32 -65.5t-51.5 -37.5t-77.5 -12h-119l-34 -242h-91zM277 314q25 0 42 9t28.5 26.5t18.5 43t12 59.5q2 19 4 34.5t2 29.5q0 38 -15.5 55t-53.5 17h-102l-38 -274h102z" />
    <glyph glyph-name="Q" unicode="Q" 
d="M242 -102l-16 105h-9q-34 0 -63.5 6.5t-51.5 21.5t-35 39.5t-13 60.5q0 16 3 34l49 353q6 46 25 77.5t47 50t62.5 26.5t71.5 8q36 0 66 -7t51 -23.5t33 -44t12 -67.5v-10t-2 -10l-49 -353q-9 -63 -39 -97.5t-72 -49.5l22 -120h-92zM381 518q1 8 1.5 14.5t0.5 11.5
q0 36 -20 48t-62 12q-24 0 -42 -3.5t-30.5 -13t-20 -26.5t-11.5 -43l-49 -353q-2 -5 -2 -8.5v-7.5q0 -21 4 -34t13.5 -20.5t25.5 -10t39 -2.5q47 0 72.5 16.5t31.5 66.5z" />
    <glyph glyph-name="R" unicode="R" horiz-adv-x="431" 
d="M307 0l30 220q1 5 1 10.5v10.5q0 24 -12 39.5t-44 15.5h-113l-41 -296h-88l93 664h227q32 0 53 -9t33.5 -25t17.5 -36.5t5 -43.5q0 -32 -6 -67t-19 -65.5t-33.5 -52.5t-50.5 -29q38 -8 52.5 -33.5t14.5 -61.5q0 -18 -3 -39l-28 -202h-89zM293 368q24 0 40.5 13.5t27 35
t15 48.5t4.5 55q0 31 -13 49.5t-49 18.5h-108l-31 -220h114z" />
    <glyph glyph-name="S" unicode="S" horiz-adv-x="401" 
d="M357 466l7 47q1 8 1.5 15t0.5 13q0 37 -18 50t-54 13q-26 0 -44 -4t-30 -15t-19.5 -31t-11.5 -52q-3 -20 -3 -33q0 -17 5 -29t16 -21.5t30 -17t47 -15.5q35 -11 58.5 -24t37.5 -30t20 -39t6 -51q0 -54 -9 -101.5t-32.5 -82.5t-65 -55t-105.5 -20q-72 0 -110.5 28
t-38.5 97q0 18 3 39l13 89h81l-12 -86q-2 -5 -2 -9v-9q0 -21 4 -34.5t13 -21.5t24.5 -11t38.5 -3q24 0 41 4t28.5 15.5t19 31.5t12.5 53q2 19 3.5 34t1.5 28q0 21 -5 35t-16.5 24t-31 18t-47.5 17q-63 20 -91 52.5t-28 87.5q0 48 11 88t35.5 69t64.5 45t99 16
q68 0 104.5 -27t36.5 -100v-10.5t-2 -10.5l-9 -66h-78z" />
    <glyph glyph-name="T" unicode="T" horiz-adv-x="361" 
d="M135 0l82 588h-122l11 76h335l-11 -76h-123l-82 -588h-90z" />
    <glyph glyph-name="U" unicode="U" horiz-adv-x="444" 
d="M406 664h91l-92 -652q-26 -9 -73 -19t-117 -10q-33 0 -62.5 6t-51.5 21t-34.5 39.5t-12.5 60.5q0 16 3 34l73 520h91l-73 -520q-1 -5 -1.5 -9.5t-0.5 -8.5q0 -36 23 -50t58 -14q34 0 57.5 4.5t38.5 9.5z" />
    <glyph glyph-name="V" unicode="V" 
d="M404 664h89l-60 -426q-8 -55 -28.5 -95t-50 -69t-65.5 -50.5t-75 -39.5q-29 16 -56 34.5t-48 43t-33.5 56.5t-12.5 76q0 20 3 44l60 426h92l-61 -435q-3 -17 -3 -31q0 -24 6 -42t16.5 -31.5t24 -23.5t27.5 -19q20 10 38.5 22.5t33.5 29t26 39.5t16 56z" />
    <glyph glyph-name="W" unicode="W" horiz-adv-x="649" 
d="M618 664h89l-60 -427q-8 -56 -27.5 -95.5t-47 -68.5t-60.5 -50t-68 -39q-37 26 -64.5 57t-40.5 70q-20 -39 -58 -70t-83 -57q-26 15 -50.5 33t-43 42t-30 56t-11.5 74q0 28 4 48l60 427h92l-60 -427q-3 -20 -3 -37q0 -45 16.5 -72.5t41.5 -45.5q38 21 65 56.5t36 98.5
l60 427h86l-60 -427q-3 -20 -3 -36q0 -46 17.5 -73.5t42.5 -45.5q40 21 65.5 56.5t34.5 98.5z" />
    <glyph glyph-name="X" unicode="X" horiz-adv-x="438" 
d="M333 0l-74 279l-153 -279h-95l193 344l-94 320h96l69 -268l145 268h91l-183 -316l99 -348h-94z" />
    <glyph glyph-name="Y" unicode="Y" horiz-adv-x="421" 
d="M166 0l32 234q-22 15 -42 32.5t-35 39.5t-24 50t-9 63q0 11 1 22t3 23l28 200h92l-30 -209q-2 -5 -2 -9.5v-9.5q0 -29 5.5 -49t15 -34.5t23 -26t29.5 -21.5q20 10 38.5 23t33.5 30t26 40.5t16 56.5l30 209h89l-28 -200q-6 -47 -22 -82t-38.5 -62.5t-50.5 -48t-58 -37.5
l-32 -234h-91z" />
    <glyph glyph-name="Z" unicode="Z" horiz-adv-x="391" 
d="M25 0l12 88l306 500h-226l11 76h324l-9 -65l-305 -520h232l-11 -79h-334z" />
    <glyph glyph-name="bracketleft" unicode="[" horiz-adv-x="317" 
d="M72 -130l120 849h214l-10 -69h-138l-100 -712h138l-10 -68h-214z" />
    <glyph glyph-name="backslash" unicode="\" horiz-adv-x="290" 
d="M219 0l-126 664h73l124 -664h-71z" />
    <glyph glyph-name="bracketright" unicode="]" horiz-adv-x="312" 
d="M-6 -130l9 68h139l100 712h-139l10 69h214l-120 -849h-213z" />
    <glyph glyph-name="asciicircum" unicode="^" horiz-adv-x="335" 
d="M307 473l-56 130l-94 -130h-63l144 191h43l90 -191h-64z" />
    <glyph glyph-name="underscore" unicode="_" horiz-adv-x="352" 
d="M-17 -117l6 44h354l-6 -44h-354z" />
    <glyph glyph-name="grave" unicode="`" horiz-adv-x="305" 
d="M130 644l9 66l206 -131l-6 -45z" />
    <glyph glyph-name="a" unicode="a" horiz-adv-x="406" 
d="M370 11q-25 -12 -62 -20t-103 -8q-82 0 -123 28.5t-41 101.5v9.5t2 9.5l5 36q5 39 21.5 64t40 39t52.5 19.5t59 5.5q36 0 61.5 -8.5t39.5 -17.5l11 77q1 3 1 6.5v6.5q0 30 -20.5 48t-58.5 18q-45 0 -78.5 -7.5t-71.5 -21.5l12 83q27 11 63.5 18t90.5 7q32 0 59.5 -6
t47.5 -20.5t31 -38t11 -58.5q0 -8 -0.5 -16t-1.5 -17zM314 213q-14 11 -35.5 18t-47.5 7q-40 0 -65.5 -15.5t-30.5 -59.5l-3 -24q-1 -5 -1 -9v-9q0 -32 19.5 -45.5t61.5 -13.5q32 0 51 4t32 10z" />
    <glyph glyph-name="b" unicode="b" horiz-adv-x="399" 
d="M387 139q-6 -45 -23.5 -75t-42.5 -48t-57 -25.5t-66 -7.5q-67 0 -108.5 26t-41.5 94q0 16 3 36l75 533h83l-27 -194q18 11 44 19t66 8q25 0 48.5 -5t41 -18t28 -35.5t10.5 -58.5q0 -18 -3 -39zM333 346q1 5 1 10v10q0 35 -19 47.5t-51 12.5q-33 0 -55.5 -7.5t-37.5 -17.5
l-37 -263q-1 -5 -1 -9v-8q0 -35 20 -47t55 -12q37 0 63.5 16t32.5 60z" />
    <glyph glyph-name="c" unicode="c" horiz-adv-x="392" 
d="M382 139q-6 -45 -22.5 -75t-41.5 -48t-56 -25.5t-66 -7.5q-67 0 -107.5 26t-40.5 94q0 16 3 36l30 210q6 45 22 75t40.5 48t56 25.5t69.5 7.5q69 0 107 -29.5t38 -105.5v-10.5t-2 -10.5l-9 -63h-81l9 63q1 5 1 9v8q0 35 -20.5 47.5t-53.5 12.5q-40 0 -64 -16t-30 -61
l-30 -210q-1 -5 -1 -9.5v-8.5q0 -35 19.5 -47t54.5 -12q37 0 62.5 16t31.5 61l9 67h81z" />
    <glyph glyph-name="d" unicode="d" horiz-adv-x="409" 
d="M81 349q7 48 23 78.5t38.5 47.5t49.5 23.5t56 6.5q40 0 64.5 -8t39.5 -19l27 194h83l-93 -661q-26 -9 -67.5 -18.5t-107.5 -9.5q-32 0 -58.5 6t-46 20t-30.5 37t-11 57q0 16 3 36zM341 401q-12 10 -33 17.5t-54 7.5q-36 0 -60 -16.5t-31 -63.5l-29 -204q-1 -5 -1 -9v-9
q0 -35 20 -48.5t53 -13.5q32 0 53.5 4.5t35.5 9.5z" />
    <glyph glyph-name="e" unicode="e" horiz-adv-x="400" 
d="M364 8q-26 -10 -69.5 -17.5t-97.5 -7.5q-32 0 -59 6t-47 20t-31.5 37t-11.5 58q0 15 3 35l30 210q6 45 22.5 75t41 48t56 25.5t69.5 7.5q31 0 58.5 -6t47.5 -20.5t31.5 -38.5t11.5 -59q0 -8 -0.5 -16t-1.5 -16l-20 -142h-253l-9 -60q-1 -5 -1 -9.5v-9.5q0 -38 23.5 -49.5
t65.5 -11.5q50 0 85 7t67 18zM334 349q1 5 1 8.5v7.5q0 61 -76 61q-46 0 -68 -19.5t-27 -57.5l-10 -68h170z" />
    <glyph glyph-name="f" unicode="f" horiz-adv-x="267" 
d="M70 0l60 431h-50l9 61h50l7 49q6 40 21.5 67t38.5 43t51 22.5t59 6.5q7 0 12 -0.5t10 -1.5l-11 -77q-9 3 -21 3q-29 0 -51 -16.5t-27 -54.5l-5 -41h86l-9 -61h-86l-60 -431h-84z" />
    <glyph glyph-name="g" unicode="g" horiz-adv-x="402" 
d="M288 24q-18 -11 -44.5 -19t-66.5 -8q-26 0 -49 5t-40 18t-27.5 35.5t-10.5 57.5q0 17 3 40l28 196q6 45 23 75t41.5 48t56 25.5t67.5 7.5q73 0 111.5 -29.5t38.5 -105.5v-10.5t-2 -10.5l-63 -444q-6 -43 -23 -72t-41.5 -46.5t-56.5 -25t-68 -7.5q-30 0 -55.5 6t-44 19.5
t-29 36t-10.5 55.5q0 16 3 34l6 39h78l-6 -39q-1 -3 -1 -15q0 -32 19 -44.5t51 -12.5q38 0 63.5 16t31.5 56zM334 350q1 5 1 9v8q0 34 -20.5 46.5t-55.5 12.5q-39 0 -64 -15.5t-31 -60.5l-28 -194q-1 -5 -1 -9.5v-9.5q0 -36 19 -48.5t51 -12.5q33 0 56 7.5t38 17.5z" />
    <glyph glyph-name="h" unicode="h" horiz-adv-x="413" 
d="M293 0l48 346q1 5 1 10.5v10.5q0 35 -19 47t-50 12q-33 0 -56 -7.5t-37 -17.5l-56 -401h-84l94 672h84l-27 -194q17 11 43.5 19t65.5 8q25 0 48.5 -5t41.5 -18t28.5 -35.5t10.5 -58.5q0 -18 -3 -39l-49 -349h-84z" />
    <glyph glyph-name="i" unicode="i" horiz-adv-x="172" 
d="M44 0l69 492h84l-69 -492h-84zM120 551l17 121h86l-17 -121h-86z" />
    <glyph glyph-name="j" unicode="j" horiz-adv-x="220" 
d="M-17 -154q9 -3 19 -3q30 0 51.5 16.5t26.5 54.5l82 578h82l-83 -586q-6 -41 -21.5 -67.5t-38 -42.5t-50 -22.5t-57.5 -6.5q-7 0 -12 0.5t-10 1.5zM169 551l17 121h85l-17 -121h-85z" />
    <glyph glyph-name="k" unicode="k" horiz-adv-x="420" 
d="M304 0l-145 252l-35 -252h-84l94 672h84l-55 -392l197 212h105l-218 -221l162 -271h-105z" />
    <glyph glyph-name="l" unicode="l" horiz-adv-x="164" 
d="M40 0l94 672h84l-94 -672h-84z" />
    <glyph glyph-name="m" unicode="m" horiz-adv-x="594" 
d="M474 0l50 362q0 3 0.5 6t0.5 6q0 26 -17 39t-46 13q-43 0 -66 -17l-57 -409h-80l56 404q-8 11 -27 16.5t-39 5.5q-42 0 -67 -11l-58 -415h-84l67 480q23 8 59.5 16.5t87.5 8.5q31 0 61.5 -6.5t42.5 -20.5q18 12 47.5 19.5t68.5 7.5q61 0 99 -26.5t38 -86.5
q0 -7 -0.5 -13.5t-1.5 -14.5l-51 -364h-84z" />
    <glyph glyph-name="n" unicode="n" horiz-adv-x="413" 
d="M293 0l48 346q1 5 1 9.5v9.5q0 35 -20 48t-53 13q-32 0 -52.5 -4t-35.5 -10l-57 -412h-84l67 477q26 9 67 18.5t107 9.5q32 0 59 -6t46.5 -20t30.5 -37.5t11 -58.5q0 -8 -0.5 -16.5t-1.5 -17.5l-49 -349h-84z" />
    <glyph glyph-name="o" unicode="o" horiz-adv-x="400" 
d="M387 139q-6 -45 -23.5 -75t-43 -48t-57 -25.5t-66.5 -7.5q-33 0 -60.5 6t-47 20t-30.5 37t-11 57q0 16 3 36l30 210q6 45 22.5 75t41 48t56 25.5t69.5 7.5q31 0 58.5 -6t47.5 -20.5t31.5 -38.5t11.5 -59q0 -8 -0.5 -16t-1.5 -16zM334 349q1 5 1 8.5v7.5q0 35 -21.5 48
t-54.5 13q-40 0 -64.5 -16t-30.5 -61l-30 -210q-1 -5 -1 -9v-9q0 -34 20 -46.5t55 -12.5q37 0 63 16t33 61z" />
    <glyph glyph-name="p" unicode="p" horiz-adv-x="402" 
d="M0 -233l99 710q26 9 67 18.5t107 9.5q69 0 107.5 -29t38.5 -106v-10.5t-2 -10.5l-30 -210q-7 -48 -23 -78.5t-38.5 -47.5t-50 -23.5t-56.5 -6.5q-40 0 -64 8t-39 19l-34 -243h-82zM333 346q1 5 1 9.5v9.5q0 34 -20.5 47.5t-52.5 13.5t-53.5 -4.5t-35.5 -9.5l-45 -325
q12 -10 32.5 -17.5t53.5 -7.5q37 0 60.5 16.5t30.5 63.5z" />
    <glyph glyph-name="q" unicode="q" horiz-adv-x="418" 
d="M252 -233l34 243q-18 -11 -44.5 -19t-66.5 -8q-26 0 -49 5t-40 18t-27.5 35.5t-10.5 57.5q0 17 3 40l30 210q6 45 23 75t41.5 48t56 25.5t67.5 7.5q73 0 111.5 -29.5t38.5 -105.5v-10.5t-2 -10.5l-82 -582h-83zM334 350q1 5 1 9v8q0 34 -20.5 46.5t-55.5 12.5
q-39 0 -64 -15.5t-31 -60.5l-30 -208q-1 -5 -1 -9.5v-9.5q0 -36 19 -48.5t51 -12.5q33 0 56 7.5t38 17.5z" />
    <glyph glyph-name="r" unicode="r" horiz-adv-x="384" 
d="M40 0l67 477q25 9 63 18.5t101 9.5q31 0 57 -5.5t45.5 -18t30.5 -33.5t11 -52q0 -6 -0.5 -12.5t-1.5 -13.5l-9 -63h-75l7 50q1 3 1 14q0 31 -20.5 43t-52.5 12q-30 0 -49.5 -4t-33.5 -10l-57 -412h-84z" />
    <glyph glyph-name="s" unicode="s" horiz-adv-x="398" 
d="M334 347l6 38v9q0 23 -19 29.5t-59 6.5q-24 0 -42.5 -2t-31.5 -9t-19.5 -20t-6.5 -35q0 -23 15.5 -35.5t36.5 -19.5q34 -11 69 -21.5t65 -27.5q26 -15 35.5 -37t9.5 -48q0 -57 -15.5 -94.5t-43 -59t-64 -30t-78.5 -8.5q-28 0 -56 3.5t-50 14.5t-36 31t-14 52q0 5 0.5 10
t1.5 11l8 56h81l-5 -35q-1 -5 -1 -8.5v-7.5q0 -31 20.5 -41.5t62.5 -10.5q24 0 42.5 3.5t31 14t19 28.5t6.5 47q0 14 -5.5 22.5t-16.5 16.5q-18 13 -40.5 21t-45.5 15.5t-45 16t-39 21.5t-27.5 32t-10.5 48q0 52 18.5 83.5t47.5 48.5t64.5 23t68.5 6q26 0 52.5 -3t48 -13
t35 -27.5t13.5 -47.5v-10t-1 -10l-7 -47h-79z" />
    <glyph glyph-name="t" unicode="t" horiz-adv-x="245" 
d="M79 0l60 431h-59l9 61h59l15 112h84l-15 -112h62l-9 -61h-62l-60 -431h-84z" />
    <glyph glyph-name="u" unicode="u" horiz-adv-x="415" 
d="M358 492h83l-68 -481q-26 -9 -67.5 -18.5t-107.5 -9.5q-32 0 -58.5 6t-46 20t-30.5 37t-11 57q0 16 3 36l50 353h84l-50 -350q-1 -5 -1 -9.5v-8.5q0 -35 19.5 -48.5t52.5 -13.5q32 0 53.5 4.5t35.5 9.5z" />
    <glyph glyph-name="v" unicode="v" horiz-adv-x="401" 
d="M355 492h83l-38 -267q-8 -55 -27 -94.5t-46.5 -69t-61 -50.5t-69.5 -39q-27 15 -52 33.5t-43.5 42.5t-30 56t-11.5 74q0 24 4 47l38 267h83l-39 -274q-3 -21 -3 -39q0 -26 5.5 -45t14.5 -32.5t21 -22.5t25 -16q18 8 35 19.5t31.5 29.5t25.5 43.5t16 61.5z" />
    <glyph glyph-name="w" unicode="w" horiz-adv-x="587" 
d="M541 492h83l-40 -280q-8 -51 -25.5 -89t-41.5 -66t-53.5 -48.5t-62.5 -36.5q-40 19 -63.5 48t-33.5 60q-19 -31 -50.5 -60t-76.5 -48q-24 15 -45.5 32t-38 39.5t-26.5 52t-10 69.5q0 24 4 47l40 280h83l-42 -294q-2 -5 -2 -10v-10q0 -47 12.5 -71t38.5 -44
q15 9 28.5 19.5t25 26t20.5 37t14 52.5l42 294h83l-37 -264q-2 -17 -3.5 -31.5t-1.5 -27.5q0 -46 14 -68.5t36 -37.5q14 9 27.5 20t25.5 27t21 37.5t13 50.5z" />
    <glyph glyph-name="x" unicode="x" horiz-adv-x="391" 
d="M287 0l-65 210l-125 -210h-86l153 255l-79 237h92l60 -202l118 202h87l-145 -234l83 -258h-93z" />
    <glyph glyph-name="y" unicode="y" horiz-adv-x="402" 
d="M288 24q-18 -11 -44.5 -19t-66.5 -8q-26 0 -49 5t-40 18t-27.5 35.5t-10.5 57.5q0 17 3 40l48 339h83l-48 -336q-1 -5 -1 -9.5v-9.5q0 -36 19 -48.5t51 -12.5q33 0 56 7.5t38 17.5l55 391h83l-83 -587q-6 -43 -23 -72t-41.5 -46.5t-56.5 -25t-68 -7.5q-30 0 -55.5 6
t-44 19.5t-29 36t-10.5 55.5q0 16 3 34l6 39h78l-6 -39q-1 -3 -1 -15q0 -32 19 -44.5t51 -12.5q38 0 63.5 16t31.5 56z" />
    <glyph glyph-name="z" unicode="z" horiz-adv-x="369" 
d="M24 0l9 71l264 353h-199l10 68h299l-9 -60l-264 -362h220l-9 -70h-321z" />
    <glyph glyph-name="braceleft" unicode="{" horiz-adv-x="327" 
d="M255 -131q-42 0 -69.5 6t-44 18.5t-23 31t-6.5 44.5q0 10 3 32.5t7.5 50t9.5 56.5t9 54q3 22 3 40q0 35 -15.5 49.5t-51.5 14.5l8 58q45 0 65.5 23.5t28.5 81.5q8 74 13 129t22.5 91t53.5 53.5t107 17.5h30l-8 -55h-21q-32 0 -51.5 -5.5t-31 -17t-17 -29.5t-9.5 -43
q-7 -39 -10.5 -84.5t-8.5 -85.5q-7 -45 -36 -72.5t-67 -32.5q33 -5 53.5 -28t20.5 -60q0 -24 -5 -53.5t-11.5 -60t-11.5 -59t-5 -50.5q0 -32 18 -46t68 -14h21l-8 -55h-30z" />
    <glyph glyph-name="bar" unicode="|" horiz-adv-x="230" 
d="M63 -125l121 861h68l-121 -861h-68z" />
    <glyph glyph-name="braceright" unicode="}" horiz-adv-x="329" 
d="M4 -131l8 55h20q31 0 50.5 5.5t31.5 16.5t18 29t10 44q6 40 10 86t9 85q6 45 35 72.5t67 32.5q-33 5 -53.5 27t-20.5 58q0 24 5.5 54t11.5 60.5t11.5 59t5.5 49.5q0 32 -18.5 47t-68.5 15h-20l8 55h30q42 0 69 -6t43.5 -18.5t23 -31t6.5 -43.5q0 -11 -3 -33t-7.5 -49
t-9 -56t-8.5 -54q-2 -12 -2.5 -22t-0.5 -18q0 -35 15.5 -50t51.5 -15l-8 -58q-45 0 -65.5 -23t-28.5 -81q-8 -75 -13 -130t-22 -91.5t-54 -54t-107 -17.5h-30z" />
    <glyph glyph-name="asciitilde" unicode="~" horiz-adv-x="579" 
d="M576 318q-35 -35 -71 -51t-82 -16q-29 0 -54 10t-48.5 21.5t-47.5 21.5t-52 10q-42 0 -75.5 -19t-66.5 -56l10 69q25 26 58.5 46.5t78.5 20.5q34 0 61.5 -9.5t51.5 -21.5t47 -21.5t49 -9.5q42 0 78 15.5t73 57.5z" />
    <glyph glyph-name="uni00A0" unicode="&#xa0;" horiz-adv-x="190" 
 />
    <glyph glyph-name="exclamdown" unicode="&#xa1;" horiz-adv-x="205" 
d="M194.007 466.012q-1 -60.9961 -3 -113.493q-2 -52.4961 -6 -101.493t-8.99902 -96.9941q-5 -47.9971 -12 -98.9941q-4.99902 -33.998 -12.999 -54.9961h-95.9941q0 2.99902 -0.5 6.49902t-0.5 6.5q0 8.99902 1 19.499q1 10.499 3 22.498q8 50.9971 15.999 98.9941
q8 47.9971 18.499 96.9941t22.998 101.493q12.5 52.4971 28.499 113.493h49.9971zM241.004 664l-19.999 -145.991h-89.9951l19.999 145.991h89.9951z" />
    <glyph glyph-name="cent" unicode="&#xa2;" horiz-adv-x="399" 
d="M166 0l10 75q-52 6 -82.5 32.5t-30.5 85.5q0 17 3 37l29 210q11 78 52 113t102 41l10 70h68l-10 -70q51 -5 81.5 -32t30.5 -86q0 -17 -3 -36l-9 -63h-81l9 63q1 5 1 9.5v9.5q0 33 -20.5 45.5t-52.5 12.5q-38 0 -63.5 -16t-31.5 -61l-29 -210q-1 -5 -1.5 -10t-0.5 -9
q0 -34 20.5 -46t54.5 -12q36 0 62 16t32 61l9 67h81l-9 -67q-11 -78 -53 -113.5t-100 -41.5l-10 -75h-68z" />
    <glyph glyph-name="sterling" unicode="&#xa3;" horiz-adv-x="429" 
d="M404 21q-30 -38 -77 -38q-18 0 -33 5.5t-30 13t-32 15t-38 10.5q-38 -44 -101 -44q-33 0 -59 17l9 69q22 -9 46 -9q49 0 73 32t24 87q0 29 -8.5 51.5t-19.5 43.5h-83l7 53h56q-16 25 -24 52t-8 62q0 12 1 24.5t3 26.5q12 92 55.5 140t139.5 48q31 0 59 -5.5t49 -18.5
t33 -35.5t12 -56.5q0 -8 -0.5 -15t-1.5 -15l-10 -68h-82l7 49q1 6 1 11.5v10.5q0 36 -20 51.5t-55 15.5q-26 0 -43.5 -5t-29 -18t-18 -34.5t-10.5 -54.5q-2 -14 -3 -27.5t-1 -24.5q0 -39 9 -64.5t23 -48.5h179l-7 -53h-157q10 -19 17.5 -39t7.5 -47q0 -29 -8.5 -56.5
t-22.5 -50.5q20 -3 35.5 -7.5t28 -9t24.5 -7.5t26 -3q19 0 35 7.5t32 24.5z" />
    <glyph glyph-name="currency" unicode="&#xa4;" horiz-adv-x="536" 
d="M413 185q-29 -19 -60 -29.5t-65 -10.5q-35 0 -63 10.5t-50 29.5l-74 -66l-38 45l75 63q-26 41 -26 92q0 42 16 79.5t43 67.5l-56 63l51 44l52 -65q59 41 127 41q67 0 114 -41l71 65l38 -44l-74 -63q12 -20 19 -42.5t7 -48.5q0 -43 -16 -81t-44 -67l58 -63l-51 -45z
M477 347q1 6 1.5 12t0.5 11q0 29 -10.5 54.5t-29 44t-44.5 29t-56 10.5q-36 0 -69 -14.5t-59 -39.5t-41.5 -58.5t-15.5 -70.5q0 -29 10.5 -54.5t29 -44t44 -29t56.5 -10.5q34 0 65 12.5t55.5 34t41 51t21.5 62.5z" />
    <glyph glyph-name="yen" unicode="&#xa5;" 
d="M275 85l-11 -85h-91l11 85h-139l8 52h139l12 84h-139l7 51h139l5 39q-22 15 -42 32.5t-35 39.5t-24 50t-9 63q0 11 1 22t3 23l17 123h92l-19 -132q-2 -5 -2 -9.5v-9.5q0 -29 5.5 -49t15 -34.5t23 -26t29.5 -21.5q20 10 38.5 23t33.5 30t26 40.5t16 56.5l19 132h89
l-17 -123q-6 -47 -22 -82t-38.5 -62.5t-50.5 -48t-58 -37.5l-5 -39h136l-7 -51h-136l-12 -84h136l-8 -52h-136z" />
    <glyph glyph-name="brokenbar" unicode="&#xa6;" horiz-adv-x="365" 
d="M130 -125l52 372h68l-52 -372h-68zM203 397l48 339h68l-48 -339h-68z" />
    <glyph glyph-name="section" unicode="&#xa7;" horiz-adv-x="429" 
d="M126 11q-1 -2 -1 -9q0 -23 19.5 -29.5t59.5 -6.5q24 0 42.5 2t31 9t19 20t6.5 34q0 23 -15.5 36t-35.5 20q-32 10 -64.5 19t-58 23t-41.5 37t-16 61q0 66 32.5 117.5t99.5 70.5q-17 7 -32 15.5t-26.5 20.5t-18 28.5t-6.5 39.5q0 52 18.5 83.5t47.5 48.5t64 23t69 6
q26 0 52.5 -3t47.5 -13t34.5 -27.5t13.5 -47.5v-10t-1 -10l-6 -47h-79l5 38q0 3 0.5 5.5t0.5 4.5q0 22 -19.5 28.5t-58.5 6.5q-49 0 -74.5 -11.5t-25.5 -55.5q0 -22 16 -34.5t36 -19.5q32 -11 64 -20t57.5 -23t41.5 -36.5t16 -60.5q0 -66 -32.5 -117.5t-99.5 -70.5
q17 -7 32 -15.5t26.5 -20.5t18 -28.5t6.5 -38.5q0 -52 -18.5 -84t-47.5 -49t-64 -23t-69 -6q-27 0 -53.5 3t-47.5 13t-34.5 27.5t-13.5 47.5q0 5 0.5 10t1.5 10l6 47h79zM316 373q-8 1 -15 1.5t-14 0.5q-58 0 -90 -31.5t-32 -91.5q0 -26 14 -41.5t54 -15.5q54 0 85 33t31 93
q0 19 -7.5 29.5t-25.5 22.5z" />
    <glyph glyph-name="dieresis" unicode="&#xa8;" horiz-adv-x="408" 
d="M145 554l19 133h82l-19 -133h-82zM334 554l19 133h83l-19 -133h-83z" />
    <glyph glyph-name="ordfeminine" unicode="&#xaa;" horiz-adv-x="253" 
d="M262 299q-17 -8 -38.5 -13t-56.5 -5q-45 0 -69 15t-24 53v8.5t1 9.5l3 19q3 23 12.5 37.5t23 23t30 11.5t33.5 3q18 0 30 -3t20 -8l4 37q0 31 -37 31q-24 0 -43.5 -4t-42.5 -14l8 56q32 17 89 17q35 0 59 -14.5t24 -55.5v-10t-1 -10zM221 407q-8 4 -18.5 7.5t-21.5 3.5
q-17 0 -30 -7t-15 -27l-1 -14q-1 -2 -1 -8q0 -27 39 -27q14 0 23 1.5t15 3.5z" />
    <glyph glyph-name="guillemotleft" unicode="&#xab;" horiz-adv-x="440" 
d="M66 317l161 174l33 -44l-124 -130l88 -130l-46 -42zM286 317l161 174l33 -44l-124 -130l88 -130l-46 -42z" />
    <glyph glyph-name="logicalnot" unicode="&#xac;" horiz-adv-x="611" 
d="M484 0l58 414h-436l11 78h513l-69 -492h-77z" />
    <glyph glyph-name="macron" unicode="&#xaf;" horiz-adv-x="409" 
d="M132 602l8 57h312l-8 -57h-312z" />
    <glyph glyph-name="degree" unicode="&#xb0;" horiz-adv-x="397" 
d="M246 355q-66 0 -94.5 34.5t-28.5 88.5q0 39 10 74.5t31 62t52.5 42t74.5 15.5q67 0 96 -35t29 -89q0 -39 -10.5 -74t-32 -61.5t-53.5 -42t-74 -15.5zM252 396q30 0 52.5 12t37 32t22 46t7.5 55q0 40 -19 65.5t-67 25.5q-30 0 -52 -12t-36.5 -32t-21.5 -46.5t-7 -55.5
q0 -39 19 -64.5t65 -25.5z" />
    <glyph glyph-name="plusminus" unicode="&#xb1;" horiz-adv-x="551" 
d="M259 115l27 198h-197l9 63h197l28 197h63l-28 -197h198l-9 -63h-198l-27 -198h-63zM48 14l9 63h458l-9 -63h-458z" />
    <glyph glyph-name="uni00B2" unicode="&#xb2;" horiz-adv-x="238" 
d="M80 343l12 84q3 24 8.5 40.5t15.5 28t26 20t42 16.5q18 6 30.5 11t19.5 13t10 22.5t3 39.5q0 17 -8 22t-29 5q-28 0 -37.5 -7t-11.5 -24l-4 -30h-39l4 31q3 20 11 33t20.5 21t27.5 11t32 3q43 0 59.5 -14t16.5 -46q0 -57 -19.5 -84.5t-68.5 -40.5q-19 -6 -30 -11
t-17.5 -12t-9.5 -17t-5 -25l-7 -51h123l-6 -39h-169z" />
    <glyph glyph-name="uni00B3" unicode="&#xb3;" horiz-adv-x="234" 
d="M260 415q-6 -45 -32 -63t-68 -18q-37 0 -56.5 13t-19.5 48q0 5 0.5 10t1.5 10l4 30h41l-3 -26q-1 -5 -1 -8.5v-7.5q0 -18 9 -23.5t29 -5.5q23 0 34.5 8t15.5 33l5 36q1 5 1 8.5v6.5q0 17 -8.5 22.5t-26.5 5.5h-27l5 36h27q20 0 31.5 10t14.5 35l3 26q1 5 1 8.5v6.5
q0 17 -8.5 23t-28.5 6q-25 0 -35.5 -9t-15.5 -39l-4 -24h-41l4 29q7 47 30.5 64t66.5 17q37 0 57 -13t20 -47q0 -5 -0.5 -10t-1.5 -11l-3 -27q-2 -21 -15.5 -39.5t-37.5 -23.5q20 -5 29 -18t9 -31q0 -3 -0.5 -6t-0.5 -6z" />
    <glyph glyph-name="acute" unicode="&#xb4;" horiz-adv-x="305" 
d="M115 534l6 45l242 131l-9 -66z" />
    <glyph glyph-name="mu" unicode="&#xb5;" horiz-adv-x="417" 
d="M7 -233l102 725h84l-49 -345q-1 -5 -1 -9.5v-9.5q0 -35 19 -50.5t52 -15.5q32 0 53.5 4.5t35.5 9.5l59 416h83l-68 -481q-26 -9 -62 -18.5t-70 -9.5q-60 0 -86 9.5t-34 21.5l-34 -247h-84z" />
    <glyph glyph-name="mu" unicode="&#x3bc;" horiz-adv-x="417" 
d="M7 -233l102 725h84l-49 -345q-1 -5 -1 -9.5v-9.5q0 -35 19 -50.5t52 -15.5q32 0 53.5 4.5t35.5 9.5l59 416h83l-68 -481q-26 -9 -62 -18.5t-70 -9.5q-60 0 -86 9.5t-34 21.5l-34 -247h-84z" />
    <glyph glyph-name="paragraph" unicode="&#xb6;" horiz-adv-x="506" 
d="M347 -100l99 703h-113l-99 -703h-65l69 491h-35q-42 2 -62 25.5t-20 71.5q0 37 9 69.5t26 56t42 37t57 13.5h306l-9 -61h-42l-99 -703h-64z" />
    <glyph glyph-name="periodcentered" unicode="&#xb7;" horiz-adv-x="222" 
d="M101 260l21 151h92l-21 -151h-92z" />
    <glyph glyph-name="cedilla" unicode="&#xb8;" horiz-adv-x="210" 
d="M65 -34h82l-10 -46q-6 -30 -17 -58.5t-25 -51t-32.5 -37t-39.5 -16.5z" />
    <glyph glyph-name="uni00B9" unicode="&#xb9;" horiz-adv-x="164" 
d="M131 343l36 253v8q0 19 -11.5 26t-28.5 7q-9 0 -11 -1l6 42q2 0 5 0.5t7 0.5q33 0 56.5 -14t23.5 -50v-8t-1 -9l-36 -255h-46z" />
    <glyph glyph-name="ordmasculine" unicode="&#xba;" horiz-adv-x="250" 
d="M271 370q-8 -51 -38 -70t-70 -19q-38 0 -61.5 14.5t-23.5 53.5q0 5 0.5 10t1.5 11l15 113q7 52 37 71t72 19q35 0 59 -15t24 -55v-10t-1 -10zM231 483v8q0 16 -10 21.5t-25 5.5q-18 0 -30 -7t-15 -28l-15 -113q-1 -2 -1 -8q0 -16 9.5 -21.5t26.5 -5.5t29.5 7.5t15.5 27.5
z" />
    <glyph glyph-name="guillemotright" unicode="&#xbb;" horiz-adv-x="440" 
d="M48 187l124 130l-88 130l46 44l112 -174l-161 -172zM268 187l124 130l-88 130l46 44l112 -174l-161 -172z" />
    <glyph glyph-name="onequarter" unicode="&#xbc;" horiz-adv-x="516" 
d="M171 343l36 253v8q0 19 -11.5 26t-28.5 7q-9 0 -11 -1l6 42q2 0 5 0.5t7 0.5q33 0 56.5 -14t23.5 -50v-8t-1 -9l-36 -255h-46zM32 -20l493 704h52l-494 -704h-51zM434 -10l9 66h-128l6 43l135 223h43l-133 -227h84l11 78h42l-26 -183h-43z" />
    <glyph glyph-name="onehalf" unicode="&#xbd;" horiz-adv-x="540" 
d="M171 343l36 253v8q0 19 -11.5 26t-28.5 7q-9 0 -11 -1l6 42q2 0 5 0.5t7 0.5q33 0 56.5 -14t23.5 -50v-8t-1 -9l-36 -255h-46zM32 -20l493 704h52l-494 -704h-51zM332 -10l12 84q3 24 8.5 40.5t15.5 28t26 20t42 16.5q18 6 30.5 11t19.5 13t10 22.5t3 39.5q0 17 -8 22
t-29 5q-28 0 -37.5 -7t-11.5 -24l-4 -30h-39l4 31q3 20 11 33t20.5 21t27.5 11t32 3q43 0 59.5 -14t16.5 -46q0 -57 -19.5 -84.5t-68.5 -40.5q-19 -6 -30 -11t-17.5 -12t-9.5 -17t-5 -25l-7 -51h123l-6 -39h-169z" />
    <glyph glyph-name="threequarters" unicode="&#xbe;" horiz-adv-x="516" 
d="M270 415q-6 -45 -32 -63t-68 -18q-37 0 -56.5 13t-19.5 48q0 5 0.5 10t1.5 10l4 30h41l-3 -26q-1 -5 -1 -8.5v-7.5q0 -18 9 -23.5t29 -5.5q23 0 34.5 8t15.5 33l5 36q1 5 1 8.5v6.5q0 17 -8.5 22.5t-26.5 5.5h-27l5 36h27q20 0 31.5 10t14.5 35l3 26q1 5 1 8.5v6.5
q0 17 -8.5 23t-28.5 6q-25 0 -35.5 -9t-15.5 -39l-4 -24h-41l4 29q7 47 30.5 64t66.5 17q37 0 57 -13t20 -47q0 -5 -0.5 -10t-1.5 -11l-3 -27q-2 -21 -15.5 -39.5t-37.5 -23.5q20 -5 29 -18t9 -31q0 -3 -0.5 -6t-0.5 -6zM32 -20l493 704h52l-494 -704h-51zM414 -10l9 66
h-128l6 43l135 223h43l-133 -227h84l11 78h42l-26 -183h-43z" />
    <glyph glyph-name="questiondown" unicode="&#xbf;" horiz-adv-x="381" 
d="M350.008 664l-19.999 -145.991h-90.9941l19.999 145.991h90.9941zM318.01 455.013l-5 -32.998q-3 -22.998 -8.49902 -40.4971q-5.5 -17.499 -15.499 -32.498q-10 -14.999 -26.499 -28.998q-16.499 -14 -43.4971 -29.999q-25.998 -15.999 -41.9971 -26.998
t-24.999 -22.499q-8.99902 -11.499 -12.999 -24.998t-7 -33.498q-5.99902 -39.9971 -5.99902 -62.9961q0 -36.998 16.499 -47.9971t55.4961 -10.999q25.999 0 43.498 3.5q17.499 3.49902 28.998 13.499q11.499 9.99902 17.999 26.998q6.49902 16.999 10.499 43.9971
l7 49.9971h81.9941l-6.99902 -49.9971q-6 -46.9971 -18.999 -78.4951t-35.498 -50.4971q-22.498 -18.998 -56.4961 -26.998t-82.9951 -8q-80.9951 0 -114.993 24.999q-33.998 24.998 -33.998 90.9941q0 13.999 1.5 29.498t3.5 33.498q6 40.998 13.499 66.9961
q7.5 25.999 19.499 43.9971q11.999 17.999 28.998 30.998q16.999 13 41.9971 25.999q49.9971 27.998 65.9961 50.9971q15.999 22.998 18.999 45.9971l4 26.998h81.9951z" />
    <glyph glyph-name="Agrave" unicode="&#xc0;" 
d="M308 0l34 242h-185l-34 -242h-89l59 426q7 55 28 95t50.5 69.5t66 50.5t74.5 39q28 -16 55 -34.5t48 -43t34 -57t13 -75.5q0 -22 -3 -44l-59 -426h-92zM369 437q1 8 1.5 15t0.5 15q0 25 -6 43t-16 31.5t-23.5 23.5t-27.5 19q-20 -10 -38.5 -22t-34 -29t-26.5 -40.5
t-15 -55.5l-17 -119h185zM199 816l9 66l206 -131l-6 -45z" />
    <glyph glyph-name="Aacute" unicode="&#xc1;" 
d="M308 0l34 242h-185l-34 -242h-89l59 426q7 55 28 95t50.5 69.5t66 50.5t74.5 39q28 -16 55 -34.5t48 -43t34 -57t13 -75.5q0 -22 -3 -44l-59 -426h-92zM369 437q1 8 1.5 15t0.5 15q0 25 -6 43t-16 31.5t-23.5 23.5t-27.5 19q-20 -10 -38.5 -22t-34 -29t-26.5 -40.5
t-15 -55.5l-17 -119h185zM224 706l6 45l242 131l-9 -66z" />
    <glyph glyph-name="Acircumflex" unicode="&#xc2;" 
d="M308 0l34 242h-185l-34 -242h-89l59 426q7 55 28 95t50.5 69.5t66 50.5t74.5 39q28 -16 55 -34.5t48 -43t34 -57t13 -75.5q0 -22 -3 -44l-59 -426h-92zM369 437q1 8 1.5 15t0.5 15q0 25 -6 43t-16 31.5t-23.5 23.5t-27.5 19q-20 -10 -38.5 -22t-34 -29t-26.5 -40.5
t-15 -55.5l-17 -119h185zM339 864l-165 -141l-25 32l162 153h67l118 -153l-33 -32z" />
    <glyph glyph-name="Atilde" unicode="&#xc3;" 
d="M308 0l34 242h-185l-34 -242h-89l59 426q7 55 28 95t50.5 69.5t66 50.5t74.5 39q28 -16 55 -34.5t48 -43t34 -57t13 -75.5q0 -22 -3 -44l-59 -426h-92zM369 437q1 8 1.5 15t0.5 15q0 25 -6 43t-16 31.5t-23.5 23.5t-27.5 19q-20 -10 -38.5 -22t-34 -29t-26.5 -40.5
t-15 -55.5l-17 -119h185zM169 774l8 57h312l-8 -57h-312z" />
    <glyph glyph-name="Adieresis" unicode="&#xc4;" 
d="M308 0l34 242h-185l-34 -242h-89l59 426q7 55 28 95t50.5 69.5t66 50.5t74.5 39q28 -16 55 -34.5t48 -43t34 -57t13 -75.5q0 -22 -3 -44l-59 -426h-92zM369 437q1 8 1.5 15t0.5 15q0 25 -6 43t-16 31.5t-23.5 23.5t-27.5 19q-20 -10 -38.5 -22t-34 -29t-26.5 -40.5
t-15 -55.5l-17 -119h185zM182 726l19 133h82l-19 -133h-82zM371 726l19 133h83l-19 -133h-83z" />
    <glyph glyph-name="Aring" unicode="&#xc5;" 
d="M308 0l34 242h-185l-34 -242h-89l59 426q7 55 28 95t50.5 69.5t66 50.5t74.5 39q28 -16 55 -34.5t48 -43t34 -57t13 -75.5q0 -22 -3 -44l-59 -426h-92zM369 437q1 8 1.5 15t0.5 15q0 25 -6 43t-16 31.5t-23.5 23.5t-27.5 19q-20 -10 -38.5 -22t-34 -29t-26.5 -40.5
t-15 -55.5l-17 -119h185zM428 792q-7 -48 -33.5 -72t-80.5 -24q-87 0 -87 74q0 57 28.5 87.5t85.5 30.5q48 0 68 -19.5t20 -55.5v-10.5t-1 -10.5zM394 792q1 4 1 8v7q0 50 -58 50q-34 0 -53.5 -20t-19.5 -60q0 -49 55 -49q35 0 52.5 16t22.5 48z" />
    <glyph glyph-name="AE" unicode="&#xc6;" horiz-adv-x="527" 
d="M252 0l34 242h-128l-34 -242h-90l59 426q8 58 29.5 102.5t53 74.5t71 45.5t83.5 15.5h257l-11 -76h-154l-28 -202h141l-11 -77h-141l-32 -230h160l-11 -79h-248zM334 588h-15q-52 0 -89 -45t-47 -117l-15 -108h128z" />
    <glyph glyph-name="Ccedilla" unicode="&#xc7;" horiz-adv-x="413" 
d="M338 278h82l-19 -133q-7 -47 -23.5 -78t-41 -49.5t-56.5 -26.5t-69 -8q-33 0 -62.5 6.5t-51 21t-34 39t-12.5 60.5q0 17 3 35l52 373q6 46 24.5 77.5t46 50t61.5 26.5t71 8q33 0 60 -6t46.5 -20.5t30 -38t10.5 -58.5q0 -18 -3 -39l-20 -141h-82l20 141q1 8 1.5 14.5
t0.5 12.5q0 31 -16.5 45t-58.5 14q-50 0 -72.5 -20t-28.5 -66l-52 -373q-1 -6 -1.5 -11.5t-0.5 -10.5q0 -32 18.5 -46.5t60.5 -14.5q49 0 70 20t27 63zM169 -34h82l-10 -46q-6 -30 -17 -58.5t-25 -51t-32.5 -37t-39.5 -16.5z" />
    <glyph glyph-name="Egrave" unicode="&#xc8;" horiz-adv-x="330" 
d="M40 0l93 664h258l-11 -76h-167l-28 -202h154l-11 -77h-154l-32 -230h173l-11 -79h-264zM151 816l9 66l206 -131l-6 -45z" />
    <glyph glyph-name="Eacute" unicode="&#xc9;" horiz-adv-x="330" 
d="M40 0l93 664h258l-11 -76h-167l-28 -202h154l-11 -77h-154l-32 -230h173l-11 -79h-264zM175 706l6 45l242 131l-9 -66z" />
    <glyph glyph-name="Ecircumflex" unicode="&#xca;" horiz-adv-x="330" 
d="M40 0l93 664h258l-11 -76h-167l-28 -202h154l-11 -77h-154l-32 -230h173l-11 -79h-264zM294 864l-165 -141l-25 32l162 153h67l118 -153l-33 -32z" />
    <glyph glyph-name="Edieresis" unicode="&#xcb;" horiz-adv-x="330" 
d="M40 0l93 664h258l-11 -76h-167l-28 -202h154l-11 -77h-154l-32 -230h173l-11 -79h-264zM137 726l19 133h82l-19 -133h-82zM326 726l19 133h83l-19 -133h-83z" />
    <glyph glyph-name="Igrave" unicode="&#xcc;" horiz-adv-x="171" 
d="M40 0l93 664h91l-93 -664h-91zM70 816l9 66l206 -131l-6 -45z" />
    <glyph glyph-name="Iacute" unicode="&#xcd;" horiz-adv-x="171" 
d="M40 0l93 664h91l-93 -664h-91zM95 706l6 45l242 131l-9 -66z" />
    <glyph glyph-name="Icircumflex" unicode="&#xce;" horiz-adv-x="171" 
d="M40 0l93 664h91l-93 -664h-91zM209 864l-165 -141l-25 32l162 153h67l118 -153l-33 -32z" />
    <glyph glyph-name="Idieresis" unicode="&#xcf;" horiz-adv-x="171" 
d="M40 0l93 664h91l-93 -664h-91zM53 726l19 133h82l-19 -133h-82zM242 726l19 133h83l-19 -133h-83z" />
    <glyph glyph-name="Eth" unicode="&#xd0;" horiz-adv-x="442" 
d="M42 0l43 309h-25l11 77h25l39 278h184q33 0 62 -8t50.5 -25.5t34 -45.5t12.5 -68q0 -20 -3 -42l-40 -286q-8 -52 -27.5 -88t-47.5 -58.5t-62.5 -32.5t-71.5 -10h-184zM384 475q3 19 3 35q0 45 -20.5 61.5t-58.5 16.5h-93l-28 -202h102l-11 -77h-102l-32 -230h93
q44 0 71 24t36 86z" />
    <glyph glyph-name="Ntilde" unicode="&#xd1;" horiz-adv-x="444" 
d="M316 0l73 521q1 5 1 9v9q0 37 -23 51t-58 14q-34 0 -57 -4.5t-39 -10.5l-82 -589h-91l91 651q28 9 73.5 19t117.5 10q36 0 65.5 -7t50 -23t32 -43t11.5 -67v-10.5t-2 -10.5l-72 -519h-91zM174 774l8 57h312l-8 -57h-312z" />
    <glyph glyph-name="Ograve" unicode="&#xd2;" 
d="M106 518q7 46 26 77.5t46.5 50t61.5 26.5t72 8q36 0 66 -7t51 -23.5t33 -44t12 -67.5v-10t-2 -10l-52 -373q-6 -47 -25 -78t-47 -49.5t-62.5 -26.5t-71.5 -8q-34 0 -63.5 6.5t-51.5 21.5t-35 39.5t-13 60.5q0 16 3 34zM381 518q1 8 1.5 14.5t0.5 11.5q0 36 -20 48t-62 12
q-24 0 -42 -3.5t-30.5 -13t-20 -26.5t-11.5 -43l-52 -373q-1 -7 -1.5 -13t-0.5 -11q0 -35 20 -47t62 -12q48 0 73 16.5t31 66.5zM199 816l9 66l206 -131l-6 -45z" />
    <glyph glyph-name="Oacute" unicode="&#xd3;" 
d="M106 518q7 46 26 77.5t46.5 50t61.5 26.5t72 8q36 0 66 -7t51 -23.5t33 -44t12 -67.5v-10t-2 -10l-52 -373q-6 -47 -25 -78t-47 -49.5t-62.5 -26.5t-71.5 -8q-34 0 -63.5 6.5t-51.5 21.5t-35 39.5t-13 60.5q0 16 3 34zM381 518q1 8 1.5 14.5t0.5 11.5q0 36 -20 48t-62 12
q-24 0 -42 -3.5t-30.5 -13t-20 -26.5t-11.5 -43l-52 -373q-1 -7 -1.5 -13t-0.5 -11q0 -35 20 -47t62 -12q48 0 73 16.5t31 66.5zM224 706l6 45l242 131l-9 -66z" />
    <glyph glyph-name="Ocircumflex" unicode="&#xd4;" 
d="M106 518q7 46 26 77.5t46.5 50t61.5 26.5t72 8q36 0 66 -7t51 -23.5t33 -44t12 -67.5v-10t-2 -10l-52 -373q-6 -47 -25 -78t-47 -49.5t-62.5 -26.5t-71.5 -8q-34 0 -63.5 6.5t-51.5 21.5t-35 39.5t-13 60.5q0 16 3 34zM381 518q1 8 1.5 14.5t0.5 11.5q0 36 -20 48t-62 12
q-24 0 -42 -3.5t-30.5 -13t-20 -26.5t-11.5 -43l-52 -373q-1 -7 -1.5 -13t-0.5 -11q0 -35 20 -47t62 -12q48 0 73 16.5t31 66.5zM339 864l-165 -141l-25 32l162 153h67l118 -153l-33 -32z" />
    <glyph glyph-name="Otilde" unicode="&#xd5;" 
d="M106 518q7 46 26 77.5t46.5 50t61.5 26.5t72 8q36 0 66 -7t51 -23.5t33 -44t12 -67.5v-10t-2 -10l-52 -373q-6 -47 -25 -78t-47 -49.5t-62.5 -26.5t-71.5 -8q-34 0 -63.5 6.5t-51.5 21.5t-35 39.5t-13 60.5q0 16 3 34zM381 518q1 8 1.5 14.5t0.5 11.5q0 36 -20 48t-62 12
q-24 0 -42 -3.5t-30.5 -13t-20 -26.5t-11.5 -43l-52 -373q-1 -7 -1.5 -13t-0.5 -11q0 -35 20 -47t62 -12q48 0 73 16.5t31 66.5zM169 774l8 57h312l-8 -57h-312z" />
    <glyph glyph-name="Odieresis" unicode="&#xd6;" 
d="M106 518q7 46 26 77.5t46.5 50t61.5 26.5t72 8q36 0 66 -7t51 -23.5t33 -44t12 -67.5v-10t-2 -10l-52 -373q-6 -47 -25 -78t-47 -49.5t-62.5 -26.5t-71.5 -8q-34 0 -63.5 6.5t-51.5 21.5t-35 39.5t-13 60.5q0 16 3 34zM381 518q1 8 1.5 14.5t0.5 11.5q0 36 -20 48t-62 12
q-24 0 -42 -3.5t-30.5 -13t-20 -26.5t-11.5 -43l-52 -373q-1 -7 -1.5 -13t-0.5 -11q0 -35 20 -47t62 -12q48 0 73 16.5t31 66.5zM182 726l19 133h82l-19 -133h-82zM371 726l19 133h83l-19 -133h-83z" />
    <glyph glyph-name="multiply" unicode="&#xd7;" horiz-adv-x="551" 
d="M436 159l-120 140l-159 -139l-39 45l160 139l-121 139l52 45l119 -139l160 140l39 -45l-160 -140l120 -140z" />
    <glyph glyph-name="Oslash" unicode="&#xd8;" 
d="M29 -31l41 71q-19 28 -19 71q0 16 3 34l52 373q6 46 25 77.5t47 50t62.5 26.5t71.5 8q32 0 60.5 -6t50.5 -20l40 68l36 -17l-47 -79q13 -18 17.5 -39t4.5 -50v-9.5t-2 -9.5l-52 -373q-6 -47 -25 -78t-47 -49.5t-62.5 -26.5t-71.5 -8q-35 0 -65 7t-52 22l-35 -61zM378 498
l-232 -401q6 -20 25.5 -27.5t53.5 -7.5q48 0 73 16.5t31 66.5zM378 574q-8 17 -27 23.5t-50 6.5q-24 0 -42 -3.5t-30.5 -13t-20 -26.5t-11.5 -43l-47 -340z" />
    <glyph glyph-name="Ugrave" unicode="&#xd9;" horiz-adv-x="444" 
d="M406 664h91l-92 -652q-26 -9 -73 -19t-117 -10q-33 0 -62.5 6t-51.5 21t-34.5 39.5t-12.5 60.5q0 16 3 34l73 520h91l-73 -520q-1 -5 -1.5 -9.5t-0.5 -8.5q0 -36 23 -50t58 -14q34 0 57.5 4.5t38.5 9.5zM204 816l9 66l206 -131l-6 -45z" />
    <glyph glyph-name="Uacute" unicode="&#xda;" horiz-adv-x="444" 
d="M406 664h91l-92 -652q-26 -9 -73 -19t-117 -10q-33 0 -62.5 6t-51.5 21t-34.5 39.5t-12.5 60.5q0 16 3 34l73 520h91l-73 -520q-1 -5 -1.5 -9.5t-0.5 -8.5q0 -36 23 -50t58 -14q34 0 57.5 4.5t38.5 9.5zM229 706l6 45l242 131l-9 -66z" />
    <glyph glyph-name="Ucircumflex" unicode="&#xdb;" horiz-adv-x="444" 
d="M406 664h91l-92 -652q-26 -9 -73 -19t-117 -10q-33 0 -62.5 6t-51.5 21t-34.5 39.5t-12.5 60.5q0 16 3 34l73 520h91l-73 -520q-1 -5 -1.5 -9.5t-0.5 -8.5q0 -36 23 -50t58 -14q34 0 57.5 4.5t38.5 9.5zM344 864l-165 -141l-25 32l162 153h67l118 -153l-33 -32z" />
    <glyph glyph-name="Udieresis" unicode="&#xdc;" horiz-adv-x="444" 
d="M406 664h91l-92 -652q-26 -9 -73 -19t-117 -10q-33 0 -62.5 6t-51.5 21t-34.5 39.5t-12.5 60.5q0 16 3 34l73 520h91l-73 -520q-1 -5 -1.5 -9.5t-0.5 -8.5q0 -36 23 -50t58 -14q34 0 57.5 4.5t38.5 9.5zM187 726l19 133h82l-19 -133h-82zM376 726l19 133h83l-19 -133h-83
z" />
    <glyph glyph-name="Yacute" unicode="&#xdd;" horiz-adv-x="421" 
d="M166 0l32 234q-22 15 -42 32.5t-35 39.5t-24 50t-9 63q0 11 1 22t3 23l28 200h92l-30 -209q-2 -5 -2 -9.5v-9.5q0 -29 5.5 -49t15 -34.5t23 -26t29.5 -21.5q20 10 38.5 23t33.5 30t26 40.5t16 56.5l30 209h89l-28 -200q-6 -47 -22 -82t-38.5 -62.5t-50.5 -48t-58 -37.5
l-32 -234h-91zM217 706l6 45l242 131l-9 -66z" />
    <glyph glyph-name="Thorn" unicode="&#xde;" horiz-adv-x="422" 
d="M40 0l93 664h91l-16 -113h124q70 0 96.5 -36t26.5 -98q0 -35 -6 -77q-7 -48 -18.5 -87t-31.5 -66.5t-50.5 -42.5t-75.5 -15h-124l-18 -129h-91zM283 201q17 0 29.5 6t21.5 22t15.5 42.5t12.5 68.5q3 24 5 43t2 33q0 36 -11.5 49t-35.5 13h-124l-39 -277h124z" />
    <glyph glyph-name="germandbls" unicode="&#xdf;" horiz-adv-x="536" 
d="M531 136q-10 -79 -48.5 -116t-116.5 -37q-77 0 -105.5 23.5t-28.5 79.5v8.5t2 9.5l8 57h71l-5 -37q-1 -5 -1 -9v-8q0 -24 14.5 -34.5t51.5 -10.5t55.5 15t25.5 57l5 32q3 19 3 34t-3.5 25.5t-10.5 18t-18.5 13t-26.5 12.5q-37 17 -52.5 37.5t-15.5 58.5q-1 9 0.5 19.5
t3.5 22.5l16 116q1 8 1.5 14t0.5 12q0 32 -17 43.5t-54 11.5q-28 0 -44.5 -3.5t-26 -12.5t-14 -24.5t-7.5 -39.5l-73 -524h-84l73 524q6 45 22.5 75t41 48t56 25.5t67.5 7.5q31 0 57.5 -6t46 -20.5t30.5 -37.5t11 -57q0 -17 -3 -35l-13 -95q-2 -12 -3.5 -22.5t-0.5 -19.5
q0 -33 14 -46.5t44 -26.5q34 -14 47 -38t13 -56q0 -10 -1 -21t-3 -22z" />
    <glyph glyph-name="agrave" unicode="&#xe0;" horiz-adv-x="406" 
d="M370 11q-25 -12 -62 -20t-103 -8q-82 0 -123 28.5t-41 101.5v9.5t2 9.5l5 36q5 39 21.5 64t40 39t52.5 19.5t59 5.5q36 0 61.5 -8.5t39.5 -17.5l11 77q1 3 1 6.5v6.5q0 30 -20.5 48t-58.5 18q-45 0 -78.5 -7.5t-71.5 -21.5l12 83q27 11 63.5 18t90.5 7q32 0 59.5 -6
t47.5 -20.5t31 -38t11 -58.5q0 -8 -0.5 -16t-1.5 -17zM314 213q-14 11 -35.5 18t-47.5 7q-40 0 -65.5 -15.5t-30.5 -59.5l-3 -24q-1 -5 -1 -9v-9q0 -32 19.5 -45.5t61.5 -13.5q32 0 51 4t32 10zM161 644l9 66l206 -131l-6 -45z" />
    <glyph glyph-name="aacute" unicode="&#xe1;" horiz-adv-x="406" 
d="M370 11q-25 -12 -62 -20t-103 -8q-82 0 -123 28.5t-41 101.5v9.5t2 9.5l5 36q5 39 21.5 64t40 39t52.5 19.5t59 5.5q36 0 61.5 -8.5t39.5 -17.5l11 77q1 3 1 6.5v6.5q0 30 -20.5 48t-58.5 18q-45 0 -78.5 -7.5t-71.5 -21.5l12 83q27 11 63.5 18t90.5 7q32 0 59.5 -6
t47.5 -20.5t31 -38t11 -58.5q0 -8 -0.5 -16t-1.5 -17zM314 213q-14 11 -35.5 18t-47.5 7q-40 0 -65.5 -15.5t-30.5 -59.5l-3 -24q-1 -5 -1 -9v-9q0 -32 19.5 -45.5t61.5 -13.5q32 0 51 4t32 10zM186 534l6 45l242 131l-9 -66z" />
    <glyph glyph-name="acircumflex" unicode="&#xe2;" horiz-adv-x="406" 
d="M370 11q-25 -12 -62 -20t-103 -8q-82 0 -123 28.5t-41 101.5v9.5t2 9.5l5 36q5 39 21.5 64t40 39t52.5 19.5t59 5.5q36 0 61.5 -8.5t39.5 -17.5l11 77q1 3 1 6.5v6.5q0 30 -20.5 48t-58.5 18q-45 0 -78.5 -7.5t-71.5 -21.5l12 83q27 11 63.5 18t90.5 7q32 0 59.5 -6
t47.5 -20.5t31 -38t11 -58.5q0 -8 -0.5 -16t-1.5 -17zM314 213q-14 11 -35.5 18t-47.5 7q-40 0 -65.5 -15.5t-30.5 -59.5l-3 -24q-1 -5 -1 -9v-9q0 -32 19.5 -45.5t61.5 -13.5q32 0 51 4t32 10zM302 692l-165 -141l-25 32l162 153h67l118 -153l-33 -32z" />
    <glyph glyph-name="atilde" unicode="&#xe3;" horiz-adv-x="406" 
d="M370 11q-25 -12 -62 -20t-103 -8q-82 0 -123 28.5t-41 101.5v9.5t2 9.5l5 36q5 39 21.5 64t40 39t52.5 19.5t59 5.5q36 0 61.5 -8.5t39.5 -17.5l11 77q1 3 1 6.5v6.5q0 30 -20.5 48t-58.5 18q-45 0 -78.5 -7.5t-71.5 -21.5l12 83q27 11 63.5 18t90.5 7q32 0 59.5 -6
t47.5 -20.5t31 -38t11 -58.5q0 -8 -0.5 -16t-1.5 -17zM314 213q-14 11 -35.5 18t-47.5 7q-40 0 -65.5 -15.5t-30.5 -59.5l-3 -24q-1 -5 -1 -9v-9q0 -32 19.5 -45.5t61.5 -13.5q32 0 51 4t32 10zM132 602l8 57h312l-8 -57h-312z" />
    <glyph glyph-name="adieresis" unicode="&#xe4;" horiz-adv-x="406" 
d="M370 11q-25 -12 -62 -20t-103 -8q-82 0 -123 28.5t-41 101.5v9.5t2 9.5l5 36q5 39 21.5 64t40 39t52.5 19.5t59 5.5q36 0 61.5 -8.5t39.5 -17.5l11 77q1 3 1 6.5v6.5q0 30 -20.5 48t-58.5 18q-45 0 -78.5 -7.5t-71.5 -21.5l12 83q27 11 63.5 18t90.5 7q32 0 59.5 -6
t47.5 -20.5t31 -38t11 -58.5q0 -8 -0.5 -16t-1.5 -17zM314 213q-14 11 -35.5 18t-47.5 7q-40 0 -65.5 -15.5t-30.5 -59.5l-3 -24q-1 -5 -1 -9v-9q0 -32 19.5 -45.5t61.5 -13.5q32 0 51 4t32 10zM145 554l19 133h82l-19 -133h-82zM334 554l19 133h83l-19 -133h-83z" />
    <glyph glyph-name="aring" unicode="&#xe5;" horiz-adv-x="406" 
d="M370 11q-25 -12 -62 -20t-103 -8q-82 0 -123 28.5t-41 101.5v9.5t2 9.5l5 36q5 39 21.5 64t40 39t52.5 19.5t59 5.5q36 0 61.5 -8.5t39.5 -17.5l11 77q1 3 1 6.5v6.5q0 30 -20.5 48t-58.5 18q-45 0 -78.5 -7.5t-71.5 -21.5l12 83q27 11 63.5 18t90.5 7q32 0 59.5 -6
t47.5 -20.5t31 -38t11 -58.5q0 -8 -0.5 -16t-1.5 -17zM314 213q-14 11 -35.5 18t-47.5 7q-40 0 -65.5 -15.5t-30.5 -59.5l-3 -24q-1 -5 -1 -9v-9q0 -32 19.5 -45.5t61.5 -13.5q32 0 51 4t32 10zM389 620q-7 -48 -33.5 -72t-80.5 -24q-87 0 -87 74q0 57 28.5 87.5t85.5 30.5
q48 0 68 -19.5t20 -55.5v-10.5t-1 -10.5zM355 620q1 4 1 8v7q0 50 -58 50q-34 0 -53.5 -20t-19.5 -60q0 -49 55 -49q35 0 52.5 16t22.5 48z" />
    <glyph glyph-name="ae" unicode="&#xe6;" horiz-adv-x="654" 
d="M618 8q-26 -10 -69.5 -17.5t-97.5 -7.5q-60 0 -98 20q-24 -8 -58.5 -14t-89.5 -6q-82 0 -123 28.5t-41 101.5v9.5t2 9.5l5 36q5 39 21.5 64t40 39t52.5 19.5t59 5.5q36 0 61.5 -8.5t39.5 -17.5l11 77q1 3 1 6.5v6.5q0 30 -20.5 48t-58.5 18q-45 0 -78.5 -7.5t-71.5 -21.5
l12 83q27 11 63.5 18t90.5 7q38 0 69.5 -9t51.5 -30q26 21 59 30t73 9q31 0 58.5 -6t47.5 -20.5t31.5 -38.5t11.5 -59q0 -8 -0.5 -16t-1.5 -16l-20 -142h-253l-10 -65q-1 -5 -1 -8.5v-7.5q0 -37 24 -48t66 -11q50 0 85 7t67 18zM314 213q-14 11 -35.5 18t-47.5 7
q-40 0 -65.5 -15.5t-30.5 -59.5l-3 -24q-1 -5 -1 -9v-9q0 -32 19.5 -45.5t61.5 -13.5q32 0 51 4t32 10zM588 349q1 5 1 8.5v7.5q0 61 -76 61q-46 0 -68 -19.5t-27 -57.5l-10 -68h170z" />
    <glyph glyph-name="ccedilla" unicode="&#xe7;" horiz-adv-x="392" 
d="M382 139q-6 -45 -22.5 -75t-41.5 -48t-56 -25.5t-66 -7.5q-67 0 -107.5 26t-40.5 94q0 16 3 36l30 210q6 45 22 75t40.5 48t56 25.5t69.5 7.5q69 0 107 -29.5t38 -105.5v-10.5t-2 -10.5l-9 -63h-81l9 63q1 5 1 9v8q0 35 -20.5 47.5t-53.5 12.5q-40 0 -64 -16t-30 -61
l-30 -210q-1 -5 -1 -9.5v-8.5q0 -35 19.5 -47t54.5 -12q37 0 62.5 16t31.5 61l9 67h81zM156 -34h82l-10 -46q-6 -30 -17 -58.5t-25 -51t-32.5 -37t-39.5 -16.5z" />
    <glyph glyph-name="egrave" unicode="&#xe8;" horiz-adv-x="400" 
d="M364 8q-26 -10 -69.5 -17.5t-97.5 -7.5q-32 0 -59 6t-47 20t-31.5 37t-11.5 58q0 15 3 35l30 210q6 45 22.5 75t41 48t56 25.5t69.5 7.5q31 0 58.5 -6t47.5 -20.5t31.5 -38.5t11.5 -59q0 -8 -0.5 -16t-1.5 -16l-20 -142h-253l-9 -60q-1 -5 -1 -9.5v-9.5q0 -38 23.5 -49.5
t65.5 -11.5q50 0 85 7t67 18zM334 349q1 5 1 8.5v7.5q0 61 -76 61q-46 0 -68 -19.5t-27 -57.5l-10 -68h170zM158 644l9 66l206 -131l-6 -45z" />
    <glyph glyph-name="eacute" unicode="&#xe9;" horiz-adv-x="400" 
d="M364 8q-26 -10 -69.5 -17.5t-97.5 -7.5q-32 0 -59 6t-47 20t-31.5 37t-11.5 58q0 15 3 35l30 210q6 45 22.5 75t41 48t56 25.5t69.5 7.5q31 0 58.5 -6t47.5 -20.5t31.5 -38.5t11.5 -59q0 -8 -0.5 -16t-1.5 -16l-20 -142h-253l-9 -60q-1 -5 -1 -9.5v-9.5q0 -38 23.5 -49.5
t65.5 -11.5q50 0 85 7t67 18zM334 349q1 5 1 8.5v7.5q0 61 -76 61q-46 0 -68 -19.5t-27 -57.5l-10 -68h170zM183 534l6 45l242 131l-9 -66z" />
    <glyph glyph-name="ecircumflex" unicode="&#xea;" horiz-adv-x="400" 
d="M364 8q-26 -10 -69.5 -17.5t-97.5 -7.5q-32 0 -59 6t-47 20t-31.5 37t-11.5 58q0 15 3 35l30 210q6 45 22.5 75t41 48t56 25.5t69.5 7.5q31 0 58.5 -6t47.5 -20.5t31.5 -38.5t11.5 -59q0 -8 -0.5 -16t-1.5 -16l-20 -142h-253l-9 -60q-1 -5 -1 -9.5v-9.5q0 -38 23.5 -49.5
t65.5 -11.5q50 0 85 7t67 18zM334 349q1 5 1 8.5v7.5q0 61 -76 61q-46 0 -68 -19.5t-27 -57.5l-10 -68h170zM299 692l-165 -141l-25 32l162 153h67l118 -153l-33 -32z" />
    <glyph glyph-name="edieresis" unicode="&#xeb;" horiz-adv-x="400" 
d="M364 8q-26 -10 -69.5 -17.5t-97.5 -7.5q-32 0 -59 6t-47 20t-31.5 37t-11.5 58q0 15 3 35l30 210q6 45 22.5 75t41 48t56 25.5t69.5 7.5q31 0 58.5 -6t47.5 -20.5t31.5 -38.5t11.5 -59q0 -8 -0.5 -16t-1.5 -16l-20 -142h-253l-9 -60q-1 -5 -1 -9.5v-9.5q0 -38 23.5 -49.5
t65.5 -11.5q50 0 85 7t67 18zM334 349q1 5 1 8.5v7.5q0 61 -76 61q-46 0 -68 -19.5t-27 -57.5l-10 -68h170zM142 554l19 133h82l-19 -133h-82zM331 554l19 133h83l-19 -133h-83z" />
    <glyph glyph-name="igrave" unicode="&#xec;" horiz-adv-x="172" 
d="M44 0l69 492h84l-69 -492h-84zM45 644l9 66l206 -131l-6 -45z" />
    <glyph glyph-name="iacute" unicode="&#xed;" horiz-adv-x="172" 
d="M44 0l69 492h84l-69 -492h-84zM70 534l6 45l242 131l-9 -66z" />
    <glyph glyph-name="icircumflex" unicode="&#xee;" horiz-adv-x="172" 
d="M44 0l69 492h84l-69 -492h-84zM185 692l-165 -141l-25 32l162 153h67l118 -153l-33 -32z" />
    <glyph glyph-name="idieresis" unicode="&#xef;" horiz-adv-x="172" 
d="M44 0l69 492h84l-69 -492h-84zM28 554l19 133h82l-19 -133h-82zM217 554l19 133h83l-19 -133h-83z" />
    <glyph glyph-name="eth" unicode="&#xf0;" horiz-adv-x="412" 
d="M395 139q-6 -45 -23 -75t-42 -48t-57 -25.5t-69 -7.5q-32 0 -60 6t-49 20.5t-33 38t-12 58.5q0 15 3 33l23 160q7 49 24.5 79.5t40.5 47.5t51 23t56 6q38 0 58 -10.5t37 -32.5l2 9q1 6 1 12v11q0 51 -22 99l-152 -41l-8 51l133 35q-21 29 -51 51t-65 33h102
q65 -12 106 -59l60 16l9 -50l-43 -12q20 -49 20 -109q0 -16 -1.5 -32.5t-3.5 -34.5zM337 326q-14 23 -32.5 33.5t-50.5 10.5q-35 0 -61 -15.5t-33 -64.5l-20 -143q-1 -5 -1 -8.5v-7.5q0 -36 22 -50t55 -14q38 0 64 17.5t32 62.5z" />
    <glyph glyph-name="ntilde" unicode="&#xf1;" horiz-adv-x="413" 
d="M293 0l48 346q1 5 1 9.5v9.5q0 35 -20 48t-53 13q-32 0 -52.5 -4t-35.5 -10l-57 -412h-84l67 477q26 9 67 18.5t107 9.5q32 0 59 -6t46.5 -20t30.5 -37.5t11 -58.5q0 -8 -0.5 -16.5t-1.5 -17.5l-49 -349h-84zM134 602l8 57h312l-8 -57h-312z" />
    <glyph glyph-name="ograve" unicode="&#xf2;" horiz-adv-x="400" 
d="M387 139q-6 -45 -23.5 -75t-43 -48t-57 -25.5t-66.5 -7.5q-33 0 -60.5 6t-47 20t-30.5 37t-11 57q0 16 3 36l30 210q6 45 22.5 75t41 48t56 25.5t69.5 7.5q31 0 58.5 -6t47.5 -20.5t31.5 -38.5t11.5 -59q0 -8 -0.5 -16t-1.5 -16zM334 349q1 5 1 8.5v7.5q0 35 -21.5 48
t-54.5 13q-40 0 -64.5 -16t-30.5 -61l-30 -210q-1 -5 -1 -9v-9q0 -34 20 -46.5t55 -12.5q37 0 63 16t33 61zM158 644l9 66l206 -131l-6 -45z" />
    <glyph glyph-name="oacute" unicode="&#xf3;" horiz-adv-x="400" 
d="M387 139q-6 -45 -23.5 -75t-43 -48t-57 -25.5t-66.5 -7.5q-33 0 -60.5 6t-47 20t-30.5 37t-11 57q0 16 3 36l30 210q6 45 22.5 75t41 48t56 25.5t69.5 7.5q31 0 58.5 -6t47.5 -20.5t31.5 -38.5t11.5 -59q0 -8 -0.5 -16t-1.5 -16zM334 349q1 5 1 8.5v7.5q0 35 -21.5 48
t-54.5 13q-40 0 -64.5 -16t-30.5 -61l-30 -210q-1 -5 -1 -9v-9q0 -34 20 -46.5t55 -12.5q37 0 63 16t33 61zM183 534l6 45l242 131l-9 -66z" />
    <glyph glyph-name="ocircumflex" unicode="&#xf4;" horiz-adv-x="400" 
d="M387 139q-6 -45 -23.5 -75t-43 -48t-57 -25.5t-66.5 -7.5q-33 0 -60.5 6t-47 20t-30.5 37t-11 57q0 16 3 36l30 210q6 45 22.5 75t41 48t56 25.5t69.5 7.5q31 0 58.5 -6t47.5 -20.5t31.5 -38.5t11.5 -59q0 -8 -0.5 -16t-1.5 -16zM334 349q1 5 1 8.5v7.5q0 35 -21.5 48
t-54.5 13q-40 0 -64.5 -16t-30.5 -61l-30 -210q-1 -5 -1 -9v-9q0 -34 20 -46.5t55 -12.5q37 0 63 16t33 61zM299 692l-165 -141l-25 32l162 153h67l118 -153l-33 -32z" />
    <glyph glyph-name="otilde" unicode="&#xf5;" horiz-adv-x="400" 
d="M387 139q-6 -45 -23.5 -75t-43 -48t-57 -25.5t-66.5 -7.5q-33 0 -60.5 6t-47 20t-30.5 37t-11 57q0 16 3 36l30 210q6 45 22.5 75t41 48t56 25.5t69.5 7.5q31 0 58.5 -6t47.5 -20.5t31.5 -38.5t11.5 -59q0 -8 -0.5 -16t-1.5 -16zM334 349q1 5 1 8.5v7.5q0 35 -21.5 48
t-54.5 13q-40 0 -64.5 -16t-30.5 -61l-30 -210q-1 -5 -1 -9v-9q0 -34 20 -46.5t55 -12.5q37 0 63 16t33 61zM129 602l8 57h312l-8 -57h-312z" />
    <glyph glyph-name="odieresis" unicode="&#xf6;" horiz-adv-x="400" 
d="M387 139q-6 -45 -23.5 -75t-43 -48t-57 -25.5t-66.5 -7.5q-33 0 -60.5 6t-47 20t-30.5 37t-11 57q0 16 3 36l30 210q6 45 22.5 75t41 48t56 25.5t69.5 7.5q31 0 58.5 -6t47.5 -20.5t31.5 -38.5t11.5 -59q0 -8 -0.5 -16t-1.5 -16zM334 349q1 5 1 8.5v7.5q0 35 -21.5 48
t-54.5 13q-40 0 -64.5 -16t-30.5 -61l-30 -210q-1 -5 -1 -9v-9q0 -34 20 -46.5t55 -12.5q37 0 63 16t33 61zM142 554l19 133h82l-19 -133h-82zM331 554l19 133h83l-19 -133h-83z" />
    <glyph glyph-name="divide" unicode="&#xf7;" horiz-adv-x="551" 
d="M89 313l9 63h458l-9 -63h-458zM293 456l21 151h92l-21 -151h-92zM240 82l21 151h92l-21 -151h-92z" />
    <glyph glyph-name="oslash" unicode="&#xf8;" horiz-adv-x="400" 
d="M27 -31l41 61q-20 29 -20 73q0 16 3 36l30 210q6 45 22.5 75t41 48t56 25.5t69.5 7.5q29 0 54 -5t44 -17l38 57l35 -17l-44 -65q22 -29 22 -79q0 -7 -0.5 -14.5t-1.5 -15.5l-30 -210q-6 -45 -23.5 -75t-42.5 -48t-57 -25.5t-67 -7.5q-66 0 -103 22l-35 -54zM336 365
l-191 -284q10 -11 26 -15t37 -4q36 0 62.5 16t33.5 61zM319 409q-10 9 -25.5 13t-34.5 4q-39 0 -63.5 -16t-31.5 -61l-32 -221z" />
    <glyph glyph-name="ugrave" unicode="&#xf9;" horiz-adv-x="415" 
d="M358 492h83l-68 -481q-26 -9 -67.5 -18.5t-107.5 -9.5q-32 0 -58.5 6t-46 20t-30.5 37t-11 57q0 16 3 36l50 353h84l-50 -350q-1 -5 -1 -9.5v-8.5q0 -35 19.5 -48.5t52.5 -13.5q32 0 53.5 4.5t35.5 9.5zM165 644l9 66l206 -131l-6 -45z" />
    <glyph glyph-name="uacute" unicode="&#xfa;" horiz-adv-x="415" 
d="M358 492h83l-68 -481q-26 -9 -67.5 -18.5t-107.5 -9.5q-32 0 -58.5 6t-46 20t-30.5 37t-11 57q0 16 3 36l50 353h84l-50 -350q-1 -5 -1 -9.5v-8.5q0 -35 19.5 -48.5t52.5 -13.5q32 0 53.5 4.5t35.5 9.5zM190 534l6 45l242 131l-9 -66z" />
    <glyph glyph-name="ucircumflex" unicode="&#xfb;" horiz-adv-x="415" 
d="M358 492h83l-68 -481q-26 -9 -67.5 -18.5t-107.5 -9.5q-32 0 -58.5 6t-46 20t-30.5 37t-11 57q0 16 3 36l50 353h84l-50 -350q-1 -5 -1 -9.5v-8.5q0 -35 19.5 -48.5t52.5 -13.5q32 0 53.5 4.5t35.5 9.5zM306 692l-165 -141l-25 32l162 153h67l118 -153l-33 -32z" />
    <glyph glyph-name="udieresis" unicode="&#xfc;" horiz-adv-x="415" 
d="M358 492h83l-68 -481q-26 -9 -67.5 -18.5t-107.5 -9.5q-32 0 -58.5 6t-46 20t-30.5 37t-11 57q0 16 3 36l50 353h84l-50 -350q-1 -5 -1 -9.5v-8.5q0 -35 19.5 -48.5t52.5 -13.5q32 0 53.5 4.5t35.5 9.5zM148 554l19 133h82l-19 -133h-82zM337 554l19 133h83l-19 -133h-83
z" />
    <glyph glyph-name="yacute" unicode="&#xfd;" horiz-adv-x="402" 
d="M288 24q-18 -11 -44.5 -19t-66.5 -8q-26 0 -49 5t-40 18t-27.5 35.5t-10.5 57.5q0 17 3 40l48 339h83l-48 -336q-1 -5 -1 -9.5v-9.5q0 -36 19 -48.5t51 -12.5q33 0 56 7.5t38 17.5l55 391h83l-83 -587q-6 -43 -23 -72t-41.5 -46.5t-56.5 -25t-68 -7.5q-30 0 -55.5 6
t-44 19.5t-29 36t-10.5 55.5q0 16 3 34l6 39h78l-6 -39q-1 -3 -1 -15q0 -32 19 -44.5t51 -12.5q38 0 63.5 16t31.5 56zM184 534l6 45l242 131l-9 -66z" />
    <glyph glyph-name="thorn" unicode="&#xfe;" horiz-adv-x="409" 
d="M7 -233l127 905h84l-27 -194q17 11 43.5 19t65.5 8q25 0 48.5 -5t41.5 -18t28.5 -35.5t10.5 -58.5q0 -18 -3 -39l-30 -210q-7 -48 -23.5 -78.5t-39.5 -47.5t-50.5 -23.5t-55.5 -6.5q-39 0 -63.5 8t-38.5 18l-34 -242h-84zM340 340q1 6 1.5 11t0.5 10q0 35 -19 47t-50 12
q-33 0 -56.5 -7.5t-37.5 -17.5l-43 -303q12 -9 33 -17t54 -8q35 0 59 16.5t31 63.5z" />
    <glyph glyph-name="ydieresis" unicode="&#xff;" horiz-adv-x="402" 
d="M288 24q-18 -11 -44.5 -19t-66.5 -8q-26 0 -49 5t-40 18t-27.5 35.5t-10.5 57.5q0 17 3 40l48 339h83l-48 -336q-1 -5 -1 -9.5v-9.5q0 -36 19 -48.5t51 -12.5q33 0 56 7.5t38 17.5l55 391h83l-83 -587q-6 -43 -23 -72t-41.5 -46.5t-56.5 -25t-68 -7.5q-30 0 -55.5 6
t-44 19.5t-29 36t-10.5 55.5q0 16 3 34l6 39h78l-6 -39q-1 -3 -1 -15q0 -32 19 -44.5t51 -12.5q38 0 63.5 16t31.5 56zM143 554l19 133h82l-19 -133h-82zM332 554l19 133h83l-19 -133h-83z" />
    <glyph glyph-name="Amacron" unicode="&#x100;" 
d="M308 0l34 242h-185l-34 -242h-89l59 426q7 55 28 95t50.5 69.5t66 50.5t74.5 39q28 -16 55 -34.5t48 -43t34 -57t13 -75.5q0 -22 -3 -44l-59 -426h-92zM369 437q1 8 1.5 15t0.5 15q0 25 -6 43t-16 31.5t-23.5 23.5t-27.5 19q-20 -10 -38.5 -22t-34 -29t-26.5 -40.5
t-15 -55.5l-17 -119h185zM169 774l8 57h312l-8 -57h-312z" />
    <glyph glyph-name="amacron" unicode="&#x101;" horiz-adv-x="406" 
d="M370 11q-25 -12 -62 -20t-103 -8q-82 0 -123 28.5t-41 101.5v9.5t2 9.5l5 36q5 39 21.5 64t40 39t52.5 19.5t59 5.5q36 0 61.5 -8.5t39.5 -17.5l11 77q1 3 1 6.5v6.5q0 30 -20.5 48t-58.5 18q-45 0 -78.5 -7.5t-71.5 -21.5l12 83q27 11 63.5 18t90.5 7q32 0 59.5 -6
t47.5 -20.5t31 -38t11 -58.5q0 -8 -0.5 -16t-1.5 -17zM314 213q-14 11 -35.5 18t-47.5 7q-40 0 -65.5 -15.5t-30.5 -59.5l-3 -24q-1 -5 -1 -9v-9q0 -32 19.5 -45.5t61.5 -13.5q32 0 51 4t32 10zM132 602l8 57h312l-8 -57h-312z" />
    <glyph glyph-name="Abreve" unicode="&#x102;" 
d="M308 0l34 242h-185l-34 -242h-89l59 426q7 55 28 95t50.5 69.5t66 50.5t74.5 39q28 -16 55 -34.5t48 -43t34 -57t13 -75.5q0 -22 -3 -44l-59 -426h-92zM369 437q1 8 1.5 15t0.5 15q0 25 -6 43t-16 31.5t-23.5 23.5t-27.5 19q-20 -10 -38.5 -22t-34 -29t-26.5 -40.5
t-15 -55.5l-17 -119h185zM497 888q-6 -42 -23.5 -73t-42 -51.5t-54 -31t-59.5 -10.5q-60 0 -97 36.5t-37 110.5v9.5t2 9.5h52q-1 -5 -1 -10v-10q0 -48 24 -72t64 -24q43 0 76.5 28t42.5 88h53z" />
    <glyph glyph-name="abreve" unicode="&#x103;" horiz-adv-x="406" 
d="M370 11q-25 -12 -62 -20t-103 -8q-82 0 -123 28.5t-41 101.5v9.5t2 9.5l5 36q5 39 21.5 64t40 39t52.5 19.5t59 5.5q36 0 61.5 -8.5t39.5 -17.5l11 77q1 3 1 6.5v6.5q0 30 -20.5 48t-58.5 18q-45 0 -78.5 -7.5t-71.5 -21.5l12 83q27 11 63.5 18t90.5 7q32 0 59.5 -6
t47.5 -20.5t31 -38t11 -58.5q0 -8 -0.5 -16t-1.5 -17zM314 213q-14 11 -35.5 18t-47.5 7q-40 0 -65.5 -15.5t-30.5 -59.5l-3 -24q-1 -5 -1 -9v-9q0 -32 19.5 -45.5t61.5 -13.5q32 0 51 4t32 10zM460 716q-6 -42 -23.5 -73t-42 -51.5t-54 -31t-59.5 -10.5q-60 0 -97 36.5
t-37 110.5v9.5t2 9.5h52q-1 -5 -1 -10v-10q0 -48 24 -72t64 -24q43 0 76.5 28t42.5 88h53z" />
    <glyph glyph-name="Aogonek" unicode="&#x104;" 
d="M367 -229q-5 -2 -16.5 -3t-34.5 -1q-34 0 -56 6t-34.5 16.5t-17.5 24.5t-5 31q0 51 21 84t75 52l56 19h-47l34 242h-185l-34 -242h-89l59 426q7 55 28 95t50.5 69.5t66 50.5t74.5 39q28 -16 55 -34.5t48 -43t34 -57t13 -75.5q0 -22 -3 -44l-59 -426l-67 -27
q-34 -14 -47.5 -35t-13.5 -51q0 -21 13 -33t49 -12q32 0 44 4zM369 437q1 8 1.5 15t0.5 15q0 25 -6 43t-16 31.5t-23.5 23.5t-27.5 19q-20 -10 -38.5 -22t-34 -29t-26.5 -40.5t-15 -55.5l-17 -119h185z" />
    <glyph glyph-name="aogonek" unicode="&#x105;" horiz-adv-x="406" 
d="M306 -229q-5 -2 -16.5 -3t-34.5 -1q-34 0 -56 6t-34.5 16.5t-17.5 24.5t-5 31q0 52 21 84.5t75 51.5l8 3q-9 0 -19.5 -0.5t-21.5 -0.5q-82 0 -123 28.5t-41 101.5v9.5t2 9.5l5 36q5 39 21.5 64t40 39t52.5 19.5t59 5.5q36 0 61.5 -8.5t39.5 -17.5l11 77q1 3 1 6.5v6.5
q0 30 -20.5 48t-58.5 18q-45 0 -78.5 -7.5t-71.5 -21.5l12 83q27 11 63.5 18t90.5 7q32 0 59.5 -6t47.5 -20.5t31 -38t11 -58.5q0 -8 -0.5 -16t-1.5 -17l-48 -338q-5 -3 -11 -5.5t-16.5 -6.5t-27.5 -10t-43 -16q-34 -13 -47.5 -34.5t-13.5 -51.5q0 -21 13 -33t49 -12
q32 0 44 4zM314 213q-14 11 -35.5 18t-47.5 7q-40 0 -65.5 -15.5t-30.5 -59.5l-3 -24q-1 -5 -1 -9v-9q0 -32 19.5 -45.5t61.5 -13.5q32 0 51 4t32 10z" />
    <glyph glyph-name="Cacute" unicode="&#x106;" horiz-adv-x="413" 
d="M338 278h82l-19 -133q-7 -47 -23.5 -78t-41 -49.5t-56.5 -26.5t-69 -8q-33 0 -62.5 6.5t-51 21t-34 39t-12.5 60.5q0 17 3 35l52 373q6 46 24.5 77.5t46 50t61.5 26.5t71 8q33 0 60 -6t46.5 -20.5t30 -38t10.5 -58.5q0 -18 -3 -39l-20 -141h-82l20 141q1 8 1.5 14.5
t0.5 12.5q0 31 -16.5 45t-58.5 14q-50 0 -72.5 -20t-28.5 -66l-52 -373q-1 -6 -1.5 -11.5t-0.5 -10.5q0 -32 18.5 -46.5t60.5 -14.5q49 0 70 20t27 63zM213 706l6 45l242 131l-9 -66z" />
    <glyph glyph-name="cacute" unicode="&#x107;" horiz-adv-x="392" 
d="M382 139q-6 -45 -22.5 -75t-41.5 -48t-56 -25.5t-66 -7.5q-67 0 -107.5 26t-40.5 94q0 16 3 36l30 210q6 45 22 75t40.5 48t56 25.5t69.5 7.5q69 0 107 -29.5t38 -105.5v-10.5t-2 -10.5l-9 -63h-81l9 63q1 5 1 9v8q0 35 -20.5 47.5t-53.5 12.5q-40 0 -64 -16t-30 -61
l-30 -210q-1 -5 -1 -9.5v-8.5q0 -35 19.5 -47t54.5 -12q37 0 62.5 16t31.5 61l9 67h81zM179 534l6 45l242 131l-9 -66z" />
    <glyph glyph-name="Ccircumflex" unicode="&#x108;" horiz-adv-x="413" 
d="M338 278h82l-19 -133q-7 -47 -23.5 -78t-41 -49.5t-56.5 -26.5t-69 -8q-33 0 -62.5 6.5t-51 21t-34 39t-12.5 60.5q0 17 3 35l52 373q6 46 24.5 77.5t46 50t61.5 26.5t71 8q33 0 60 -6t46.5 -20.5t30 -38t10.5 -58.5q0 -18 -3 -39l-20 -141h-82l20 141q1 8 1.5 14.5
t0.5 12.5q0 31 -16.5 45t-58.5 14q-50 0 -72.5 -20t-28.5 -66l-52 -373q-1 -6 -1.5 -11.5t-0.5 -10.5q0 -32 18.5 -46.5t60.5 -14.5q49 0 70 20t27 63zM330 864l-165 -141l-25 32l162 153h67l118 -153l-33 -32z" />
    <glyph glyph-name="ccircumflex" unicode="&#x109;" horiz-adv-x="392" 
d="M382 139q-6 -45 -22.5 -75t-41.5 -48t-56 -25.5t-66 -7.5q-67 0 -107.5 26t-40.5 94q0 16 3 36l30 210q6 45 22 75t40.5 48t56 25.5t69.5 7.5q69 0 107 -29.5t38 -105.5v-10.5t-2 -10.5l-9 -63h-81l9 63q1 5 1 9v8q0 35 -20.5 47.5t-53.5 12.5q-40 0 -64 -16t-30 -61
l-30 -210q-1 -5 -1 -9.5v-8.5q0 -35 19.5 -47t54.5 -12q37 0 62.5 16t31.5 61l9 67h81zM295 692l-165 -141l-25 32l162 153h67l118 -153l-33 -32z" />
    <glyph glyph-name="Cdotaccent" unicode="&#x10a;" horiz-adv-x="413" 
d="M338 278h82l-19 -133q-7 -47 -23.5 -78t-41 -49.5t-56.5 -26.5t-69 -8q-33 0 -62.5 6.5t-51 21t-34 39t-12.5 60.5q0 17 3 35l52 373q6 46 24.5 77.5t46 50t61.5 26.5t71 8q33 0 60 -6t46.5 -20.5t30 -38t10.5 -58.5q0 -18 -3 -39l-20 -141h-82l20 141q1 8 1.5 14.5
t0.5 12.5q0 31 -16.5 45t-58.5 14q-50 0 -72.5 -20t-28.5 -66l-52 -373q-1 -6 -1.5 -11.5t-0.5 -10.5q0 -32 18.5 -46.5t60.5 -14.5q49 0 70 20t27 63zM266 726l19 133h82l-19 -133h-82z" />
    <glyph glyph-name="cdotaccent" unicode="&#x10b;" horiz-adv-x="392" 
d="M382 139q-6 -45 -22.5 -75t-41.5 -48t-56 -25.5t-66 -7.5q-67 0 -107.5 26t-40.5 94q0 16 3 36l30 210q6 45 22 75t40.5 48t56 25.5t69.5 7.5q69 0 107 -29.5t38 -105.5v-10.5t-2 -10.5l-9 -63h-81l9 63q1 5 1 9v8q0 35 -20.5 47.5t-53.5 12.5q-40 0 -64 -16t-30 -61
l-30 -210q-1 -5 -1 -9.5v-8.5q0 -35 19.5 -47t54.5 -12q37 0 62.5 16t31.5 61l9 67h81zM232 554l19 133h82l-19 -133h-82z" />
    <glyph glyph-name="Ccaron" unicode="&#x10c;" horiz-adv-x="413" 
d="M338 278h82l-19 -133q-7 -47 -23.5 -78t-41 -49.5t-56.5 -26.5t-69 -8q-33 0 -62.5 6.5t-51 21t-34 39t-12.5 60.5q0 17 3 35l52 373q6 46 24.5 77.5t46 50t61.5 26.5t71 8q33 0 60 -6t46.5 -20.5t30 -38t10.5 -58.5q0 -18 -3 -39l-20 -141h-82l20 141q1 8 1.5 14.5
t0.5 12.5q0 31 -16.5 45t-58.5 14q-50 0 -72.5 -20t-28.5 -66l-52 -373q-1 -6 -1.5 -11.5t-0.5 -10.5q0 -32 18.5 -46.5t60.5 -14.5q49 0 70 20t27 63zM306 703l-151 162l32 33l128 -132l167 132l22 -33z" />
    <glyph glyph-name="ccaron" unicode="&#x10d;" horiz-adv-x="392" 
d="M382 139q-6 -45 -22.5 -75t-41.5 -48t-56 -25.5t-66 -7.5q-67 0 -107.5 26t-40.5 94q0 16 3 36l30 210q6 45 22 75t40.5 48t56 25.5t69.5 7.5q69 0 107 -29.5t38 -105.5v-10.5t-2 -10.5l-9 -63h-81l9 63q1 5 1 9v8q0 35 -20.5 47.5t-53.5 12.5q-40 0 -64 -16t-30 -61
l-30 -210q-1 -5 -1 -9.5v-8.5q0 -35 19.5 -47t54.5 -12q37 0 62.5 16t31.5 61l9 67h81zM271 531l-151 162l32 33l128 -132l167 132l22 -33z" />
    <glyph glyph-name="Dcaron" unicode="&#x10e;" horiz-adv-x="441" 
d="M40 0l93 664h184q33 0 62 -8t50.5 -25.5t34 -45.5t12.5 -68q0 -20 -3 -42l-40 -286q-8 -52 -27.5 -88t-47.5 -58.5t-62.5 -32.5t-71.5 -10h-184zM382 475q3 19 3 35q0 45 -20.5 61.5t-58.5 16.5h-93l-71 -509h93q44 0 71 24t36 86zM310 703l-151 162l32 33l128 -132
l167 132l22 -33z" />
    <glyph glyph-name="dcaron" unicode="&#x10f;" horiz-adv-x="527" 
d="M81 349q7 48 23 78.5t38.5 47.5t49.5 23.5t56 6.5q40 0 64.5 -8t39.5 -19l27 194h83l-93 -661q-26 -9 -67.5 -18.5t-107.5 -9.5q-32 0 -58.5 6t-46 20t-30.5 37t-11 57q0 16 3 36zM341 401q-12 10 -33 17.5t-54 7.5q-36 0 -60 -16.5t-31 -63.5l-29 -204q-1 -5 -1 -9v-9
q0 -35 20 -48.5t53 -13.5q32 0 53.5 4.5t35.5 9.5zM514 672h92l-30 -156q-5 -26 -16.5 -49t-27.5 -41t-35 -29t-38 -12z" />
    <glyph glyph-name="Dcroat" unicode="&#x110;" horiz-adv-x="442" 
d="M42 0l43 309h-25l11 77h25l39 278h184q33 0 62 -8t50.5 -25.5t34 -45.5t12.5 -68q0 -20 -3 -42l-40 -286q-8 -52 -27.5 -88t-47.5 -58.5t-62.5 -32.5t-71.5 -10h-184zM384 475q3 19 3 35q0 45 -20.5 61.5t-58.5 16.5h-93l-28 -202h102l-11 -77h-102l-32 -230h93
q44 0 71 24t36 86z" />
    <glyph glyph-name="dcroat" unicode="&#x111;" horiz-adv-x="409" 
d="M445 552l-76 -541q-26 -9 -67.5 -18.5t-107.5 -9.5q-32 0 -58.5 6t-46 20t-30.5 37t-11 57q0 16 3 36l30 210q7 48 23 78.5t38.5 47.5t49.5 23.5t56 6.5q40 0 64.5 -8t39.5 -19l10 74h-188l8 57h188l9 63h83l-9 -63h41l-8 -57h-41zM341 401q-12 10 -33 17.5t-54 7.5
q-36 0 -60 -16.5t-31 -63.5l-29 -204q-1 -5 -1 -9v-9q0 -35 20 -48.5t53 -13.5q32 0 53.5 4.5t35.5 9.5z" />
    <glyph glyph-name="Emacron" unicode="&#x112;" horiz-adv-x="330" 
d="M40 0l93 664h258l-11 -76h-167l-28 -202h154l-11 -77h-154l-32 -230h173l-11 -79h-264zM124 774l8 57h312l-8 -57h-312z" />
    <glyph glyph-name="emacron" unicode="&#x113;" horiz-adv-x="400" 
d="M364 8q-26 -10 -69.5 -17.5t-97.5 -7.5q-32 0 -59 6t-47 20t-31.5 37t-11.5 58q0 15 3 35l30 210q6 45 22.5 75t41 48t56 25.5t69.5 7.5q31 0 58.5 -6t47.5 -20.5t31.5 -38.5t11.5 -59q0 -8 -0.5 -16t-1.5 -16l-20 -142h-253l-9 -60q-1 -5 -1 -9.5v-9.5q0 -38 23.5 -49.5
t65.5 -11.5q50 0 85 7t67 18zM334 349q1 5 1 8.5v7.5q0 61 -76 61q-46 0 -68 -19.5t-27 -57.5l-10 -68h170zM129 602l8 57h312l-8 -57h-312z" />
    <glyph glyph-name="Ebreve" unicode="&#x114;" horiz-adv-x="330" 
d="M40 0l93 664h258l-11 -76h-167l-28 -202h154l-11 -77h-154l-32 -230h173l-11 -79h-264zM453 888q-6 -42 -23.5 -73t-42 -51.5t-54 -31t-59.5 -10.5q-60 0 -97 36.5t-37 110.5v9.5t2 9.5h52q-1 -5 -1 -10v-10q0 -48 24 -72t64 -24q43 0 76.5 28t42.5 88h53z" />
    <glyph glyph-name="ebreve" unicode="&#x115;" horiz-adv-x="400" 
d="M364 8q-26 -10 -69.5 -17.5t-97.5 -7.5q-32 0 -59 6t-47 20t-31.5 37t-11.5 58q0 15 3 35l30 210q6 45 22.5 75t41 48t56 25.5t69.5 7.5q31 0 58.5 -6t47.5 -20.5t31.5 -38.5t11.5 -59q0 -8 -0.5 -16t-1.5 -16l-20 -142h-253l-9 -60q-1 -5 -1 -9.5v-9.5q0 -38 23.5 -49.5
t65.5 -11.5q50 0 85 7t67 18zM334 349q1 5 1 8.5v7.5q0 61 -76 61q-46 0 -68 -19.5t-27 -57.5l-10 -68h170zM457 716q-6 -42 -23.5 -73t-42 -51.5t-54 -31t-59.5 -10.5q-60 0 -97 36.5t-37 110.5v9.5t2 9.5h52q-1 -5 -1 -10v-10q0 -48 24 -72t64 -24q43 0 76.5 28t42.5 88
h53z" />
    <glyph glyph-name="Edotaccent" unicode="&#x116;" horiz-adv-x="330" 
d="M40 0l93 664h258l-11 -76h-167l-28 -202h154l-11 -77h-154l-32 -230h173l-11 -79h-264zM230 726l19 133h82l-19 -133h-82z" />
    <glyph glyph-name="edotaccent" unicode="&#x117;" horiz-adv-x="400" 
d="M364 8q-26 -10 -69.5 -17.5t-97.5 -7.5q-32 0 -59 6t-47 20t-31.5 37t-11.5 58q0 15 3 35l30 210q6 45 22.5 75t41 48t56 25.5t69.5 7.5q31 0 58.5 -6t47.5 -20.5t31.5 -38.5t11.5 -59q0 -8 -0.5 -16t-1.5 -16l-20 -142h-253l-9 -60q-1 -5 -1 -9.5v-9.5q0 -38 23.5 -49.5
t65.5 -11.5q50 0 85 7t67 18zM334 349q1 5 1 8.5v7.5q0 61 -76 61q-46 0 -68 -19.5t-27 -57.5l-10 -68h170zM236 554l19 133h82l-19 -133h-82z" />
    <glyph glyph-name="Eogonek" unicode="&#x118;" horiz-adv-x="330" 
d="M271 -229q-5 -2 -16.5 -3t-34.5 -1q-34 0 -56 6t-34.5 16.5t-17.5 24.5t-5 31q0 51 21 84t75 52l56 19h-219l93 664h258l-11 -76h-167l-28 -202h154l-11 -77h-154l-32 -230h173l-11 -79l-67 -27q-34 -14 -47.5 -35t-13.5 -51q0 -21 13 -33t49 -12q32 0 44 4z" />
    <glyph glyph-name="eogonek" unicode="&#x119;" horiz-adv-x="400" 
d="M305 -229q-5 -2 -16.5 -3t-34.5 -1q-34 0 -56 6t-34.5 16.5t-17.5 24.5t-5 31q0 52 21 84.5t75 51.5l11 4q-12 -1 -24.5 -1.5t-26.5 -0.5q-32 0 -59 6t-47 20t-31.5 37t-11.5 58q0 15 3 35l30 210q6 45 22.5 75t41 48t56 25.5t69.5 7.5q31 0 58.5 -6t47.5 -20.5
t31.5 -38.5t11.5 -59q0 -8 -0.5 -16t-1.5 -16l-20 -142h-253l-9 -60q-1 -5 -1 -9.5v-9.5q0 -38 23.5 -49.5t65.5 -11.5q50 0 85 7t67 18l-11 -84l-93 -35q-34 -13 -47.5 -34.5t-13.5 -51.5q0 -21 13 -33t49 -12q32 0 44 4zM334 349q1 5 1 8.5v7.5q0 61 -76 61
q-46 0 -68 -19.5t-27 -57.5l-10 -68h170z" />
    <glyph glyph-name="Ecaron" unicode="&#x11a;" horiz-adv-x="330" 
d="M40 0l93 664h258l-11 -76h-167l-28 -202h154l-11 -77h-154l-32 -230h173l-11 -79h-264zM265 703l-151 162l32 33l128 -132l167 132l22 -33z" />
    <glyph glyph-name="ecaron" unicode="&#x11b;" horiz-adv-x="400" 
d="M364 8q-26 -10 -69.5 -17.5t-97.5 -7.5q-32 0 -59 6t-47 20t-31.5 37t-11.5 58q0 15 3 35l30 210q6 45 22.5 75t41 48t56 25.5t69.5 7.5q31 0 58.5 -6t47.5 -20.5t31.5 -38.5t11.5 -59q0 -8 -0.5 -16t-1.5 -16l-20 -142h-253l-9 -60q-1 -5 -1 -9.5v-9.5q0 -38 23.5 -49.5
t65.5 -11.5q50 0 85 7t67 18zM334 349q1 5 1 8.5v7.5q0 61 -76 61q-46 0 -68 -19.5t-27 -57.5l-10 -68h170zM275 531l-151 162l32 33l128 -132l167 132l22 -33z" />
    <glyph glyph-name="Gcircumflex" unicode="&#x11c;" horiz-adv-x="427" 
d="M352 340h85l-46 -328q-26 -9 -68 -19t-112 -10q-33 0 -62.5 6t-51 21t-34 39t-12.5 60q0 17 3 35l52 374q6 46 24.5 77.5t46 50t61.5 26.5t71 8q33 0 60 -6t46.5 -20.5t30 -38t10.5 -58.5q0 -18 -3 -39l-13 -92h-82l13 92q1 8 1.5 14.5t0.5 12.5q0 31 -16.5 45t-58.5 14
q-50 0 -72.5 -20t-28.5 -66l-52 -374q-1 -5 -1.5 -9.5t-0.5 -8.5q0 -36 22.5 -50t58.5 -14q34 0 55 4.5t36 9.5zM337 864l-165 -141l-25 32l162 153h67l118 -153l-33 -32z" />
    <glyph glyph-name="gcircumflex" unicode="&#x11d;" horiz-adv-x="402" 
d="M288 24q-18 -11 -44.5 -19t-66.5 -8q-26 0 -49 5t-40 18t-27.5 35.5t-10.5 57.5q0 17 3 40l28 196q6 45 23 75t41.5 48t56 25.5t67.5 7.5q73 0 111.5 -29.5t38.5 -105.5v-10.5t-2 -10.5l-63 -444q-6 -43 -23 -72t-41.5 -46.5t-56.5 -25t-68 -7.5q-30 0 -55.5 6t-44 19.5
t-29 36t-10.5 55.5q0 16 3 34l6 39h78l-6 -39q-1 -3 -1 -15q0 -32 19 -44.5t51 -12.5q38 0 63.5 16t31.5 56zM334 350q1 5 1 9v8q0 34 -20.5 46.5t-55.5 12.5q-39 0 -64 -15.5t-31 -60.5l-28 -194q-1 -5 -1 -9.5v-9.5q0 -36 19 -48.5t51 -12.5q33 0 56 7.5t38 17.5zM300 692
l-165 -141l-25 32l162 153h67l118 -153l-33 -32z" />
    <glyph glyph-name="Gbreve" unicode="&#x11e;" horiz-adv-x="427" 
d="M352 340h85l-46 -328q-26 -9 -68 -19t-112 -10q-33 0 -62.5 6t-51 21t-34 39t-12.5 60q0 17 3 35l52 374q6 46 24.5 77.5t46 50t61.5 26.5t71 8q33 0 60 -6t46.5 -20.5t30 -38t10.5 -58.5q0 -18 -3 -39l-13 -92h-82l13 92q1 8 1.5 14.5t0.5 12.5q0 31 -16.5 45t-58.5 14
q-50 0 -72.5 -20t-28.5 -66l-52 -374q-1 -5 -1.5 -9.5t-0.5 -8.5q0 -36 22.5 -50t58.5 -14q34 0 55 4.5t36 9.5zM493 888q-6 -42 -23.5 -73t-42 -51.5t-54 -31t-59.5 -10.5q-60 0 -97 36.5t-37 110.5v9.5t2 9.5h52q-1 -5 -1 -10v-10q0 -48 24 -72t64 -24q43 0 76.5 28
t42.5 88h53z" />
    <glyph glyph-name="gbreve" unicode="&#x11f;" horiz-adv-x="402" 
d="M288 24q-18 -11 -44.5 -19t-66.5 -8q-26 0 -49 5t-40 18t-27.5 35.5t-10.5 57.5q0 17 3 40l28 196q6 45 23 75t41.5 48t56 25.5t67.5 7.5q73 0 111.5 -29.5t38.5 -105.5v-10.5t-2 -10.5l-63 -444q-6 -43 -23 -72t-41.5 -46.5t-56.5 -25t-68 -7.5q-30 0 -55.5 6t-44 19.5
t-29 36t-10.5 55.5q0 16 3 34l6 39h78l-6 -39q-1 -3 -1 -15q0 -32 19 -44.5t51 -12.5q38 0 63.5 16t31.5 56zM334 350q1 5 1 9v8q0 34 -20.5 46.5t-55.5 12.5q-39 0 -64 -15.5t-31 -60.5l-28 -194q-1 -5 -1 -9.5v-9.5q0 -36 19 -48.5t51 -12.5q33 0 56 7.5t38 17.5zM458 716
q-6 -42 -23.5 -73t-42 -51.5t-54 -31t-59.5 -10.5q-60 0 -97 36.5t-37 110.5v9.5t2 9.5h52q-1 -5 -1 -10v-10q0 -48 24 -72t64 -24q43 0 76.5 28t42.5 88h53z" />
    <glyph glyph-name="Gdotaccent" unicode="&#x120;" horiz-adv-x="427" 
d="M352 340h85l-46 -328q-26 -9 -68 -19t-112 -10q-33 0 -62.5 6t-51 21t-34 39t-12.5 60q0 17 3 35l52 374q6 46 24.5 77.5t46 50t61.5 26.5t71 8q33 0 60 -6t46.5 -20.5t30 -38t10.5 -58.5q0 -18 -3 -39l-13 -92h-82l13 92q1 8 1.5 14.5t0.5 12.5q0 31 -16.5 45t-58.5 14
q-50 0 -72.5 -20t-28.5 -66l-52 -374q-1 -5 -1.5 -9.5t-0.5 -8.5q0 -36 22.5 -50t58.5 -14q34 0 55 4.5t36 9.5zM273 726l19 133h82l-19 -133h-82z" />
    <glyph glyph-name="gdotaccent" unicode="&#x121;" horiz-adv-x="402" 
d="M288 24q-18 -11 -44.5 -19t-66.5 -8q-26 0 -49 5t-40 18t-27.5 35.5t-10.5 57.5q0 17 3 40l28 196q6 45 23 75t41.5 48t56 25.5t67.5 7.5q73 0 111.5 -29.5t38.5 -105.5v-10.5t-2 -10.5l-63 -444q-6 -43 -23 -72t-41.5 -46.5t-56.5 -25t-68 -7.5q-30 0 -55.5 6t-44 19.5
t-29 36t-10.5 55.5q0 16 3 34l6 39h78l-6 -39q-1 -3 -1 -15q0 -32 19 -44.5t51 -12.5q38 0 63.5 16t31.5 56zM334 350q1 5 1 9v8q0 34 -20.5 46.5t-55.5 12.5q-39 0 -64 -15.5t-31 -60.5l-28 -194q-1 -5 -1 -9.5v-9.5q0 -36 19 -48.5t51 -12.5q33 0 56 7.5t38 17.5zM237 554
l19 133h82l-19 -133h-82z" />
    <glyph glyph-name="uni0122" unicode="&#x122;" horiz-adv-x="427" 
d="M352 340h85l-46 -328q-26 -9 -68 -19t-112 -10q-33 0 -62.5 6t-51 21t-34 39t-12.5 60q0 17 3 35l52 374q6 46 24.5 77.5t46 50t61.5 26.5t71 8q33 0 60 -6t46.5 -20.5t30 -38t10.5 -58.5q0 -18 -3 -39l-13 -92h-82l13 92q1 8 1.5 14.5t0.5 12.5q0 31 -16.5 45t-58.5 14
q-50 0 -72.5 -20t-28.5 -66l-52 -374q-1 -5 -1.5 -9.5t-0.5 -8.5q0 -36 22.5 -50t58.5 -14q34 0 55 4.5t36 9.5zM173 -34h82l-10 -46q-6 -30 -17 -58.5t-25 -51t-32.5 -37t-39.5 -16.5z" />
    <glyph glyph-name="uni0123" unicode="&#x123;" horiz-adv-x="402" 
d="M288 24q-18 -11 -44.5 -19t-66.5 -8q-26 0 -49 5t-40 18t-27.5 35.5t-10.5 57.5q0 17 3 40l28 196q6 45 23 75t41.5 48t56 25.5t67.5 7.5q73 0 111.5 -29.5t38.5 -105.5v-10.5t-2 -10.5l-63 -444q-6 -43 -23 -72t-41.5 -46.5t-56.5 -25t-68 -7.5q-30 0 -55.5 6t-44 19.5
t-29 36t-10.5 55.5q0 16 3 34l6 39h78l-6 -39q-1 -3 -1 -15q0 -32 19 -44.5t51 -12.5q38 0 63.5 16t31.5 56zM334 350q1 5 1 9v8q0 34 -20.5 46.5t-55.5 12.5q-39 0 -64 -15.5t-31 -60.5l-28 -194q-1 -5 -1 -9.5v-9.5q0 -36 19 -48.5t51 -12.5q33 0 56 7.5t38 17.5z
M311.004 538.998h-81.9951l10 45.9971q5.99902 29.998 16.999 58.4961q10.999 28.499 24.998 50.9971q13.999 22.499 32.498 36.998t39.4971 16.499z" />
    <glyph glyph-name="Hcircumflex" unicode="&#x124;" horiz-adv-x="448" 
d="M316 0l41 298h-185l-41 -298h-91l93 664h91l-41 -290h185l41 290h91l-93 -664h-91zM346 864l-165 -141l-25 32l162 153h67l118 -153l-33 -32z" />
    <glyph glyph-name="hcircumflex" unicode="&#x125;" horiz-adv-x="413" 
d="M293 0l48 346q1 5 1 10.5v10.5q0 35 -19 47t-50 12q-33 0 -56 -7.5t-37 -17.5l-56 -401h-84l94 672h84l-27 -194q17 11 43.5 19t65.5 8q25 0 48.5 -5t41.5 -18t28.5 -35.5t10.5 -58.5q0 -18 -3 -39l-49 -349h-84zM337 864l-165 -141l-25 32l162 153h67l118 -153l-33 -32z
" />
    <glyph glyph-name="Hbar" unicode="&#x126;" horiz-adv-x="448" 
d="M316 0l41 298h-185l-41 -298h-91l93 664h91l-18 -126h185l18 126h91l-93 -664h-91zM368 374l15 107h-185l-15 -107h185z" />
    <glyph glyph-name="hbar" unicode="&#x127;" horiz-adv-x="413" 
d="M201 552l-10 -74q17 11 43.5 19t65.5 8q25 0 48.5 -5t41.5 -18t28.5 -35.5t10.5 -58.5q0 -18 -3 -39l-49 -349h-84l48 346q1 5 1 10.5v10.5q0 35 -19 47t-50 12q-33 0 -56 -7.5t-37 -17.5l-56 -401h-84l77 552h-40l8 57h40l9 63h84l-9 -63h188l-8 -57h-188z" />
    <glyph glyph-name="Itilde" unicode="&#x128;" horiz-adv-x="171" 
d="M40 0l93 664h91l-93 -664h-91zM40 774l8 57h312l-8 -57h-312z" />
    <glyph glyph-name="itilde" unicode="&#x129;" horiz-adv-x="172" 
d="M44 0l69 492h84l-69 -492h-84zM15 602l8 57h312l-8 -57h-312z" />
    <glyph glyph-name="Imacron" unicode="&#x12a;" horiz-adv-x="171" 
d="M40 0l93 664h91l-93 -664h-91zM40 774l8 57h312l-8 -57h-312z" />
    <glyph glyph-name="imacron" unicode="&#x12b;" horiz-adv-x="172" 
d="M44 0l69 492h84l-69 -492h-84zM15 602l8 57h312l-8 -57h-312z" />
    <glyph glyph-name="Ibreve" unicode="&#x12c;" horiz-adv-x="171" 
d="M40 0l93 664h91l-93 -664h-91zM367 888q-6 -42 -23.5 -73t-42 -51.5t-54 -31t-59.5 -10.5q-60 0 -97 36.5t-37 110.5v9.5t2 9.5h52q-1 -5 -1 -10v-10q0 -48 24 -72t64 -24q43 0 76.5 28t42.5 88h53z" />
    <glyph glyph-name="ibreve" unicode="&#x12d;" horiz-adv-x="172" 
d="M44 0l69 492h84l-69 -492h-84zM343 716q-6 -42 -23.5 -73t-42 -51.5t-54 -31t-59.5 -10.5q-60 0 -97 36.5t-37 110.5v9.5t2 9.5h52q-1 -5 -1 -10v-10q0 -48 24 -72t64 -24q43 0 76.5 28t42.5 88h53z" />
    <glyph glyph-name="Iogonek" unicode="&#x12e;" horiz-adv-x="171" 
d="M98 -229q-5 -2 -16.5 -3t-34.5 -1q-33 0 -55 6t-34.5 16.5t-17.5 24.5t-5 31q0 51 20.5 84t74.5 52l56 19h-46l93 664h91l-93 -664l-67 -27q-34 -14 -47.5 -35t-13.5 -51q0 -21 13 -33t49 -12q32 0 44 4z" />
    <glyph glyph-name="iogonek" unicode="&#x12f;" horiz-adv-x="172" 
d="M95 -229q-5 -2 -16.5 -3t-34.5 -1q-33 0 -55 6t-34.5 16.5t-17.5 24.5t-5 31q0 51 20.5 84t74.5 52l56 19h-39l69 492h84l-69 -492l-67 -27q-34 -14 -47.5 -35t-13.5 -50q0 -21 12.5 -33.5t49.5 -12.5q32 0 44 4zM120 551l17 121h86l-17 -121h-86z" />
    <glyph glyph-name="Idotaccent" unicode="&#x130;" horiz-adv-x="171" 
d="M40 0l93 664h91l-93 -664h-91zM146 726l19 133h82l-19 -133h-82z" />
    <glyph glyph-name="dotlessi" unicode="&#x131;" horiz-adv-x="172" 
d="M44 0l69 492h84l-69 -492h-84z" />
    <glyph glyph-name="IJ" unicode="&#x132;" horiz-adv-x="439" 
d="M40 0l93 664h91l-93 -664h-91zM205 62q10 -3 22 -3q42 0 68.5 18.5t33.5 63.5l74 523h91l-74 -525q-7 -47 -25.5 -77.5t-45.5 -49.5t-61 -26.5t-71 -7.5q-14 0 -23 3z" />
    <glyph glyph-name="ij" unicode="&#x133;" horiz-adv-x="392" 
d="M44 0l69 492h84l-69 -492h-84zM120 551l17 121h86l-17 -121h-86zM155 -154q9 -3 19 -3q30 0 51.5 16.5t26.5 54.5l82 578h82l-83 -586q-6 -41 -21.5 -67.5t-38 -42.5t-50 -22.5t-57.5 -6.5q-7 0 -12 0.5t-10 1.5zM341 551l17 121h85l-17 -121h-85z" />
    <glyph glyph-name="Jcircumflex" unicode="&#x134;" horiz-adv-x="268" 
d="M34 62q10 -3 22 -3q42 0 68.5 18.5t33.5 63.5l74 523h91l-74 -525q-7 -47 -25.5 -77.5t-45.5 -49.5t-61 -26.5t-71 -7.5q-14 0 -23 3zM238 864l-165 -141l-25 32l162 153h67l118 -153l-33 -32z" />
    <glyph glyph-name="jcircumflex" unicode="&#x135;" horiz-adv-x="220" 
d="M-17 -154q9 -3 19 -3q30 0 51.5 16.5t26.5 54.5l82 578h82l-83 -586q-6 -41 -21.5 -67.5t-38 -42.5t-50 -22.5t-57.5 -6.5q-7 0 -12 0.5t-10 1.5zM189 692l-165 -141l-25 32l162 153h67l118 -153l-33 -32z" />
    <glyph glyph-name="uni0136" unicode="&#x136;" horiz-adv-x="447" 
d="M332 0l-156 337l-47 -337h-89l93 664h89l-41 -292l236 292h99l-255 -301l175 -363h-104zM183 -34h82l-10 -46q-6 -30 -17 -58.5t-25 -51t-32.5 -37t-39.5 -16.5z" />
    <glyph glyph-name="uni0137" unicode="&#x137;" horiz-adv-x="420" 
d="M304 0l-145 252l-35 -252h-84l94 672h84l-55 -392l197 212h105l-218 -221l162 -271h-105zM170 -34h82l-10 -46q-6 -30 -17 -58.5t-25 -51t-32.5 -37t-39.5 -16.5z" />
    <glyph glyph-name="Lacute" unicode="&#x139;" horiz-adv-x="324" 
d="M40 0l93 664h91l-82 -585h171l-11 -79h-262zM91 706l6 45l242 131l-9 -66z" />
    <glyph glyph-name="lacute" unicode="&#x13a;" horiz-adv-x="164" 
d="M40 0l94 672h84l-94 -672h-84zM91 706l6 45l242 131l-9 -66z" />
    <glyph glyph-name="uni013B" unicode="&#x13b;" horiz-adv-x="324" 
d="M40 0l93 664h91l-82 -585h171l-11 -79h-262zM122 -34h82l-10 -46q-6 -30 -17 -58.5t-25 -51t-32.5 -37t-39.5 -16.5z" />
    <glyph glyph-name="uni013C" unicode="&#x13c;" horiz-adv-x="164" 
d="M40 0l94 672h84l-94 -672h-84zM37 -34h82l-10 -46q-6 -30 -17 -58.5t-25 -51t-32.5 -37t-39.5 -16.5z" />
    <glyph glyph-name="Lcaron" unicode="&#x13d;" horiz-adv-x="324" 
d="M40 0l93 664h91l-82 -585h171l-11 -79h-262zM319 792h92l-30 -156q-5 -26 -16.5 -49t-27.5 -41t-35 -29t-38 -12z" />
    <glyph glyph-name="lcaron" unicode="&#x13e;" horiz-adv-x="294" 
d="M40 0l94 672h84l-94 -672h-84zM281 672h92l-30 -156q-5 -26 -16.5 -49t-27.5 -41t-35 -29t-38 -12z" />
    <glyph glyph-name="Ldot" unicode="&#x13f;" horiz-adv-x="324" 
d="M40 0l93 664h91l-82 -585h171l-11 -79h-262zM217 299l19 133h82l-19 -133h-82z" />
    <glyph glyph-name="ldot" unicode="&#x140;" horiz-adv-x="246" 
d="M40 0l94 672h84l-94 -672h-84zM203 291l19 133h82l-19 -133h-82z" />
    <glyph glyph-name="Lslash" unicode="&#x141;" horiz-adv-x="324" 
d="M40 0l93 664h91l-44 -314l156 83l-8 -60l-157 -83l-29 -211h171l-11 -79h-262z" />
    <glyph glyph-name="lslash" unicode="&#x142;" horiz-adv-x="176" 
d="M46 0l39 278l-52 -32l9 61l51 33l47 332h84l-38 -273l52 34l-8 -63l-53 -34l-47 -336h-84z" />
    <glyph glyph-name="Nacute" unicode="&#x143;" horiz-adv-x="444" 
d="M316 0l73 521q1 5 1 9v9q0 37 -23 51t-58 14q-34 0 -57 -4.5t-39 -10.5l-82 -589h-91l91 651q28 9 73.5 19t117.5 10q36 0 65.5 -7t50 -23t32 -43t11.5 -67v-10.5t-2 -10.5l-72 -519h-91zM229 706l6 45l242 131l-9 -66z" />
    <glyph glyph-name="nacute" unicode="&#x144;" horiz-adv-x="413" 
d="M293 0l48 346q1 5 1 9.5v9.5q0 35 -20 48t-53 13q-32 0 -52.5 -4t-35.5 -10l-57 -412h-84l67 477q26 9 67 18.5t107 9.5q32 0 59 -6t46.5 -20t30.5 -37.5t11 -58.5q0 -8 -0.5 -16.5t-1.5 -17.5l-49 -349h-84zM189 534l6 45l242 131l-9 -66z" />
    <glyph glyph-name="uni0145" unicode="&#x145;" horiz-adv-x="444" 
d="M316 0l73 521q1 5 1 9v9q0 37 -23 51t-58 14q-34 0 -57 -4.5t-39 -10.5l-82 -589h-91l91 651q28 9 73.5 19t117.5 10q36 0 65.5 -7t50 -23t32 -43t11.5 -67v-10.5t-2 -10.5l-72 -519h-91zM182 -34h82l-10 -46q-6 -30 -17 -58.5t-25 -51t-32.5 -37t-39.5 -16.5z" />
    <glyph glyph-name="uni0146" unicode="&#x146;" horiz-adv-x="413" 
d="M293 0l48 346q1 5 1 9.5v9.5q0 35 -20 48t-53 13q-32 0 -52.5 -4t-35.5 -10l-57 -412h-84l67 477q26 9 67 18.5t107 9.5q32 0 59 -6t46.5 -20t30.5 -37.5t11 -58.5q0 -8 -0.5 -16.5t-1.5 -17.5l-49 -349h-84zM166 -34h82l-10 -46q-6 -30 -17 -58.5t-25 -51t-32.5 -37
t-39.5 -16.5z" />
    <glyph glyph-name="Ncaron" unicode="&#x147;" horiz-adv-x="444" 
d="M316 0l73 521q1 5 1 9v9q0 37 -23 51t-58 14q-34 0 -57 -4.5t-39 -10.5l-82 -589h-91l91 651q28 9 73.5 19t117.5 10q36 0 65.5 -7t50 -23t32 -43t11.5 -67v-10.5t-2 -10.5l-72 -519h-91zM320 703l-151 162l32 33l128 -132l167 132l22 -33z" />
    <glyph glyph-name="ncaron" unicode="&#x148;" horiz-adv-x="413" 
d="M293 0l48 346q1 5 1 9.5v9.5q0 35 -20 48t-53 13q-32 0 -52.5 -4t-35.5 -10l-57 -412h-84l67 477q26 9 67 18.5t107 9.5q32 0 59 -6t46.5 -20t30.5 -37.5t11 -58.5q0 -8 -0.5 -16.5t-1.5 -17.5l-49 -349h-84zM281 531l-151 162l32 33l128 -132l167 132l22 -33z" />
    <glyph glyph-name="Eng" unicode="&#x14a;" horiz-adv-x="444" 
d="M203 -164q9 -3 21 -3q30 0 51.5 16.5t26.5 54.5l87 617q1 5 1 9v9q0 37 -23 51t-58 14q-34 0 -57 -4.5t-39 -10.5l-82 -589h-91l91 651q28 9 73.5 19t117.5 10q36 0 65.5 -7t50 -23t32 -43t11.5 -67v-10.5t-2 -10.5l-87 -623q-6 -41 -23 -67.5t-41.5 -42.5t-54 -22.5
t-59.5 -6.5q-5 0 -10.5 0.5t-10.5 1.5z" />
    <glyph glyph-name="eng" unicode="&#x14b;" horiz-adv-x="413" 
d="M182 -164q9 -3 21 -3q30 0 50.5 16.5t25.5 54.5l62 442q1 5 1 9.5v9.5q0 35 -20 48t-53 13q-32 0 -52.5 -4t-35.5 -10l-57 -412h-84l67 477q26 9 67 18.5t107 9.5q32 0 59 -6t46.5 -20t30.5 -37.5t11 -58.5q0 -8 -0.5 -16.5t-1.5 -17.5l-64 -453q-6 -41 -21.5 -67.5
t-38 -42.5t-51 -22.5t-58.5 -6.5q-5 0 -10.5 0.5t-10.5 1.5z" />
    <glyph glyph-name="Omacron" unicode="&#x14c;" 
d="M106 518q7 46 26 77.5t46.5 50t61.5 26.5t72 8q36 0 66 -7t51 -23.5t33 -44t12 -67.5v-10t-2 -10l-52 -373q-6 -47 -25 -78t-47 -49.5t-62.5 -26.5t-71.5 -8q-34 0 -63.5 6.5t-51.5 21.5t-35 39.5t-13 60.5q0 16 3 34zM381 518q1 8 1.5 14.5t0.5 11.5q0 36 -20 48t-62 12
q-24 0 -42 -3.5t-30.5 -13t-20 -26.5t-11.5 -43l-52 -373q-1 -7 -1.5 -13t-0.5 -11q0 -35 20 -47t62 -12q48 0 73 16.5t31 66.5zM169 774l8 57h312l-8 -57h-312z" />
    <glyph glyph-name="omacron" unicode="&#x14d;" horiz-adv-x="400" 
d="M387 139q-6 -45 -23.5 -75t-43 -48t-57 -25.5t-66.5 -7.5q-33 0 -60.5 6t-47 20t-30.5 37t-11 57q0 16 3 36l30 210q6 45 22.5 75t41 48t56 25.5t69.5 7.5q31 0 58.5 -6t47.5 -20.5t31.5 -38.5t11.5 -59q0 -8 -0.5 -16t-1.5 -16zM334 349q1 5 1 8.5v7.5q0 35 -21.5 48
t-54.5 13q-40 0 -64.5 -16t-30.5 -61l-30 -210q-1 -5 -1 -9v-9q0 -34 20 -46.5t55 -12.5q37 0 63 16t33 61zM129 602l8 57h312l-8 -57h-312z" />
    <glyph glyph-name="Obreve" unicode="&#x14e;" 
d="M106 518q7 46 26 77.5t46.5 50t61.5 26.5t72 8q36 0 66 -7t51 -23.5t33 -44t12 -67.5v-10t-2 -10l-52 -373q-6 -47 -25 -78t-47 -49.5t-62.5 -26.5t-71.5 -8q-34 0 -63.5 6.5t-51.5 21.5t-35 39.5t-13 60.5q0 16 3 34zM381 518q1 8 1.5 14.5t0.5 11.5q0 36 -20 48t-62 12
q-24 0 -42 -3.5t-30.5 -13t-20 -26.5t-11.5 -43l-52 -373q-1 -7 -1.5 -13t-0.5 -11q0 -35 20 -47t62 -12q48 0 73 16.5t31 66.5zM497 888q-6 -42 -23.5 -73t-42 -51.5t-54 -31t-59.5 -10.5q-60 0 -97 36.5t-37 110.5v9.5t2 9.5h52q-1 -5 -1 -10v-10q0 -48 24 -72t64 -24
q43 0 76.5 28t42.5 88h53z" />
    <glyph glyph-name="obreve" unicode="&#x14f;" horiz-adv-x="400" 
d="M387 139q-6 -45 -23.5 -75t-43 -48t-57 -25.5t-66.5 -7.5q-33 0 -60.5 6t-47 20t-30.5 37t-11 57q0 16 3 36l30 210q6 45 22.5 75t41 48t56 25.5t69.5 7.5q31 0 58.5 -6t47.5 -20.5t31.5 -38.5t11.5 -59q0 -8 -0.5 -16t-1.5 -16zM334 349q1 5 1 8.5v7.5q0 35 -21.5 48
t-54.5 13q-40 0 -64.5 -16t-30.5 -61l-30 -210q-1 -5 -1 -9v-9q0 -34 20 -46.5t55 -12.5q37 0 63 16t33 61zM457 716q-6 -42 -23.5 -73t-42 -51.5t-54 -31t-59.5 -10.5q-60 0 -97 36.5t-37 110.5v9.5t2 9.5h52q-1 -5 -1 -10v-10q0 -48 24 -72t64 -24q43 0 76.5 28t42.5 88
h53z" />
    <glyph glyph-name="Ohungarumlaut" unicode="&#x150;" 
d="M106 518q7 46 26 77.5t46.5 50t61.5 26.5t72 8q36 0 66 -7t51 -23.5t33 -44t12 -67.5v-10t-2 -10l-52 -373q-6 -47 -25 -78t-47 -49.5t-62.5 -26.5t-71.5 -8q-34 0 -63.5 6.5t-51.5 21.5t-35 39.5t-13 60.5q0 16 3 34zM381 518q1 8 1.5 14.5t0.5 11.5q0 36 -20 48t-62 12
q-24 0 -42 -3.5t-30.5 -13t-20 -26.5t-11.5 -43l-52 -373q-1 -7 -1.5 -13t-0.5 -11q0 -35 20 -47t62 -12q48 0 73 16.5t31 66.5zM336 736l151 150l26 -24l-155 -148zM185 736l148 152l26 -24l-152 -150z" />
    <glyph glyph-name="ohungarumlaut" unicode="&#x151;" horiz-adv-x="400" 
d="M387 139q-6 -45 -23.5 -75t-43 -48t-57 -25.5t-66.5 -7.5q-33 0 -60.5 6t-47 20t-30.5 37t-11 57q0 16 3 36l30 210q6 45 22.5 75t41 48t56 25.5t69.5 7.5q31 0 58.5 -6t47.5 -20.5t31.5 -38.5t11.5 -59q0 -8 -0.5 -16t-1.5 -16zM334 349q1 5 1 8.5v7.5q0 35 -21.5 48
t-54.5 13q-40 0 -64.5 -16t-30.5 -61l-30 -210q-1 -5 -1 -9v-9q0 -34 20 -46.5t55 -12.5q37 0 63 16t33 61zM296 564l151 150l26 -24l-155 -148zM145 564l148 152l26 -24l-152 -150z" />
    <glyph glyph-name="OE" unicode="&#x152;" horiz-adv-x="589" 
d="M315 0q-23 -9 -49 -13t-52 -4q-34 0 -63.5 6.5t-51.5 21.5t-35 39.5t-13 60.5q0 16 3 34l52 373q6 46 25 77.5t47 50t62.5 26.5t71.5 8q54 0 93 -16h245l-11 -76h-157l-28 -202h144l-11 -77h-144l-32 -230h163l-11 -79h-248zM381 518q1 8 1.5 14.5t0.5 11.5q0 36 -20 48
t-62 12q-24 0 -42 -3.5t-30.5 -13t-20 -26.5t-11.5 -43l-52 -373q-1 -7 -1.5 -13t-0.5 -11q0 -35 20 -47t62 -12q48 0 73 16.5t31 66.5z" />
    <glyph glyph-name="oe" unicode="&#x153;" horiz-adv-x="659" 
d="M617 8q-26 -10 -69.5 -17.5t-97.5 -7.5q-39 0 -70 9t-51 30q-26 -21 -60 -30t-72 -9q-33 0 -60.5 6t-47 20t-30.5 37t-11 57q0 16 3 36l30 210q6 45 22.5 75t41 48t56 25.5t69.5 7.5t69 -9t51 -30q26 21 59.5 30t73.5 9q31 0 58.5 -6t47.5 -20.5t31.5 -38.5t11.5 -59
q0 -8 -0.5 -16t-1.5 -16l-20 -142h-253l-10 -65q-1 -5 -1 -8.5v-7.5q0 -37 24 -48t66 -11q50 0 85 7t67 18zM334 349q1 5 1 8.5v7.5q0 35 -21.5 48t-54.5 13q-40 0 -64.5 -16t-30.5 -61l-30 -210q-1 -5 -1 -9v-9q0 -34 20 -46.5t55 -12.5q37 0 63 16t33 61zM587 349
q1 5 1 8.5v7.5q0 61 -76 61q-46 0 -68 -19.5t-27 -57.5l-10 -68h170z" />
    <glyph glyph-name="Racute" unicode="&#x154;" horiz-adv-x="431" 
d="M307 0l30 220q1 5 1 10.5v10.5q0 24 -12 39.5t-44 15.5h-113l-41 -296h-88l93 664h227q32 0 53 -9t33.5 -25t17.5 -36.5t5 -43.5q0 -32 -6 -67t-19 -65.5t-33.5 -52.5t-50.5 -29q38 -8 52.5 -33.5t14.5 -61.5q0 -18 -3 -39l-28 -202h-89zM293 368q24 0 40.5 13.5t27 35
t15 48.5t4.5 55q0 31 -13 49.5t-49 18.5h-108l-31 -220h114zM222 706l6 45l242 131l-9 -66z" />
    <glyph glyph-name="racute" unicode="&#x155;" horiz-adv-x="384" 
d="M40 0l67 477q25 9 63 18.5t101 9.5q31 0 57 -5.5t45.5 -18t30.5 -33.5t11 -52q0 -6 -0.5 -12.5t-1.5 -13.5l-9 -63h-75l7 50q1 3 1 14q0 31 -20.5 43t-52.5 12q-30 0 -49.5 -4t-33.5 -10l-57 -412h-84zM175 534l6 45l242 131l-9 -66z" />
    <glyph glyph-name="uni0156" unicode="&#x156;" horiz-adv-x="431" 
d="M307 0l30 220q1 5 1 10.5v10.5q0 24 -12 39.5t-44 15.5h-113l-41 -296h-88l93 664h227q32 0 53 -9t33.5 -25t17.5 -36.5t5 -43.5q0 -32 -6 -67t-19 -65.5t-33.5 -52.5t-50.5 -29q38 -8 52.5 -33.5t14.5 -61.5q0 -18 -3 -39l-28 -202h-89zM293 368q24 0 40.5 13.5t27 35
t15 48.5t4.5 55q0 31 -13 49.5t-49 18.5h-108l-31 -220h114zM175 -34h82l-10 -46q-6 -30 -17 -58.5t-25 -51t-32.5 -37t-39.5 -16.5z" />
    <glyph glyph-name="uni0157" unicode="&#x157;" horiz-adv-x="384" 
d="M40 0l67 477q25 9 63 18.5t101 9.5q31 0 57 -5.5t45.5 -18t30.5 -33.5t11 -52q0 -6 -0.5 -12.5t-1.5 -13.5l-9 -63h-75l7 50q1 3 1 14q0 31 -20.5 43t-52.5 12q-30 0 -49.5 -4t-33.5 -10l-57 -412h-84zM38 -34h82l-10 -46q-6 -30 -17 -58.5t-25 -51t-32.5 -37
t-39.5 -16.5z" />
    <glyph glyph-name="Rcaron" unicode="&#x158;" horiz-adv-x="431" 
d="M307 0l30 220q1 5 1 10.5v10.5q0 24 -12 39.5t-44 15.5h-113l-41 -296h-88l93 664h227q32 0 53 -9t33.5 -25t17.5 -36.5t5 -43.5q0 -32 -6 -67t-19 -65.5t-33.5 -52.5t-50.5 -29q38 -8 52.5 -33.5t14.5 -61.5q0 -18 -3 -39l-28 -202h-89zM293 368q24 0 40.5 13.5t27 35
t15 48.5t4.5 55q0 31 -13 49.5t-49 18.5h-108l-31 -220h114zM305 703l-151 162l32 33l128 -132l167 132l22 -33z" />
    <glyph glyph-name="rcaron" unicode="&#x159;" horiz-adv-x="384" 
d="M40 0l67 477q25 9 63 18.5t101 9.5q31 0 57 -5.5t45.5 -18t30.5 -33.5t11 -52q0 -6 -0.5 -12.5t-1.5 -13.5l-9 -63h-75l7 50q1 3 1 14q0 31 -20.5 43t-52.5 12q-30 0 -49.5 -4t-33.5 -10l-57 -412h-84zM267 531l-151 162l32 33l128 -132l167 132l22 -33z" />
    <glyph glyph-name="Sacute" unicode="&#x15a;" horiz-adv-x="401" 
d="M357 466l7 47q1 8 1.5 15t0.5 13q0 37 -18 50t-54 13q-26 0 -44 -4t-30 -15t-19.5 -31t-11.5 -52q-3 -20 -3 -33q0 -17 5 -29t16 -21.5t30 -17t47 -15.5q35 -11 58.5 -24t37.5 -30t20 -39t6 -51q0 -54 -9 -101.5t-32.5 -82.5t-65 -55t-105.5 -20q-72 0 -110.5 28
t-38.5 97q0 18 3 39l13 89h81l-12 -86q-2 -5 -2 -9v-9q0 -21 4 -34.5t13 -21.5t24.5 -11t38.5 -3q24 0 41 4t28.5 15.5t19 31.5t12.5 53q2 19 3.5 34t1.5 28q0 21 -5 35t-16.5 24t-31 18t-47.5 17q-63 20 -91 52.5t-28 87.5q0 48 11 88t35.5 69t64.5 45t99 16
q68 0 104.5 -27t36.5 -100v-10.5t-2 -10.5l-9 -66h-78zM207 706l6 45l242 131l-9 -66z" />
    <glyph glyph-name="sacute" unicode="&#x15b;" horiz-adv-x="398" 
d="M334 347l6 38v9q0 23 -19 29.5t-59 6.5q-24 0 -42.5 -2t-31.5 -9t-19.5 -20t-6.5 -35q0 -23 15.5 -35.5t36.5 -19.5q34 -11 69 -21.5t65 -27.5q26 -15 35.5 -37t9.5 -48q0 -57 -15.5 -94.5t-43 -59t-64 -30t-78.5 -8.5q-28 0 -56 3.5t-50 14.5t-36 31t-14 52q0 5 0.5 10
t1.5 11l8 56h81l-5 -35q-1 -5 -1 -8.5v-7.5q0 -31 20.5 -41.5t62.5 -10.5q24 0 42.5 3.5t31 14t19 28.5t6.5 47q0 14 -5.5 22.5t-16.5 16.5q-18 13 -40.5 21t-45.5 15.5t-45 16t-39 21.5t-27.5 32t-10.5 48q0 52 18.5 83.5t47.5 48.5t64.5 23t68.5 6q26 0 52.5 -3t48 -13
t35 -27.5t13.5 -47.5v-10t-1 -10l-7 -47h-79zM182 534l6 45l242 131l-9 -66z" />
    <glyph glyph-name="Scircumflex" unicode="&#x15c;" horiz-adv-x="401" 
d="M357 466l7 47q1 8 1.5 15t0.5 13q0 37 -18 50t-54 13q-26 0 -44 -4t-30 -15t-19.5 -31t-11.5 -52q-3 -20 -3 -33q0 -17 5 -29t16 -21.5t30 -17t47 -15.5q35 -11 58.5 -24t37.5 -30t20 -39t6 -51q0 -54 -9 -101.5t-32.5 -82.5t-65 -55t-105.5 -20q-72 0 -110.5 28
t-38.5 97q0 18 3 39l13 89h81l-12 -86q-2 -5 -2 -9v-9q0 -21 4 -34.5t13 -21.5t24.5 -11t38.5 -3q24 0 41 4t28.5 15.5t19 31.5t12.5 53q2 19 3.5 34t1.5 28q0 21 -5 35t-16.5 24t-31 18t-47.5 17q-63 20 -91 52.5t-28 87.5q0 48 11 88t35.5 69t64.5 45t99 16
q68 0 104.5 -27t36.5 -100v-10.5t-2 -10.5l-9 -66h-78zM324 864l-165 -141l-25 32l162 153h67l118 -153l-33 -32z" />
    <glyph glyph-name="scircumflex" unicode="&#x15d;" horiz-adv-x="398" 
d="M334 347l6 38v9q0 23 -19 29.5t-59 6.5q-24 0 -42.5 -2t-31.5 -9t-19.5 -20t-6.5 -35q0 -23 15.5 -35.5t36.5 -19.5q34 -11 69 -21.5t65 -27.5q26 -15 35.5 -37t9.5 -48q0 -57 -15.5 -94.5t-43 -59t-64 -30t-78.5 -8.5q-28 0 -56 3.5t-50 14.5t-36 31t-14 52q0 5 0.5 10
t1.5 11l8 56h81l-5 -35q-1 -5 -1 -8.5v-7.5q0 -31 20.5 -41.5t62.5 -10.5q24 0 42.5 3.5t31 14t19 28.5t6.5 47q0 14 -5.5 22.5t-16.5 16.5q-18 13 -40.5 21t-45.5 15.5t-45 16t-39 21.5t-27.5 32t-10.5 48q0 52 18.5 83.5t47.5 48.5t64.5 23t68.5 6q26 0 52.5 -3t48 -13
t35 -27.5t13.5 -47.5v-10t-1 -10l-7 -47h-79zM298 692l-165 -141l-25 32l162 153h67l118 -153l-33 -32z" />
    <glyph glyph-name="Scedilla" unicode="&#x15e;" horiz-adv-x="401" 
d="M357 466l7 47q1 8 1.5 15t0.5 13q0 37 -18 50t-54 13q-26 0 -44 -4t-30 -15t-19.5 -31t-11.5 -52q-3 -20 -3 -33q0 -17 5 -29t16 -21.5t30 -17t47 -15.5q35 -11 58.5 -24t37.5 -30t20 -39t6 -51q0 -54 -9 -101.5t-32.5 -82.5t-65 -55t-105.5 -20q-72 0 -110.5 28
t-38.5 97q0 18 3 39l13 89h81l-12 -86q-2 -5 -2 -9v-9q0 -21 4 -34.5t13 -21.5t24.5 -11t38.5 -3q24 0 41 4t28.5 15.5t19 31.5t12.5 53q2 19 3.5 34t1.5 28q0 21 -5 35t-16.5 24t-31 18t-47.5 17q-63 20 -91 52.5t-28 87.5q0 48 11 88t35.5 69t64.5 45t99 16
q68 0 104.5 -27t36.5 -100v-10.5t-2 -10.5l-9 -66h-78zM160 -34h82l-10 -46q-6 -30 -17 -58.5t-25 -51t-32.5 -37t-39.5 -16.5z" />
    <glyph glyph-name="scedilla" unicode="&#x15f;" horiz-adv-x="398" 
d="M334 347l6 38v9q0 23 -19 29.5t-59 6.5q-24 0 -42.5 -2t-31.5 -9t-19.5 -20t-6.5 -35q0 -23 15.5 -35.5t36.5 -19.5q34 -11 69 -21.5t65 -27.5q26 -15 35.5 -37t9.5 -48q0 -57 -15.5 -94.5t-43 -59t-64 -30t-78.5 -8.5q-28 0 -56 3.5t-50 14.5t-36 31t-14 52q0 5 0.5 10
t1.5 11l8 56h81l-5 -35q-1 -5 -1 -8.5v-7.5q0 -31 20.5 -41.5t62.5 -10.5q24 0 42.5 3.5t31 14t19 28.5t6.5 47q0 14 -5.5 22.5t-16.5 16.5q-18 13 -40.5 21t-45.5 15.5t-45 16t-39 21.5t-27.5 32t-10.5 48q0 52 18.5 83.5t47.5 48.5t64.5 23t68.5 6q26 0 52.5 -3t48 -13
t35 -27.5t13.5 -47.5v-10t-1 -10l-7 -47h-79zM159 -34h82l-10 -46q-6 -30 -17 -58.5t-25 -51t-32.5 -37t-39.5 -16.5z" />
    <glyph glyph-name="Scaron" unicode="&#x160;" horiz-adv-x="401" 
d="M357 466l7 47q1 8 1.5 15t0.5 13q0 37 -18 50t-54 13q-26 0 -44 -4t-30 -15t-19.5 -31t-11.5 -52q-3 -20 -3 -33q0 -17 5 -29t16 -21.5t30 -17t47 -15.5q35 -11 58.5 -24t37.5 -30t20 -39t6 -51q0 -54 -9 -101.5t-32.5 -82.5t-65 -55t-105.5 -20q-72 0 -110.5 28
t-38.5 97q0 18 3 39l13 89h81l-12 -86q-2 -5 -2 -9v-9q0 -21 4 -34.5t13 -21.5t24.5 -11t38.5 -3q24 0 41 4t28.5 15.5t19 31.5t12.5 53q2 19 3.5 34t1.5 28q0 21 -5 35t-16.5 24t-31 18t-47.5 17q-63 20 -91 52.5t-28 87.5q0 48 11 88t35.5 69t64.5 45t99 16
q68 0 104.5 -27t36.5 -100v-10.5t-2 -10.5l-9 -66h-78zM300 703l-151 162l32 33l128 -132l167 132l22 -33z" />
    <glyph glyph-name="scaron" unicode="&#x161;" horiz-adv-x="398" 
d="M334 347l6 38v9q0 23 -19 29.5t-59 6.5q-24 0 -42.5 -2t-31.5 -9t-19.5 -20t-6.5 -35q0 -23 15.5 -35.5t36.5 -19.5q34 -11 69 -21.5t65 -27.5q26 -15 35.5 -37t9.5 -48q0 -57 -15.5 -94.5t-43 -59t-64 -30t-78.5 -8.5q-28 0 -56 3.5t-50 14.5t-36 31t-14 52q0 5 0.5 10
t1.5 11l8 56h81l-5 -35q-1 -5 -1 -8.5v-7.5q0 -31 20.5 -41.5t62.5 -10.5q24 0 42.5 3.5t31 14t19 28.5t6.5 47q0 14 -5.5 22.5t-16.5 16.5q-18 13 -40.5 21t-45.5 15.5t-45 16t-39 21.5t-27.5 32t-10.5 48q0 52 18.5 83.5t47.5 48.5t64.5 23t68.5 6q26 0 52.5 -3t48 -13
t35 -27.5t13.5 -47.5v-10t-1 -10l-7 -47h-79zM274 531l-151 162l32 33l128 -132l167 132l22 -33z" />
    <glyph glyph-name="uni0162" unicode="&#x162;" horiz-adv-x="361" 
d="M135 0l82 588h-122l11 76h335l-11 -76h-123l-82 -588h-90zM135 -34h82l-10 -46q-6 -30 -17 -58.5t-25 -51t-32.5 -37t-39.5 -16.5z" />
    <glyph glyph-name="uni0163" unicode="&#x163;" horiz-adv-x="245" 
d="M79 0l60 431h-59l9 61h59l15 112h84l-15 -112h62l-9 -61h-62l-60 -431h-84zM77 -34h82l-10 -46q-6 -30 -17 -58.5t-25 -51t-32.5 -37t-39.5 -16.5z" />
    <glyph glyph-name="Tcaron" unicode="&#x164;" horiz-adv-x="361" 
d="M135 0l82 588h-122l11 76h335l-11 -76h-123l-82 -588h-90zM280 703l-151 162l32 33l128 -132l167 132l22 -33z" />
    <glyph glyph-name="tcaron" unicode="&#x165;" horiz-adv-x="345" 
d="M79 0l60 431h-59l9 61h59l15 112h84l-15 -112h62l-9 -61h-62l-60 -431h-84zM347 672h92l-30 -156q-5 -26 -16.5 -49t-27.5 -41t-35 -29t-38 -12z" />
    <glyph glyph-name="Tbar" unicode="&#x166;" horiz-adv-x="361" 
d="M135 0l39 279h-65l9 66h65l34 243h-122l11 76h335l-11 -76h-123l-34 -243h66l-9 -66h-66l-39 -279h-90z" />
    <glyph glyph-name="tbar" unicode="&#x167;" horiz-adv-x="245" 
d="M79 0l29 209h-37l9 66h37l22 156h-59l9 61h59l15 112h84l-15 -112h62l-9 -61h-62l-22 -156h40l-9 -66h-40l-29 -209h-84z" />
    <glyph glyph-name="Utilde" unicode="&#x168;" horiz-adv-x="444" 
d="M406 664h91l-92 -652q-26 -9 -73 -19t-117 -10q-33 0 -62.5 6t-51.5 21t-34.5 39.5t-12.5 60.5q0 16 3 34l73 520h91l-73 -520q-1 -5 -1.5 -9.5t-0.5 -8.5q0 -36 23 -50t58 -14q34 0 57.5 4.5t38.5 9.5zM174 774l8 57h312l-8 -57h-312z" />
    <glyph glyph-name="utilde" unicode="&#x169;" horiz-adv-x="415" 
d="M358 492h83l-68 -481q-26 -9 -67.5 -18.5t-107.5 -9.5q-32 0 -58.5 6t-46 20t-30.5 37t-11 57q0 16 3 36l50 353h84l-50 -350q-1 -5 -1 -9.5v-8.5q0 -35 19.5 -48.5t52.5 -13.5q32 0 53.5 4.5t35.5 9.5zM135 602l8 57h312l-8 -57h-312z" />
    <glyph glyph-name="Umacron" unicode="&#x16a;" horiz-adv-x="444" 
d="M406 664h91l-92 -652q-26 -9 -73 -19t-117 -10q-33 0 -62.5 6t-51.5 21t-34.5 39.5t-12.5 60.5q0 16 3 34l73 520h91l-73 -520q-1 -5 -1.5 -9.5t-0.5 -8.5q0 -36 23 -50t58 -14q34 0 57.5 4.5t38.5 9.5zM174 774l8 57h312l-8 -57h-312z" />
    <glyph glyph-name="umacron" unicode="&#x16b;" horiz-adv-x="415" 
d="M358 492h83l-68 -481q-26 -9 -67.5 -18.5t-107.5 -9.5q-32 0 -58.5 6t-46 20t-30.5 37t-11 57q0 16 3 36l50 353h84l-50 -350q-1 -5 -1 -9.5v-8.5q0 -35 19.5 -48.5t52.5 -13.5q32 0 53.5 4.5t35.5 9.5zM135 602l8 57h312l-8 -57h-312z" />
    <glyph glyph-name="Ubreve" unicode="&#x16c;" horiz-adv-x="444" 
d="M406 664h91l-92 -652q-26 -9 -73 -19t-117 -10q-33 0 -62.5 6t-51.5 21t-34.5 39.5t-12.5 60.5q0 16 3 34l73 520h91l-73 -520q-1 -5 -1.5 -9.5t-0.5 -8.5q0 -36 23 -50t58 -14q34 0 57.5 4.5t38.5 9.5zM502 888q-6 -42 -23.5 -73t-42 -51.5t-54 -31t-59.5 -10.5
q-60 0 -97 36.5t-37 110.5v9.5t2 9.5h52q-1 -5 -1 -10v-10q0 -48 24 -72t64 -24q43 0 76.5 28t42.5 88h53z" />
    <glyph glyph-name="ubreve" unicode="&#x16d;" horiz-adv-x="415" 
d="M358 492h83l-68 -481q-26 -9 -67.5 -18.5t-107.5 -9.5q-32 0 -58.5 6t-46 20t-30.5 37t-11 57q0 16 3 36l50 353h84l-50 -350q-1 -5 -1 -9.5v-8.5q0 -35 19.5 -48.5t52.5 -13.5q32 0 53.5 4.5t35.5 9.5zM464 716q-6 -42 -23.5 -73t-42 -51.5t-54 -31t-59.5 -10.5
q-60 0 -97 36.5t-37 110.5v9.5t2 9.5h52q-1 -5 -1 -10v-10q0 -48 24 -72t64 -24q43 0 76.5 28t42.5 88h53z" />
    <glyph glyph-name="Uring" unicode="&#x16e;" horiz-adv-x="444" 
d="M406 664h91l-92 -652q-26 -9 -73 -19t-117 -10q-33 0 -62.5 6t-51.5 21t-34.5 39.5t-12.5 60.5q0 16 3 34l73 520h91l-73 -520q-1 -5 -1.5 -9.5t-0.5 -8.5q0 -36 23 -50t58 -14q34 0 57.5 4.5t38.5 9.5zM432 792q-7 -48 -33.5 -72t-80.5 -24q-87 0 -87 74q0 57 28.5 87.5
t85.5 30.5q48 0 68 -19.5t20 -55.5v-10.5t-1 -10.5zM398 792q1 4 1 8v7q0 50 -58 50q-34 0 -53.5 -20t-19.5 -60q0 -49 55 -49q35 0 52.5 16t22.5 48z" />
    <glyph glyph-name="uring" unicode="&#x16f;" horiz-adv-x="415" 
d="M358 492h83l-68 -481q-26 -9 -67.5 -18.5t-107.5 -9.5q-32 0 -58.5 6t-46 20t-30.5 37t-11 57q0 16 3 36l50 353h84l-50 -350q-1 -5 -1 -9.5v-8.5q0 -35 19.5 -48.5t52.5 -13.5q32 0 53.5 4.5t35.5 9.5zM394 620q-7 -48 -33.5 -72t-80.5 -24q-87 0 -87 74q0 57 28.5 87.5
t85.5 30.5q48 0 68 -19.5t20 -55.5v-10.5t-1 -10.5zM360 620q1 4 1 8v7q0 50 -58 50q-34 0 -53.5 -20t-19.5 -60q0 -49 55 -49q35 0 52.5 16t22.5 48z" />
    <glyph glyph-name="Uhungarumlaut" unicode="&#x170;" horiz-adv-x="444" 
d="M406 664h91l-92 -652q-26 -9 -73 -19t-117 -10q-33 0 -62.5 6t-51.5 21t-34.5 39.5t-12.5 60.5q0 16 3 34l73 520h91l-73 -520q-1 -5 -1.5 -9.5t-0.5 -8.5q0 -36 23 -50t58 -14q34 0 57.5 4.5t38.5 9.5zM340 736l151 150l26 -24l-155 -148zM189 736l148 152l26 -24
l-152 -150z" />
    <glyph glyph-name="uhungarumlaut" unicode="&#x171;" horiz-adv-x="415" 
d="M358 492h83l-68 -481q-26 -9 -67.5 -18.5t-107.5 -9.5q-32 0 -58.5 6t-46 20t-30.5 37t-11 57q0 16 3 36l50 353h84l-50 -350q-1 -5 -1 -9.5v-8.5q0 -35 19.5 -48.5t52.5 -13.5q32 0 53.5 4.5t35.5 9.5zM302 564l151 150l26 -24l-155 -148zM151 564l148 152l26 -24
l-152 -150z" />
    <glyph glyph-name="Uogonek" unicode="&#x172;" horiz-adv-x="444" 
d="M329 -229q-5 -2 -16.5 -3t-34.5 -1q-34 0 -56 6t-34.5 16.5t-17.5 24.5t-5 31q0 53 20.5 84.5t75.5 51.5l14 5q-29 -3 -60 -3q-33 0 -62.5 6t-51.5 21t-34.5 39.5t-12.5 60.5q0 16 3 34l73 520h91l-73 -520q-1 -5 -1.5 -9.5t-0.5 -8.5q0 -36 23 -50t58 -14q34 0 57.5 4.5
t38.5 9.5l83 588h91l-92 -652q-5 -2 -11 -4t-18 -5.5t-31 -10.5t-50 -19q-34 -13 -47.5 -34.5t-13.5 -51.5q0 -21 13 -33t49 -12q32 0 44 4z" />
    <glyph glyph-name="uogonek" unicode="&#x173;" horiz-adv-x="415" 
d="M303 -229q-5 -2 -16.5 -3t-34.5 -1q-34 0 -56 6t-34.5 16.5t-17.5 24.5t-5 31q0 52 21 84.5t75 51.5l10 4q-11 -1 -22.5 -1.5t-24.5 -0.5q-32 0 -58.5 6t-46 20t-30.5 37t-11 57q0 16 3 36l50 353h84l-50 -350q-1 -5 -1 -9.5v-8.5q0 -35 19.5 -48.5t52.5 -13.5
q32 0 53.5 4.5t35.5 9.5l59 416h83l-68 -481l-104 -38q-34 -14 -47.5 -34.5t-13.5 -51.5q0 -21 13 -33t49 -12q32 0 44 4z" />
    <glyph glyph-name="Wcircumflex" unicode="&#x174;" horiz-adv-x="649" 
d="M618 664h89l-60 -427q-8 -56 -27.5 -95.5t-47 -68.5t-60.5 -50t-68 -39q-37 26 -64.5 57t-40.5 70q-20 -39 -58 -70t-83 -57q-26 15 -50.5 33t-43 42t-30 56t-11.5 74q0 28 4 48l60 427h92l-60 -427q-3 -20 -3 -37q0 -45 16.5 -72.5t41.5 -45.5q38 21 65 56.5t36 98.5
l60 427h86l-60 -427q-3 -20 -3 -36q0 -46 17.5 -73.5t42.5 -45.5q40 21 65.5 56.5t34.5 98.5zM446 864l-165 -141l-25 32l162 153h67l118 -153l-33 -32z" />
    <glyph glyph-name="wcircumflex" unicode="&#x175;" horiz-adv-x="587" 
d="M541 492h83l-40 -280q-8 -51 -25.5 -89t-41.5 -66t-53.5 -48.5t-62.5 -36.5q-40 19 -63.5 48t-33.5 60q-19 -31 -50.5 -60t-76.5 -48q-24 15 -45.5 32t-38 39.5t-26.5 52t-10 69.5q0 24 4 47l40 280h83l-42 -294q-2 -5 -2 -10v-10q0 -47 12.5 -71t38.5 -44
q15 9 28.5 19.5t25 26t20.5 37t14 52.5l42 294h83l-37 -264q-2 -17 -3.5 -31.5t-1.5 -27.5q0 -46 14 -68.5t36 -37.5q14 9 27.5 20t25.5 27t21 37.5t13 50.5zM391 692l-165 -141l-25 32l162 153h67l118 -153l-33 -32z" />
    <glyph glyph-name="Ycircumflex" unicode="&#x176;" horiz-adv-x="421" 
d="M166 0l32 234q-22 15 -42 32.5t-35 39.5t-24 50t-9 63q0 11 1 22t3 23l28 200h92l-30 -209q-2 -5 -2 -9.5v-9.5q0 -29 5.5 -49t15 -34.5t23 -26t29.5 -21.5q20 10 38.5 23t33.5 30t26 40.5t16 56.5l30 209h89l-28 -200q-6 -47 -22 -82t-38.5 -62.5t-50.5 -48t-58 -37.5
l-32 -234h-91zM334 864l-165 -141l-25 32l162 153h67l118 -153l-33 -32z" />
    <glyph glyph-name="ycircumflex" unicode="&#x177;" horiz-adv-x="402" 
d="M288 24q-18 -11 -44.5 -19t-66.5 -8q-26 0 -49 5t-40 18t-27.5 35.5t-10.5 57.5q0 17 3 40l48 339h83l-48 -336q-1 -5 -1 -9.5v-9.5q0 -36 19 -48.5t51 -12.5q33 0 56 7.5t38 17.5l55 391h83l-83 -587q-6 -43 -23 -72t-41.5 -46.5t-56.5 -25t-68 -7.5q-30 0 -55.5 6
t-44 19.5t-29 36t-10.5 55.5q0 16 3 34l6 39h78l-6 -39q-1 -3 -1 -15q0 -32 19 -44.5t51 -12.5q38 0 63.5 16t31.5 56zM300 692l-165 -141l-25 32l162 153h67l118 -153l-33 -32z" />
    <glyph glyph-name="Ydieresis" unicode="&#x178;" horiz-adv-x="421" 
d="M166 0l32 234q-22 15 -42 32.5t-35 39.5t-24 50t-9 63q0 11 1 22t3 23l28 200h92l-30 -209q-2 -5 -2 -9.5v-9.5q0 -29 5.5 -49t15 -34.5t23 -26t29.5 -21.5q20 10 38.5 23t33.5 30t26 40.5t16 56.5l30 209h89l-28 -200q-6 -47 -22 -82t-38.5 -62.5t-50.5 -48t-58 -37.5
l-32 -234h-91zM175 726l19 133h82l-19 -133h-82zM364 726l19 133h83l-19 -133h-83z" />
    <glyph glyph-name="Zacute" unicode="&#x179;" horiz-adv-x="391" 
d="M25 0l12 88l306 500h-226l11 76h324l-9 -65l-305 -520h232l-11 -79h-334zM202 706l6 45l242 131l-9 -66z" />
    <glyph glyph-name="zacute" unicode="&#x17a;" horiz-adv-x="369" 
d="M24 0l9 71l264 353h-199l10 68h299l-9 -60l-264 -362h220l-9 -70h-321zM167 534l6 45l242 131l-9 -66z" />
    <glyph glyph-name="Zdotaccent" unicode="&#x17b;" horiz-adv-x="391" 
d="M25 0l12 88l306 500h-226l11 76h324l-9 -65l-305 -520h232l-11 -79h-334zM255 726l19 133h82l-19 -133h-82z" />
    <glyph glyph-name="zdotaccent" unicode="&#x17c;" horiz-adv-x="369" 
d="M24 0l9 71l264 353h-199l10 68h299l-9 -60l-264 -362h220l-9 -70h-321zM220 554l19 133h82l-19 -133h-82z" />
    <glyph glyph-name="Zcaron" unicode="&#x17d;" horiz-adv-x="391" 
d="M25 0l12 88l306 500h-226l11 76h324l-9 -65l-305 -520h232l-11 -79h-334zM295 703l-151 162l32 33l128 -132l167 132l22 -33z" />
    <glyph glyph-name="zcaron" unicode="&#x17e;" horiz-adv-x="369" 
d="M24 0l9 71l264 353h-199l10 68h299l-9 -60l-264 -362h220l-9 -70h-321zM259 531l-151 162l32 33l128 -132l167 132l22 -33z" />
    <glyph glyph-name="florin" unicode="&#x192;" horiz-adv-x="461" 
d="M-36 -173l11 78h18q27 0 49 5t40 18t31 34.5t22 53.5l102 366h-89l10 67h98l13 45q15 51 37 85t52 54.5t68 29.5t83 9h25l-11 -78h-25q-49 0 -85.5 -25.5t-49.5 -74.5l-12 -45h99l-10 -67h-108l-103 -367q-15 -54 -37 -90.5t-52 -58t-69 -30.5t-89 -9h-18z" />
    <glyph glyph-name="uni0218" unicode="&#x218;" horiz-adv-x="401" 
d="M357 466l7 47q1 8 1.5 15t0.5 13q0 37 -18 50t-54 13q-26 0 -44 -4t-30 -15t-19.5 -31t-11.5 -52q-3 -20 -3 -33q0 -17 5 -29t16 -21.5t30 -17t47 -15.5q35 -11 58.5 -24t37.5 -30t20 -39t6 -51q0 -54 -9 -101.5t-32.5 -82.5t-65 -55t-105.5 -20q-72 0 -110.5 28
t-38.5 97q0 18 3 39l13 89h81l-12 -86q-2 -5 -2 -9v-9q0 -21 4 -34.5t13 -21.5t24.5 -11t38.5 -3q24 0 41 4t28.5 15.5t19 31.5t12.5 53q2 19 3.5 34t1.5 28q0 21 -5 35t-16.5 24t-31 18t-47.5 17q-63 20 -91 52.5t-28 87.5q0 48 11 88t35.5 69t64.5 45t99 16
q68 0 104.5 -27t36.5 -100v-10.5t-2 -10.5l-9 -66h-78zM160 -34h82l-10 -46q-6 -30 -17 -58.5t-25 -51t-32.5 -37t-39.5 -16.5z" />
    <glyph glyph-name="uni0219" unicode="&#x219;" horiz-adv-x="398" 
d="M334 347l6 38v9q0 23 -19 29.5t-59 6.5q-24 0 -42.5 -2t-31.5 -9t-19.5 -20t-6.5 -35q0 -23 15.5 -35.5t36.5 -19.5q34 -11 69 -21.5t65 -27.5q26 -15 35.5 -37t9.5 -48q0 -57 -15.5 -94.5t-43 -59t-64 -30t-78.5 -8.5q-28 0 -56 3.5t-50 14.5t-36 31t-14 52q0 5 0.5 10
t1.5 11l8 56h81l-5 -35q-1 -5 -1 -8.5v-7.5q0 -31 20.5 -41.5t62.5 -10.5q24 0 42.5 3.5t31 14t19 28.5t6.5 47q0 14 -5.5 22.5t-16.5 16.5q-18 13 -40.5 21t-45.5 15.5t-45 16t-39 21.5t-27.5 32t-10.5 48q0 52 18.5 83.5t47.5 48.5t64.5 23t68.5 6q26 0 52.5 -3t48 -13
t35 -27.5t13.5 -47.5v-10t-1 -10l-7 -47h-79zM159 -34h82l-10 -46q-6 -30 -17 -58.5t-25 -51t-32.5 -37t-39.5 -16.5z" />
    <glyph glyph-name="uni021A" unicode="&#x21a;" horiz-adv-x="361" 
d="M135 0l82 588h-122l11 76h335l-11 -76h-123l-82 -588h-90zM135 -34h82l-10 -46q-6 -30 -17 -58.5t-25 -51t-32.5 -37t-39.5 -16.5z" />
    <glyph glyph-name="uni021B" unicode="&#x21b;" horiz-adv-x="245" 
d="M79 0l60 431h-59l9 61h59l15 112h84l-15 -112h62l-9 -61h-62l-60 -431h-84zM77 -34h82l-10 -46q-6 -30 -17 -58.5t-25 -51t-32.5 -37t-39.5 -16.5z" />
    <glyph glyph-name="uni0237" unicode="&#x237;" horiz-adv-x="220" 
d="M-17 -154q9 -3 19 -3q30 0 51.5 16.5t26.5 54.5l82 578h82l-83 -586q-6 -41 -21.5 -67.5t-38 -42.5t-50 -22.5t-57.5 -6.5q-7 0 -12 0.5t-10 1.5z" />
    <glyph glyph-name="circumflex" unicode="&#x2c6;" horiz-adv-x="484" 
d="M339 692l-165 -141l-25 32l162 153h67l118 -153l-33 -32z" />
    <glyph glyph-name="caron" unicode="&#x2c7;" horiz-adv-x="485" 
d="M316 531l-151 162l32 33l128 -132l167 132l22 -33z" />
    <glyph glyph-name="breve" unicode="&#x2d8;" horiz-adv-x="447" 
d="M479 716q-6 -42 -23.5 -73t-42 -51.5t-54 -31t-59.5 -10.5q-60 0 -97 36.5t-37 110.5v9.5t2 9.5h52q-1 -5 -1 -10v-10q0 -48 24 -72t64 -24q43 0 76.5 28t42.5 88h53z" />
    <glyph glyph-name="dotaccent" unicode="&#x2d9;" horiz-adv-x="219" 
d="M145 554l19 133h82l-19 -133h-82z" />
    <glyph glyph-name="ring" unicode="&#x2da;" horiz-adv-x="335" 
d="M354 620q-7 -48 -33.5 -72t-80.5 -24q-87 0 -87 74q0 57 28.5 87.5t85.5 30.5q48 0 68 -19.5t20 -55.5v-10.5t-1 -10.5zM320 620q1 4 1 8v7q0 50 -58 50q-34 0 -53.5 -20t-19.5 -60q0 -49 55 -49q35 0 52.5 16t22.5 48z" />
    <glyph glyph-name="ogonek" unicode="&#x2db;" horiz-adv-x="273" 
d="M191 -229q-5 -2 -16.5 -3t-34.5 -1q-34 0 -56 6t-34.5 16.5t-17.5 24.5t-5 31q0 51 21 84t75 52l56 19h45l-67 -27q-34 -14 -47.5 -35t-13.5 -51q0 -21 13 -33t49 -12q32 0 44 4z" />
    <glyph glyph-name="tilde" unicode="&#x2dc;" horiz-adv-x="409" 
d="M132 602l8 57h312l-8 -57h-312z" />
    <glyph glyph-name="hungarumlaut" unicode="&#x2dd;" horiz-adv-x="447" 
d="M298 564l151 150l26 -24l-155 -148zM147 564l148 152l26 -24l-152 -150z" />
    <glyph glyph-name="uni0394" unicode="&#x394;" horiz-adv-x="421" 
d="M9 0l303 733l99 -733h-402zM276 479l-158 -400h204z" />
    <glyph glyph-name="uni0394" unicode="&#x2206;" horiz-adv-x="421" 
d="M9 0l303 733l99 -733h-402zM276 479l-158 -400h204z" />
    <glyph glyph-name="uni03A9" unicode="&#x3a9;" horiz-adv-x="446" 
d="M246 0l12 88q15 9 29.5 23t27 34t22 47.5t14.5 64.5l37 264q1 5 1 9.5v8.5q0 39 -23.5 52t-58.5 13q-40 0 -68.5 -16.5t-35.5 -66.5l-37 -264q-2 -13 -3.5 -24t-0.5 -22q0 -51 13 -79t36 -44l-12 -88h-162l11 79h93q-37 22 -52 57.5t-15 84.5q0 16 1.5 33t3.5 35l32 229
q6 46 25.5 77.5t47.5 50t62.5 26.5t71.5 8q36 0 66 -7t51 -23.5t33 -44t12 -67.5v-10t-2 -10l-32 -229q-11 -75 -37 -128t-83 -82h93l-11 -79h-162z" />
    <glyph glyph-name="uni03A9" unicode="&#x2126;" horiz-adv-x="446" 
d="M246 0l12 88q15 9 29.5 23t27 34t22 47.5t14.5 64.5l37 264q1 5 1 9.5v8.5q0 39 -23.5 52t-58.5 13q-40 0 -68.5 -16.5t-35.5 -66.5l-37 -264q-2 -13 -3.5 -24t-0.5 -22q0 -51 13 -79t36 -44l-12 -88h-162l11 79h93q-37 22 -52 57.5t-15 84.5q0 16 1.5 33t3.5 35l32 229
q6 46 25.5 77.5t47.5 50t62.5 26.5t71.5 8q36 0 66 -7t51 -23.5t33 -44t12 -67.5v-10t-2 -10l-32 -229q-11 -75 -37 -128t-83 -82h93l-11 -79h-162z" />
    <glyph glyph-name="pi" unicode="&#x3c0;" horiz-adv-x="420" 
d="M295 0l58 413h-171l-58 -413h-84l69 492h340l-69 -492h-85z" />
    <glyph glyph-name="Wgrave" unicode="&#x1e80;" horiz-adv-x="649" 
d="M618 664h89l-60 -427q-8 -56 -27.5 -95.5t-47 -68.5t-60.5 -50t-68 -39q-37 26 -64.5 57t-40.5 70q-20 -39 -58 -70t-83 -57q-26 15 -50.5 33t-43 42t-30 56t-11.5 74q0 28 4 48l60 427h92l-60 -427q-3 -20 -3 -37q0 -45 16.5 -72.5t41.5 -45.5q38 21 65 56.5t36 98.5
l60 427h86l-60 -427q-3 -20 -3 -36q0 -46 17.5 -73.5t42.5 -45.5q40 21 65.5 56.5t34.5 98.5zM306 816l9 66l206 -131l-6 -45z" />
    <glyph glyph-name="wgrave" unicode="&#x1e81;" horiz-adv-x="587" 
d="M541 492h83l-40 -280q-8 -51 -25.5 -89t-41.5 -66t-53.5 -48.5t-62.5 -36.5q-40 19 -63.5 48t-33.5 60q-19 -31 -50.5 -60t-76.5 -48q-24 15 -45.5 32t-38 39.5t-26.5 52t-10 69.5q0 24 4 47l40 280h83l-42 -294q-2 -5 -2 -10v-10q0 -47 12.5 -71t38.5 -44
q15 9 28.5 19.5t25 26t20.5 37t14 52.5l42 294h83l-37 -264q-2 -17 -3.5 -31.5t-1.5 -27.5q0 -46 14 -68.5t36 -37.5q14 9 27.5 20t25.5 27t21 37.5t13 50.5zM251 644l9 66l206 -131l-6 -45z" />
    <glyph glyph-name="Wacute" unicode="&#x1e82;" horiz-adv-x="649" 
d="M618 664h89l-60 -427q-8 -56 -27.5 -95.5t-47 -68.5t-60.5 -50t-68 -39q-37 26 -64.5 57t-40.5 70q-20 -39 -58 -70t-83 -57q-26 15 -50.5 33t-43 42t-30 56t-11.5 74q0 28 4 48l60 427h92l-60 -427q-3 -20 -3 -37q0 -45 16.5 -72.5t41.5 -45.5q38 21 65 56.5t36 98.5
l60 427h86l-60 -427q-3 -20 -3 -36q0 -46 17.5 -73.5t42.5 -45.5q40 21 65.5 56.5t34.5 98.5zM331 706l6 45l242 131l-9 -66z" />
    <glyph glyph-name="wacute" unicode="&#x1e83;" horiz-adv-x="587" 
d="M541 492h83l-40 -280q-8 -51 -25.5 -89t-41.5 -66t-53.5 -48.5t-62.5 -36.5q-40 19 -63.5 48t-33.5 60q-19 -31 -50.5 -60t-76.5 -48q-24 15 -45.5 32t-38 39.5t-26.5 52t-10 69.5q0 24 4 47l40 280h83l-42 -294q-2 -5 -2 -10v-10q0 -47 12.5 -71t38.5 -44
q15 9 28.5 19.5t25 26t20.5 37t14 52.5l42 294h83l-37 -264q-2 -17 -3.5 -31.5t-1.5 -27.5q0 -46 14 -68.5t36 -37.5q14 9 27.5 20t25.5 27t21 37.5t13 50.5zM276 534l6 45l242 131l-9 -66z" />
    <glyph glyph-name="Wdieresis" unicode="&#x1e84;" horiz-adv-x="649" 
d="M618 664h89l-60 -427q-8 -56 -27.5 -95.5t-47 -68.5t-60.5 -50t-68 -39q-37 26 -64.5 57t-40.5 70q-20 -39 -58 -70t-83 -57q-26 15 -50.5 33t-43 42t-30 56t-11.5 74q0 28 4 48l60 427h92l-60 -427q-3 -20 -3 -37q0 -45 16.5 -72.5t41.5 -45.5q38 21 65 56.5t36 98.5
l60 427h86l-60 -427q-3 -20 -3 -36q0 -46 17.5 -73.5t42.5 -45.5q40 21 65.5 56.5t34.5 98.5zM289 726l19 133h82l-19 -133h-82zM478 726l19 133h83l-19 -133h-83z" />
    <glyph glyph-name="wdieresis" unicode="&#x1e85;" horiz-adv-x="587" 
d="M541 492h83l-40 -280q-8 -51 -25.5 -89t-41.5 -66t-53.5 -48.5t-62.5 -36.5q-40 19 -63.5 48t-33.5 60q-19 -31 -50.5 -60t-76.5 -48q-24 15 -45.5 32t-38 39.5t-26.5 52t-10 69.5q0 24 4 47l40 280h83l-42 -294q-2 -5 -2 -10v-10q0 -47 12.5 -71t38.5 -44
q15 9 28.5 19.5t25 26t20.5 37t14 52.5l42 294h83l-37 -264q-2 -17 -3.5 -31.5t-1.5 -27.5q0 -46 14 -68.5t36 -37.5q14 9 27.5 20t25.5 27t21 37.5t13 50.5zM234 554l19 133h82l-19 -133h-82zM423 554l19 133h83l-19 -133h-83z" />
    <glyph glyph-name="Ygrave" unicode="&#x1ef2;" horiz-adv-x="421" 
d="M166 0l32 234q-22 15 -42 32.5t-35 39.5t-24 50t-9 63q0 11 1 22t3 23l28 200h92l-30 -209q-2 -5 -2 -9.5v-9.5q0 -29 5.5 -49t15 -34.5t23 -26t29.5 -21.5q20 10 38.5 23t33.5 30t26 40.5t16 56.5l30 209h89l-28 -200q-6 -47 -22 -82t-38.5 -62.5t-50.5 -48t-58 -37.5
l-32 -234h-91zM192 816l9 66l206 -131l-6 -45z" />
    <glyph glyph-name="ygrave" unicode="&#x1ef3;" horiz-adv-x="402" 
d="M288 24q-18 -11 -44.5 -19t-66.5 -8q-26 0 -49 5t-40 18t-27.5 35.5t-10.5 57.5q0 17 3 40l48 339h83l-48 -336q-1 -5 -1 -9.5v-9.5q0 -36 19 -48.5t51 -12.5q33 0 56 7.5t38 17.5l55 391h83l-83 -587q-6 -43 -23 -72t-41.5 -46.5t-56.5 -25t-68 -7.5q-30 0 -55.5 6
t-44 19.5t-29 36t-10.5 55.5q0 16 3 34l6 39h78l-6 -39q-1 -3 -1 -15q0 -32 19 -44.5t51 -12.5q38 0 63.5 16t31.5 56zM159 644l9 66l206 -131l-6 -45z" />
    <glyph glyph-name="endash" unicode="&#x2013;" horiz-adv-x="482" 
d="M82 277l10 66h394l-10 -66h-394z" />
    <glyph glyph-name="emdash" unicode="&#x2014;" horiz-adv-x="615" 
d="M60 277l10 66h571l-10 -66h-571z" />
    <glyph glyph-name="quoteleft" unicode="&#x2018;" horiz-adv-x="190" 
d="M134 672h92l-25 -287q-37 3 -59.5 35t-22.5 80v8t1 8z" />
    <glyph glyph-name="quoteright" unicode="&#x2019;" horiz-adv-x="190" 
d="M150 672h92l-30 -156q-5 -26 -16.5 -49t-27.5 -41t-35 -29t-38 -12z" />
    <glyph glyph-name="quotesinglbase" unicode="&#x201a;" horiz-adv-x="190" 
d="M76 151h92l-30 -156q-5 -26 -16.5 -49t-27.5 -41t-35 -29t-39 -12z" />
    <glyph glyph-name="quotedblleft" unicode="&#x201c;" horiz-adv-x="380" 
d="M134 672h92l-25 -287q-37 3 -59.5 35t-22.5 80v8t1 8zM324 672h92l-25 -287q-37 3 -59.5 35t-22.5 80v8t1 8z" />
    <glyph glyph-name="quotedblright" unicode="&#x201d;" horiz-adv-x="380" 
d="M150 672h92l-30 -156q-5 -26 -16.5 -49t-27.5 -41t-35 -29t-38 -12zM340 672h92l-30 -156q-5 -26 -16.5 -49t-27.5 -41t-35 -29t-38 -12z" />
    <glyph glyph-name="quotedblbase" unicode="&#x201e;" horiz-adv-x="380" 
d="M76 151h92l-30 -156q-5 -26 -16.5 -49t-27.5 -41t-35 -29t-39 -12zM266 151h92l-30 -156q-5 -26 -16.5 -49t-27.5 -41t-35 -29t-39 -12z" />
    <glyph glyph-name="dagger" unicode="&#x2020;" horiz-adv-x="343" 
d="M141 0l64 461h-101l8 54h101l21 149h68l-21 -149h93l-8 -54h-93l-64 -461h-68z" />
    <glyph glyph-name="daggerdbl" unicode="&#x2021;" horiz-adv-x="343" 
d="M141 0l20 149h-101l8 54h101l36 258h-101l8 54h101l21 149h68l-21 -149h93l-8 -54h-93l-36 -258h93l-8 -54h-93l-20 -149h-68z" />
    <glyph glyph-name="bullet" unicode="&#x2022;" horiz-adv-x="385" 
d="M382 343q-4 -27 -18.5 -49.5t-36 -39t-48.5 -26t-56 -9.5q-57 0 -91.5 29.5t-34.5 77.5q0 31 13 57t35 45t51.5 29.5t61.5 10.5q54 0 89.5 -30t35.5 -78v-8.5t-1 -8.5z" />
    <glyph glyph-name="ellipsis" unicode="&#x2026;" horiz-adv-x="1110" 
d="M65 0l21 151h92l-21 -151h-92zM509 0l21 151h92l-21 -151h-92zM953 0l21 151h92l-21 -151h-92z" />
    <glyph glyph-name="perthousand" unicode="&#x2030;" horiz-adv-x="698" 
d="M142 602q7 46 36.5 63.5t66.5 17.5q34 0 57.5 -14t23.5 -50v-8t-1 -9l-26 -187q-7 -47 -36 -64t-67 -17q-34 0 -57.5 14t-23.5 51v7.5t1 8.5zM279 602q1 4 1 7.5v6.5q0 17 -9.5 23t-30.5 6q-24 0 -36.5 -8.5t-16.5 -34.5l-26 -187q-1 -3 -1 -11q0 -18 10 -24t31 -6
q25 0 36.5 8t15.5 33zM32 -20l493 704h52l-494 -704h-51zM307 249q7 46 36.5 63.5t66.5 17.5q34 0 57.5 -14t23.5 -50v-8t-1 -9l-26 -187q-7 -47 -36 -64t-67 -17q-34 0 -57.5 14t-23.5 51v7.5t1 8.5zM444 249q1 4 1 7.5v6.5q0 17 -9.5 23t-30.5 6q-24 0 -36.5 -8.5
t-16.5 -34.5l-26 -187q-1 -3 -1 -11q0 -18 10 -24t31 -6q25 0 36.5 8t15.5 33zM514 249q7 46 36.5 63.5t66.5 17.5q34 0 57.5 -14t23.5 -50v-8t-1 -9l-26 -187q-7 -47 -36 -64t-67 -17q-34 0 -57.5 14t-23.5 51v7.5t1 8.5zM651 249q1 4 1 7.5v6.5q0 17 -9.5 23t-30.5 6
q-24 0 -36.5 -8.5t-16.5 -34.5l-26 -187q-1 -3 -1 -11q0 -18 10 -24t31 -6q25 0 36.5 8t15.5 33z" />
    <glyph glyph-name="guilsinglleft" unicode="&#x2039;" horiz-adv-x="220" 
d="M66 317l161 174l33 -44l-124 -130l88 -130l-46 -42z" />
    <glyph glyph-name="guilsinglright" unicode="&#x203a;" horiz-adv-x="220" 
d="M48 187l124 130l-88 130l46 44l112 -174l-161 -172z" />
    <glyph glyph-name="fraction" unicode="&#x2044;" horiz-adv-x="107" 
d="M-172 -20l493 704h52l-494 -704h-51z" />
    <glyph glyph-name="uni2070" unicode="&#x2070;" horiz-adv-x="247" 
d="M115 602q7 46 36.5 63.5t66.5 17.5q34 0 57.5 -14t23.5 -50v-8t-1 -9l-26 -187q-7 -47 -36 -64t-67 -17q-34 0 -57.5 14t-23.5 51v7.5t1 8.5zM252 602q1 4 1 7.5v6.5q0 17 -9.5 23t-30.5 6q-24 0 -36.5 -8.5t-16.5 -34.5l-26 -187q-1 -3 -1 -11q0 -18 10 -24t31 -6
q25 0 36.5 8t15.5 33z" />
    <glyph glyph-name="uni2074" unicode="&#x2074;" horiz-adv-x="235" 
d="M202 343l9 66h-128l6 43l135 223h43l-133 -227h84l11 78h42l-26 -183h-43z" />
    <glyph glyph-name="uni2075" unicode="&#x2075;" horiz-adv-x="240" 
d="M264 415q-7 -48 -32 -64.5t-67 -16.5q-35 0 -55.5 13.5t-20.5 48.5v9.5t1 9.5l4 30h40l-3 -26q-1 -4 -1 -7.5v-6.5q0 -19 10 -25t30 -6q23 0 34 8.5t15 36.5l6 42q0 3 0.5 6.5t0.5 5.5q0 32 -35 32q-23 0 -32 -4t-15 -11h-38l36 185h149l-6 -38h-107l-22 -111
q19 16 51 16q35 0 50 -15t15 -44v-10.5t-1 -10.5z" />
    <glyph glyph-name="uni2076" unicode="&#x2076;" horiz-adv-x="247" 
d="M272 412q-6 -44 -34 -61t-65 -17q-34 0 -59.5 14t-25.5 50q0 11 1 14l26 189q7 48 34.5 65t69.5 17q36 0 56 -13t20 -48v-10.5t-1 -10.5l-2 -19h-44l2 19q1 5 1 8.5v7.5q0 17 -8.5 22.5t-28.5 5.5q-24 0 -37 -8.5t-17 -35.5l-10 -72q8 8 24 16.5t41 8.5q26 0 46.5 -12
t20.5 -48q0 -5 -0.5 -10t-1.5 -11zM234 466q1 4 1 7.5v6.5q0 20 -10 28t-30 8q-36 0 -51 -33l-10 -71q-1 -3 -1 -10q0 -17 10 -22.5t31 -5.5t35.5 7.5t17.5 30.5z" />
    <glyph glyph-name="uni2077" unicode="&#x2077;" horiz-adv-x="219" 
d="M117 343q6 43 18.5 85.5t28 81.5t34 71t36.5 54h-121l6 40h165l-5 -34q-20 -25 -38 -58t-33.5 -71.5t-27.5 -81.5t-19 -87h-44z" />
    <glyph glyph-name="uni2078" unicode="&#x2078;" horiz-adv-x="245" 
d="M271 415q-6 -45 -33.5 -63t-69.5 -18q-38 0 -59.5 14.5t-21.5 49.5v8t1 9l5 36q3 23 16.5 39.5t38.5 21.5q-20 5 -28 19t-8 31v6.5t1 6.5l3 27q5 46 32 63.5t69 17.5q37 0 57.5 -13t20.5 -48v-10t-1 -10l-3 -27q-2 -21 -15.5 -39.5t-36.5 -23.5q38 -10 38 -50
q0 -2 -0.5 -5t-0.5 -6zM230 451q1 4 1 7.5v6.5q0 17 -9.5 23t-31.5 6q-26 0 -37 -8.5t-15 -34.5l-5 -36q-1 -3 -1 -11q0 -18 10.5 -24t30.5 -6q24 0 36 8t16 33zM250 601q1 4 1 7.5v6.5q0 18 -9.5 24t-29.5 6q-23 0 -36 -8.5t-16 -35.5l-3 -26q-1 -4 -1 -7.5v-6.5
q0 -17 9 -24t30 -7q24 0 36.5 10t15.5 35z" />
    <glyph glyph-name="uni2079" unicode="&#x2079;" horiz-adv-x="245" 
d="M236 492q-7 -8 -23 -16t-41 -8q-27 0 -47.5 12t-20.5 49q0 4 0.5 9t1.5 10l8 57q6 44 34 61t65 17q34 0 59.5 -14t25.5 -51q0 -10 -1 -13l-27 -189q-7 -48 -34 -65t-69 -17q-37 0 -57 13.5t-20 49.5v9.5t1 9.5l4 24h44l-4 -24q-1 -3 -1 -13q0 -17 9 -23t29 -6q25 0 37 8
t16 34zM252 605q0 3 0.5 5.5t0.5 5.5q0 17 -10 23t-31 6q-23 0 -36.5 -8t-16.5 -32l-7 -50q-1 -4 -1 -7.5v-6.5q0 -36 40 -36q35 0 52 33z" />
    <glyph glyph-name="uni2080" unicode="&#x2080;" horiz-adv-x="247" 
d="M66 249q7 46 36.5 63.5t66.5 17.5q34 0 57.5 -14t23.5 -50v-8t-1 -9l-26 -187q-7 -47 -36 -64t-67 -17q-34 0 -57.5 14t-23.5 51v7.5t1 8.5zM203 249q1 4 1 7.5v6.5q0 17 -9.5 23t-30.5 6q-24 0 -36.5 -8.5t-16.5 -34.5l-26 -187q-1 -3 -1 -11q0 -18 10 -24t31 -6
q25 0 36.5 8t15.5 33z" />
    <glyph glyph-name="uni2081" unicode="&#x2081;" horiz-adv-x="164" 
d="M82 -10l36 253v8q0 19 -11.5 26t-28.5 7q-9 0 -11 -1l6 42q2 0 5 0.5t7 0.5q33 0 56.5 -14t23.5 -50v-8t-1 -9l-36 -255h-46z" />
    <glyph glyph-name="uni2082" unicode="&#x2082;" horiz-adv-x="238" 
d="M31 -10l12 84q3 24 8.5 40.5t15.5 28t26 20t42 16.5q18 6 30.5 11t19.5 13t10 22.5t3 39.5q0 17 -8 22t-29 5q-28 0 -37.5 -7t-11.5 -24l-4 -30h-39l4 31q3 20 11 33t20.5 21t27.5 11t32 3q43 0 59.5 -14t16.5 -46q0 -57 -19.5 -84.5t-68.5 -40.5q-19 -6 -30 -11
t-17.5 -12t-9.5 -17t-5 -25l-7 -51h123l-6 -39h-169z" />
    <glyph glyph-name="uni2083" unicode="&#x2083;" horiz-adv-x="234" 
d="M211 62q-6 -45 -32 -63t-68 -18q-37 0 -56.5 13t-19.5 48q0 5 0.5 10t1.5 10l4 30h41l-3 -26q-1 -5 -1 -8.5v-7.5q0 -18 9 -23.5t29 -5.5q23 0 34.5 8t15.5 33l5 36q1 5 1 8.5v6.5q0 17 -8.5 22.5t-26.5 5.5h-27l5 36h27q20 0 31.5 10t14.5 35l3 26q1 5 1 8.5v6.5
q0 17 -8.5 23t-28.5 6q-25 0 -35.5 -9t-15.5 -39l-4 -24h-41l4 29q7 47 30.5 64t66.5 17q37 0 57 -13t20 -47q0 -5 -0.5 -10t-1.5 -11l-3 -27q-2 -21 -15.5 -39.5t-37.5 -23.5q20 -5 29 -18t9 -31q0 -3 -0.5 -6t-0.5 -6z" />
    <glyph glyph-name="uni2084" unicode="&#x2084;" horiz-adv-x="235" 
d="M153 -10l9 66h-128l6 43l135 223h43l-133 -227h84l11 78h42l-26 -183h-43z" />
    <glyph glyph-name="uni2085" unicode="&#x2085;" horiz-adv-x="240" 
d="M215 62q-7 -48 -32 -64.5t-67 -16.5q-35 0 -55.5 13.5t-20.5 48.5v9.5t1 9.5l4 30h40l-3 -26q-1 -4 -1 -7.5v-6.5q0 -19 10 -25t30 -6q23 0 34 8.5t15 36.5l6 42q0 3 0.5 6.5t0.5 5.5q0 32 -35 32q-23 0 -32 -4t-15 -11h-38l36 185h149l-6 -38h-107l-22 -111q19 16 51 16
q35 0 50 -15t15 -44v-10.5t-1 -10.5z" />
    <glyph glyph-name="uni2086" unicode="&#x2086;" horiz-adv-x="247" 
d="M223 59q-6 -44 -34 -61t-65 -17q-34 0 -59.5 14t-25.5 50q0 11 1 14l26 189q7 48 34.5 65t69.5 17q36 0 56 -13t20 -48v-10.5t-1 -10.5l-2 -19h-44l2 19q1 5 1 8.5v7.5q0 17 -8.5 22.5t-28.5 5.5q-24 0 -37 -8.5t-17 -35.5l-10 -72q8 8 24 16.5t41 8.5q26 0 46.5 -12
t20.5 -48q0 -5 -0.5 -10t-1.5 -11zM185 113q1 4 1 7.5v6.5q0 20 -10 28t-30 8q-36 0 -51 -33l-10 -71q-1 -3 -1 -10q0 -17 10 -22.5t31 -5.5t35.5 7.5t17.5 30.5z" />
    <glyph glyph-name="uni2087" unicode="&#x2087;" horiz-adv-x="219" 
d="M68 -10q6 43 18.5 85.5t28 81.5t34 71t36.5 54h-121l6 40h165l-5 -34q-20 -25 -38 -58t-33.5 -71.5t-27.5 -81.5t-19 -87h-44z" />
    <glyph glyph-name="uni2088" unicode="&#x2088;" horiz-adv-x="245" 
d="M222 62q-6 -45 -33.5 -63t-69.5 -18q-38 0 -59.5 14.5t-21.5 49.5v8t1 9l5 36q3 23 16.5 39.5t38.5 21.5q-20 5 -28 19t-8 31v6.5t1 6.5l3 27q5 46 32 63.5t69 17.5q37 0 57.5 -13t20.5 -48v-10t-1 -10l-3 -27q-2 -21 -15.5 -39.5t-36.5 -23.5q38 -10 38 -50
q0 -2 -0.5 -5t-0.5 -6zM181 98q1 4 1 7.5v6.5q0 17 -9.5 23t-31.5 6q-26 0 -37 -8.5t-15 -34.5l-5 -36q-1 -3 -1 -11q0 -18 10.5 -24t30.5 -6q24 0 36 8t16 33zM201 248q1 4 1 7.5v6.5q0 18 -9.5 24t-29.5 6q-23 0 -36 -8.5t-16 -35.5l-3 -26q-1 -4 -1 -7.5v-6.5
q0 -17 9 -24t30 -7q24 0 36.5 10t15.5 35z" />
    <glyph glyph-name="uni2089" unicode="&#x2089;" horiz-adv-x="245" 
d="M187 139q-7 -8 -23 -16t-41 -8q-27 0 -47.5 12t-20.5 49q0 4 0.5 9t1.5 10l8 57q6 44 34 61t65 17q34 0 59.5 -14t25.5 -51q0 -10 -1 -13l-27 -189q-7 -48 -34 -65t-69 -17q-37 0 -57 13.5t-20 49.5v9.5t1 9.5l4 24h44l-4 -24q-1 -3 -1 -13q0 -17 9 -23t29 -6q25 0 37 8
t16 34zM203 252q0 3 0.5 5.5t0.5 5.5q0 17 -10 23t-31 6q-23 0 -36.5 -8t-16.5 -32l-7 -50q-1 -4 -1 -7.5v-6.5q0 -36 40 -36q35 0 52 33z" />
    <glyph glyph-name="Euro" unicode="&#x20ac;" horiz-adv-x="360" 
d="M325 -9q-11 -4 -33.5 -6t-50.5 -2q-35 0 -65 6.5t-52 21t-34 39t-12 60.5q0 15 3 35l14 104h-38l13 43h32l12 87h-38l12 42h32l13 97q6 46 24.5 77.5t45.5 50t62 26.5t74 8q36 0 74 -9l-24 -75q-15 5 -30 6.5t-31 1.5q-42 0 -69 -17.5t-34 -65.5l-14 -100h130l-13 -42
h-123l-12 -87h111l-14 -43h-104l-14 -104q-1 -5 -1.5 -9.5t-0.5 -8.5q0 -36 23 -50.5t59 -14.5q27 0 47.5 3t37.5 8z" />
    <glyph glyph-name="trademark" unicode="&#x2122;" horiz-adv-x="549" 
d="M140 353l39 280h-58l6 39h162l-6 -39h-58l-39 -280h-46zM513 353l34 243q0 2 0.5 4.5t0.5 4.5q0 30 -34 30q-24 0 -37 -9l-38 -273h-44l38 271q-5 6 -15 8.5t-20 2.5q-24 0 -37 -6l-39 -276h-46l44 313q12 5 32.5 9.5t48.5 4.5q37 0 56 -17q8 7 24.5 12t39.5 5
q32 0 53.5 -15t21.5 -49q0 -12 -1 -15l-35 -248h-47z" />
    <glyph glyph-name="onethird" unicode="&#x2153;" horiz-adv-x="529" 
d="M171 343l36 253v8q0 19 -11.5 26t-28.5 7q-9 0 -11 -1l6 42q2 0 5 0.5t7 0.5q33 0 56.5 -14t23.5 -50v-8t-1 -9l-36 -255h-46zM31 -20l493 704h52l-494 -704h-51zM502 62q-6 -45 -32 -63t-68 -18q-37 0 -56.5 13t-19.5 48q0 5 0.5 10t1.5 10l4 30h41l-3 -26
q-1 -5 -1 -8.5v-7.5q0 -18 9 -23.5t29 -5.5q23 0 34.5 8t15.5 33l5 36q1 5 1 8.5v6.5q0 17 -8.5 22.5t-26.5 5.5h-27l5 36h27q20 0 31.5 10t14.5 35l3 26q1 5 1 8.5v6.5q0 17 -8.5 23t-28.5 6q-25 0 -35.5 -9t-15.5 -39l-4 -24h-41l4 29q7 47 30.5 64t66.5 17q37 0 57 -13
t20 -47q0 -5 -0.5 -10t-1.5 -11l-3 -27q-2 -21 -15.5 -39.5t-37.5 -23.5q20 -5 29 -18t9 -31q0 -3 -0.5 -6t-0.5 -6z" />
    <glyph glyph-name="twothirds" unicode="&#x2154;" horiz-adv-x="519" 
d="M86 343l12 84q3 24 8.5 40.5t15.5 28t26 20t42 16.5q18 6 30.5 11t19.5 13t10 22.5t3 39.5q0 17 -8 22t-29 5q-28 0 -37.5 -7t-11.5 -24l-4 -30h-39l4 31q3 20 11 33t20.5 21t27.5 11t32 3q43 0 59.5 -14t16.5 -46q0 -57 -19.5 -84.5t-68.5 -40.5q-19 -6 -30 -11
t-17.5 -12t-9.5 -17t-5 -25l-7 -51h123l-6 -39h-169zM38 -20l493 704h52l-494 -704h-51zM492 62q-6 -45 -32 -63t-68 -18q-37 0 -56.5 13t-19.5 48q0 5 0.5 10t1.5 10l4 30h41l-3 -26q-1 -5 -1 -8.5v-7.5q0 -18 9 -23.5t29 -5.5q23 0 34.5 8t15.5 33l5 36q1 5 1 8.5v6.5
q0 17 -8.5 22.5t-26.5 5.5h-27l5 36h27q20 0 31.5 10t14.5 35l3 26q1 5 1 8.5v6.5q0 17 -8.5 23t-28.5 6q-25 0 -35.5 -9t-15.5 -39l-4 -24h-41l4 29q7 47 30.5 64t66.5 17q37 0 57 -13t20 -47q0 -5 -0.5 -10t-1.5 -11l-3 -27q-2 -21 -15.5 -39.5t-37.5 -23.5q20 -5 29 -18
t9 -31q0 -3 -0.5 -6t-0.5 -6z" />
    <glyph glyph-name="oneeighth" unicode="&#x215b;" horiz-adv-x="540" 
d="M171 343l36 253v8q0 19 -11.5 26t-28.5 7q-9 0 -11 -1l6 42q2 0 5 0.5t7 0.5q33 0 56.5 -14t23.5 -50v-8t-1 -9l-36 -255h-46zM34 -20l493 704h52l-494 -704h-51zM513 62q-6 -45 -33.5 -63t-69.5 -18q-38 0 -59.5 14.5t-21.5 49.5v8t1 9l5 36q3 23 16.5 39.5t38.5 21.5
q-20 5 -28 19t-8 31v6.5t1 6.5l3 27q5 46 32 63.5t69 17.5q37 0 57.5 -13t20.5 -48v-10t-1 -10l-3 -27q-2 -21 -15.5 -39.5t-36.5 -23.5q38 -10 38 -50q0 -2 -0.5 -5t-0.5 -6zM472 98q1 4 1 7.5v6.5q0 17 -9.5 23t-31.5 6q-26 0 -37 -8.5t-15 -34.5l-5 -36q-1 -3 -1 -11
q0 -18 10.5 -24t30.5 -6q24 0 36 8t16 33zM492 248q1 4 1 7.5v6.5q0 18 -9.5 24t-29.5 6q-23 0 -36 -8.5t-16 -35.5l-3 -26q-1 -4 -1 -7.5v-6.5q0 -17 9 -24t30 -7q24 0 36.5 10t15.5 35z" />
    <glyph glyph-name="threeeighths" unicode="&#x215c;" horiz-adv-x="520" 
d="M280 415q-6 -45 -32 -63t-68 -18q-37 0 -56.5 13t-19.5 48q0 5 0.5 10t1.5 10l4 30h41l-3 -26q-1 -5 -1 -8.5v-7.5q0 -18 9 -23.5t29 -5.5q23 0 34.5 8t15.5 33l5 36q1 5 1 8.5v6.5q0 17 -8.5 22.5t-26.5 5.5h-27l5 36h27q20 0 31.5 10t14.5 35l3 26q1 5 1 8.5v6.5
q0 17 -8.5 23t-28.5 6q-25 0 -35.5 -9t-15.5 -39l-4 -24h-41l4 29q7 47 30.5 64t66.5 17q37 0 57 -13t20 -47q0 -5 -0.5 -10t-1.5 -11l-3 -27q-2 -21 -15.5 -39.5t-37.5 -23.5q20 -5 29 -18t9 -31q0 -3 -0.5 -6t-0.5 -6zM36 -20l493 704h52l-494 -704h-51zM493 62
q-6 -45 -33.5 -63t-69.5 -18q-38 0 -59.5 14.5t-21.5 49.5v8t1 9l5 36q3 23 16.5 39.5t38.5 21.5q-20 5 -28 19t-8 31v6.5t1 6.5l3 27q5 46 32 63.5t69 17.5q37 0 57.5 -13t20.5 -48v-10t-1 -10l-3 -27q-2 -21 -15.5 -39.5t-36.5 -23.5q38 -10 38 -50q0 -2 -0.5 -5t-0.5 -6z
M452 98q1 4 1 7.5v6.5q0 17 -9.5 23t-31.5 6q-26 0 -37 -8.5t-15 -34.5l-5 -36q-1 -3 -1 -11q0 -18 10.5 -24t30.5 -6q24 0 36 8t16 33zM472 248q1 4 1 7.5v6.5q0 18 -9.5 24t-29.5 6q-23 0 -36 -8.5t-16 -35.5l-3 -26q-1 -4 -1 -7.5v-6.5q0 -17 9 -24t30 -7q24 0 36.5 10
t15.5 35z" />
    <glyph glyph-name="fiveeighths" unicode="&#x215d;" horiz-adv-x="520" 
d="M278 415q-7 -48 -32 -64.5t-67 -16.5q-35 0 -55.5 13.5t-20.5 48.5v9.5t1 9.5l4 30h40l-3 -26q-1 -4 -1 -7.5v-6.5q0 -19 10 -25t30 -6q23 0 34 8.5t15 36.5l6 42q0 3 0.5 6.5t0.5 5.5q0 32 -35 32q-23 0 -32 -4t-15 -11h-38l36 185h149l-6 -38h-107l-22 -111
q19 16 51 16q35 0 50 -15t15 -44v-10.5t-1 -10.5zM36 -20l493 704h52l-494 -704h-51zM493 62q-6 -45 -33.5 -63t-69.5 -18q-38 0 -59.5 14.5t-21.5 49.5v8t1 9l5 36q3 23 16.5 39.5t38.5 21.5q-20 5 -28 19t-8 31v6.5t1 6.5l3 27q5 46 32 63.5t69 17.5q37 0 57.5 -13
t20.5 -48v-10t-1 -10l-3 -27q-2 -21 -15.5 -39.5t-36.5 -23.5q38 -10 38 -50q0 -2 -0.5 -5t-0.5 -6zM452 98q1 4 1 7.5v6.5q0 17 -9.5 23t-31.5 6q-26 0 -37 -8.5t-15 -34.5l-5 -36q-1 -3 -1 -11q0 -18 10.5 -24t30.5 -6q24 0 36 8t16 33zM472 248q1 4 1 7.5v6.5
q0 18 -9.5 24t-29.5 6q-23 0 -36 -8.5t-16 -35.5l-3 -26q-1 -4 -1 -7.5v-6.5q0 -17 9 -24t30 -7q24 0 36.5 10t15.5 35z" />
    <glyph glyph-name="seveneighths" unicode="&#x215e;" horiz-adv-x="530" 
d="M162 343q6 43 18.5 85.5t28 81.5t34 71t36.5 54h-121l6 40h165l-5 -34q-20 -25 -38 -58t-33.5 -71.5t-27.5 -81.5t-19 -87h-44zM35 -20l493 704h52l-494 -704h-51zM503 62q-6 -45 -33.5 -63t-69.5 -18q-38 0 -59.5 14.5t-21.5 49.5v8t1 9l5 36q3 23 16.5 39.5t38.5 21.5
q-20 5 -28 19t-8 31v6.5t1 6.5l3 27q5 46 32 63.5t69 17.5q37 0 57.5 -13t20.5 -48v-10t-1 -10l-3 -27q-2 -21 -15.5 -39.5t-36.5 -23.5q38 -10 38 -50q0 -2 -0.5 -5t-0.5 -6zM462 98q1 4 1 7.5v6.5q0 17 -9.5 23t-31.5 6q-26 0 -37 -8.5t-15 -34.5l-5 -36q-1 -3 -1 -11
q0 -18 10.5 -24t30.5 -6q24 0 36 8t16 33zM482 248q1 4 1 7.5v6.5q0 18 -9.5 24t-29.5 6q-23 0 -36 -8.5t-16 -35.5l-3 -26q-1 -4 -1 -7.5v-6.5q0 -17 9 -24t30 -7q24 0 36.5 10t15.5 35z" />
    <glyph glyph-name="partialdiff" unicode="&#x2202;" horiz-adv-x="464" 
d="M283 675q12 2 23.5 3.5t22.5 1.5q33 0 63 -12t52.5 -36.5t35.5 -63.5t13 -93q0 -17 -1 -34t-4 -37q-12 -83 -33 -159t-54.5 -134t-81 -93t-111.5 -35q-83 0 -118.5 40t-35.5 114q0 70 17.5 125t47.5 93t70.5 58.5t86.5 20.5q22 0 44.5 -5.5t41.5 -20t31 -39.5t13 -63
q8 36 15 76t7 78q0 30 -5.5 56.5t-19 46.5t-36.5 31.5t-58 11.5q-21 0 -36 -4zM376 234q0 67 -26 97t-80 30q-30 0 -56.5 -13.5t-46.5 -39t-32 -62.5t-12 -85q0 -51 23.5 -78t71.5 -27q57 0 95 40.5t63 119.5v18z" />
    <glyph glyph-name="product" unicode="&#x220f;" horiz-adv-x="459" 
d="M310 -233l117 836h-229l-117 -836h-74l126 897h378l-126 -897h-75z" />
    <glyph glyph-name="summation" unicode="&#x2211;" horiz-adv-x="433" 
d="M18 -182l7 53l265 370l-161 370l8 53h345l-10 -71h-261l145 -352l-244 -353h261l-10 -70h-345z" />
    <glyph glyph-name="minus" unicode="&#x2212;" horiz-adv-x="551" 
d="M89 313l9 63h458l-9 -63h-458z" />
    <glyph glyph-name="radical" unicode="&#x221a;" horiz-adv-x="506" 
d="M209 0l-66 313h-74l8 53h139l42 -257l250 555h78l-307 -664h-70z" />
    <glyph glyph-name="infinity" unicode="&#x221e;" horiz-adv-x="585" 
d="M332 283q-28 -55 -65.5 -81.5t-94.5 -26.5q-51 0 -84 32.5t-33 96.5q0 50 14 88t37.5 63.5t53 38t59.5 12.5q57 0 86 -26t43 -83q29 57 66 83t94 26q51 0 83.5 -31.5t32.5 -97.5q0 -50 -14 -87.5t-37 -63t-52 -38.5t-60 -13q-57 0 -87 26.5t-42 81.5zM366 338
q7 -51 29 -76t64 -25q46 0 76 31t30 94q0 38 -20.5 59t-56.5 21q-42 0 -69.5 -25t-52.5 -79zM314 338q-11 52 -32.5 78t-60.5 26q-46 0 -77 -32.5t-31 -92.5q0 -80 79 -80q42 0 70.5 26t51.5 75z" />
    <glyph glyph-name="integral" unicode="&#x222b;" horiz-adv-x="364" 
d="M-22 -233l10 73h26q42 0 72.5 22.5t38.5 79.5l78 555q13 92 71 133.5t147 41.5h27l-10 -74h-27q-21 0 -40 -5t-34 -17t-25.5 -31.5t-13.5 -47.5l-78 -555q-14 -93 -71 -134t-145 -41h-26z" />
    <glyph glyph-name="approxequal" unicode="&#x2248;" horiz-adv-x="579" 
d="M562 209q-35 -35 -71 -51t-82 -16q-29 0 -54 10t-48.5 21.5t-47.5 21.5t-52 10q-42 0 -75.5 -19t-66.5 -56l10 69q25 26 58.5 46.5t78.5 20.5q34 0 61.5 -9.5t51.5 -21.5t47 -21.5t49 -9.5q42 0 78 15.5t73 57.5zM591 428q-35 -35 -71 -51t-82 -16q-29 0 -54 10
t-48.5 21.5t-47.5 21.5t-52 10q-42 0 -75.5 -19t-66.5 -56l10 69q25 26 58.5 46.5t78.5 20.5q34 0 61.5 -9.5t51.5 -21.5t47 -21.5t49 -9.5q42 0 78 15.5t73 57.5z" />
    <glyph glyph-name="notequal" unicode="&#x2260;" horiz-adv-x="531" 
d="M237 211l-184 -231h-44l183 231h-124l9 63h165l110 138h-256l9 63h297l167 209h46l-168 -209h111l-9 -63h-152l-110 -138h243l-9 -63h-284z" />
    <glyph glyph-name="lessequal" unicode="&#x2264;" horiz-adv-x="551" 
d="M89 312l9 62l488 216l-9 -70l-413 -177l363 -178l-10 -69zM48 14l9 63h458l-9 -63h-458z" />
    <glyph glyph-name="greaterequal" unicode="&#x2265;" horiz-adv-x="551" 
d="M59 96l10 69l412 178l-362 177l9 70l428 -216l-9 -62zM48 14l9 63h458l-9 -63h-458z" />
    <glyph glyph-name="lozenge" unicode="&#x25ca;" horiz-adv-x="519" 
d="M219 0l-140 332l233 332h90l130 -332l-223 -332h-90zM446 332l-102 251l-177 -251l107 -251z" />
    <glyph glyph-name="uniF8FF" unicode="&#xf8ff;" horiz-adv-x="190" 
 />
    <glyph glyph-name="glyph398" horiz-adv-x="0" 
 />
    </font>
</defs>
</svg>
